VERSION	0.00.00	1.03.00
FES_MODE	0
BPM_DEF	 97.500	195.000	195.000	 97.500
MET_DEF	4	4
RESOLUTION	384
CLK_DEF	384
COMPATIBLE_CODE	MA2

BPM	0	0	 97.500
BPM	11	0	195.000
MET	0	0	4	4

TAP	2	0	0
TAP	3	0	7
TAP	4	0	1
TAP	5	0	6
TAP	6	0	0
TAP	7	0	7
TAP	8	0	1
STR	9	0	6
SI_	9	0	6	48	336	2
TAP	11	0	0
TAP	11	192	0
TAP	12	0	1
TAP	12	192	1
TAP	13	0	2
TAP	13	192	2
TAP	14	0	3
TAP	14	0	4
TAP	15	0	4
TAP	15	192	4
TAP	16	0	5
TAP	16	192	5
TAP	17	0	6
TAP	17	192	6
TAP	18	0	0
TAP	18	0	7
TAP	19	0	7
TAP	19	192	7
TAP	20	0	6
TAP	20	192	6
TAP	21	0	5
TAP	21	192	5
TAP	22	0	3
TAP	22	0	4
TAP	23	0	3
TAP	23	192	3
TAP	24	0	2
TAP	24	192	2
TAP	25	0	1
TAP	25	192	1
BRK	26	0	0
BRK	26	0	7
TAP	27	0	0
TAP	28	0	0
TAP	28	192	0
TAP	29	0	1
TAP	30	0	1
TAP	30	192	1
TAP	31	0	2
TAP	32	0	2
TAP	32	192	2
TAP	33	0	3
TAP	34	0	3
TAP	34	0	4
TAP	34	192	3
TAP	34	192	4
TAP	35	0	3
TAP	35	0	4
TAP	36	0	4
TAP	36	192	4
TAP	37	0	5
TAP	38	0	5
TAP	38	192	5
TAP	39	0	6
TAP	40	0	6
TAP	40	192	6
STR	41	0	7
SI_	41	0	7	96	288	3
HLD	43	0	4	192
HLD	44	0	3	192
TAP	45	0	2
TAP	45	192	2
TAP	46	0	1
HLD	47	0	0	192
HLD	48	0	7	192
TAP	49	0	6
TAP	49	192	6
TAP	50	0	4
TAP	50	0	5
HLD	51	0	2	192
HLD	51	0	3	192
HLD	52	0	4	192
HLD	52	0	5	192
TAP	53	0	6
TAP	53	192	6
TAP	54	0	7
HLD	55	0	0	192
HLD	55	0	1	192
HLD	56	0	6	192
HLD	56	0	7	192
TAP	57	0	0
TAP	57	192	0
TAP	58	0	1
TAP	58	192	1
HLD	59	0	2	384
HLD	59	0	3	384
BRK	61	0	4
TAP	63	0	3
TAP	63	96	3
TAP	63	192	3
TAP	64	0	2
TAP	64	96	2
TAP	64	192	2
TAP	65	0	1
TAP	65	96	1
TAP	65	192	1
TAP	66	0	0
TAP	66	0	1
TAP	67	0	7
TAP	67	96	7
TAP	67	192	7
TAP	68	0	6
TAP	68	96	6
TAP	68	192	6
TAP	69	0	5
TAP	69	96	5
TAP	69	192	5
HLD	70	0	3	192
HLD	70	0	4	192
TAP	71	0	4
TAP	71	96	4
TAP	71	192	4
TAP	72	0	5
TAP	72	96	5
TAP	72	192	5
TAP	73	0	6
TAP	73	96	6
TAP	73	192	6
TAP	74	0	6
TAP	74	0	7
TAP	75	0	0
TAP	75	0	1
TAP	75	192	0
TAP	75	192	1
TAP	76	0	2
TAP	76	0	3
TAP	76	192	2
TAP	76	192	3
TAP	77	0	4
TAP	77	0	5
TAP	77	192	4
TAP	77	192	5
TAP	78	0	6
TAP	78	0	7
TAP	78	192	6
TAP	78	192	7
STR	79	0	0
SI_	79	0	0	96	288	3
STR	79	0	7
SI_	79	0	7	96	288	4
TAP	83	0	4
TAP	83	192	4
TAP	84	0	5
TAP	84	192	5
TAP	85	0	6
TAP	85	192	6
TAP	86	0	7
TAP	86	192	7
TAP	87	0	0
TAP	87	0	1
TAP	87	192	0
TAP	87	192	1
TAP	88	0	6
TAP	88	0	7
TAP	88	192	6
TAP	88	192	7
TAP	89	0	0
TAP	89	0	1
TAP	89	192	0
TAP	89	192	1
TAP	90	0	6
TAP	90	0	7
TAP	90	192	6
TAP	90	192	7
TAP	91	0	1
TAP	91	0	7
TAP	91	192	1
TAP	91	192	7
TAP	92	0	0
TAP	92	0	6
TAP	92	192	0
TAP	92	192	6
TAP	93	0	1
TAP	93	0	7
TAP	93	192	1
TAP	93	192	7
TAP	94	0	0
TAP	94	0	6
TAP	94	192	0
TAP	94	192	6
STR	95	0	7
SI_	95	0	7	96	672	3

T_REC_TAP	162
T_REC_BRK	3
T_REC_XTP	0
T_REC_HLD	16
T_REC_XHO	0
T_REC_STR	5
T_REC_BST	0
T_REC_XST	0
T_REC_TTP	0
T_REC_THO	0
T_REC_SLD	5
T_REC_ALL	191
T_NUM_TAP	167
T_NUM_BRK	3
T_NUM_HLD	16
T_NUM_SLD	5
T_NUM_ALL	191
T_JUDGE_TAP	170
T_JUDGE_HLD	72
T_JUDGE_SLD	5
T_JUDGE_ALL	247
TTM_EACHPAIRS	41
TTM_SCR_TAP	83500
TTM_SCR_BRK	7800
TTM_SCR_HLD	16000
TTM_SCR_SLD	7500
TTM_SCR_ALL	114800
TTM_SCR_S	111100
TTM_SCR_SS	114500
TTM_RAT_ACV	10026

