VERSION	0.00.00	1.03.00
FES_MODE	0
BPM_DEF	200.000	200.000	200.000	200.000
MET_DEF	4	4
RESOLUTION	384
CLK_DEF	384
COMPATIBLE_CODE	MA2

BPM	0	0	200.000
MET	0	0	4	4

TAP	4	288	3
TAP	4	312	4
TAP	4	336	3
TAP	4	360	4
TAP	5	0	3
TAP	5	48	3
TAP	5	96	5
TAP	5	144	5
TAP	5	192	6
TAP	5	192	7
TAP	5	288	1
TAP	5	288	4
TAP	6	0	4
TAP	6	48	4
TAP	6	96	2
TAP	6	144	2
TAP	6	192	0
TAP	6	192	1
TAP	6	288	3
TAP	6	288	6
TAP	7	0	3
TAP	7	48	3
TAP	7	96	5
TAP	7	144	5
TAP	7	192	6
TAP	7	192	7
TAP	7	288	1
TAP	7	288	4
TAP	8	0	4
TAP	8	48	4
TAP	8	96	2
TAP	8	144	2
TAP	8	192	0
TAP	8	192	1
TAP	8	288	3
TAP	8	288	6
TAP	9	0	4
TAP	9	48	4
TAP	9	96	1
TAP	9	144	1
TAP	9	192	2
TAP	9	192	3
TAP	9	288	0
TAP	9	288	5
TAP	10	0	3
TAP	10	48	3
TAP	10	96	6
TAP	10	144	6
TAP	10	192	4
TAP	10	192	5
TAP	10	288	2
TAP	10	288	7
TAP	11	0	4
TAP	11	48	4
TAP	11	96	1
TAP	11	144	1
TAP	11	192	2
TAP	11	192	3
TAP	11	288	0
TAP	11	288	5
TAP	12	0	3
TAP	12	48	3
TAP	12	96	6
TAP	12	144	6
TAP	12	192	4
TAP	12	192	5
TAP	12	288	2
TAP	12	288	7
TAP	13	0	4
HLD	13	0	5	672
TAP	13	96	4
TAP	13	192	3
TAP	13	288	3
TAP	14	0	4
TAP	14	96	4
TAP	14	192	3
TAP	14	288	3
HLD	15	0	2	672
TAP	15	0	3
TAP	15	96	3
TAP	15	192	4
TAP	15	288	4
TAP	16	0	3
TAP	16	96	3
TAP	16	192	4
TAP	16	288	4
TAP	17	0	4
HLD	17	0	5	288
TAP	17	96	3
TAP	17	192	4
TAP	17	288	3
STR	18	0	4
SSL	18	0	4	96	192	0
TAP	18	0	5
TAP	18	96	5
TAP	18	192	5
TAP	18	288	5
HLD	19	0	2	384
TAP	19	0	3
TAP	19	96	4
TAP	19	192	3
TAP	19	288	4
TAP	20	0	3
TAP	20	96	2
TAP	20	96	3
TAP	20	192	1
TAP	20	192	4
TAP	20	288	4
TAP	20	288	5
TAP	21	0	3
TAP	21	48	3
TAP	21	96	5
TAP	21	144	2
TAP	21	192	4
TAP	21	240	4
TAP	21	288	2
TAP	21	336	5
TAP	22	0	3
TAP	22	48	3
TAP	22	96	5
TAP	22	144	2
TAP	22	192	4
TAP	22	240	4
TAP	22	288	2
TAP	22	336	5
TAP	23	0	2
TAP	23	48	2
TAP	23	96	4
TAP	23	144	1
TAP	23	192	5
TAP	23	240	5
TAP	23	288	3
TAP	23	336	6
TAP	24	0	2
TAP	24	48	2
TAP	24	96	4
TAP	24	144	1
TAP	24	192	5
TAP	24	240	5
BRK	24	288	3
TAP	25	0	2
TAP	25	0	4
TAP	25	48	3
TAP	25	96	1
TAP	25	144	4
TAP	25	192	3
TAP	25	192	5
TAP	25	240	4
TAP	25	288	6
TAP	25	336	3
TAP	26	0	2
TAP	26	0	4
TAP	26	48	3
TAP	26	96	1
TAP	26	144	4
TAP	26	192	3
TAP	26	192	5
TAP	26	240	4
TAP	26	288	6
TAP	26	336	3
TAP	27	0	2
TAP	27	0	4
TAP	27	48	5
TAP	27	96	4
TAP	27	144	6
TAP	27	192	3
TAP	27	192	5
TAP	27	240	2
TAP	27	288	3
TAP	27	336	1
TAP	28	0	2
TAP	28	0	4
TAP	28	96	3
TAP	28	96	5
TAP	28	192	1
TAP	28	192	6
TAP	28	288	3
TAP	28	288	4
TAP	29	0	0
HLD	29	48	0	96
STR	29	144	6
SI_	29	144	6	96	48	3
TAP	29	192	7
TAP	29	240	6
STR	29	336	1
SI_	29	336	1	96	48	4
TAP	30	0	0
TAP	30	48	1
STR	30	144	6
SI_	30	144	6	96	48	3
TAP	30	192	7
TAP	30	240	6
STR	30	336	2
SI_	30	336	2	96	48	7
TAP	31	0	3
TAP	31	48	2
STR	31	144	6
SI_	31	144	6	96	48	3
TAP	31	192	7
TAP	31	240	6
STR	31	336	2
SI_	31	336	2	96	48	7
TAP	32	0	3
TAP	32	48	2
STR	32	144	6
SI_	32	144	6	96	48	3
TAP	32	192	7
TAP	32	240	6
STR	32	336	1
SI_	32	336	1	96	48	4
TAP	33	0	0
TAP	33	48	1
STR	33	144	5
SI_	33	144	5	96	48	0
TAP	33	192	4
TAP	33	240	5
STR	33	336	1
SI_	33	336	1	96	48	4
TAP	34	0	0
TAP	34	48	1
STR	34	144	5
SI_	34	144	5	96	48	0
TAP	34	192	4
TAP	34	240	5
STR	34	336	2
SI_	34	336	2	96	48	7
TAP	35	0	3
TAP	35	48	2
STR	35	144	5
SI_	35	144	5	96	48	0
TAP	35	192	4
TAP	35	240	5
STR	35	336	2
SI_	35	336	2	96	48	7
TAP	36	0	3
TAP	36	48	2
HLD	36	96	4	192
HLD	36	192	0	96
STR	37	0	3
SI_	37	0	3	96	48	0
STR	37	0	6
SI_	37	0	6	96	48	3
STR	37	192	1
SI_	37	192	1	96	48	4
STR	37	192	4
SI_	37	192	4	96	48	7
STR	38	0	6
SI_	38	0	6	96	48	3
STR	38	96	1
SI_	38	96	1	96	48	4
STR	38	192	7
SI_	38	192	7	96	48	3
TAP	38	288	0
TAP	39	0	1
TAP	39	0	6
TAP	39	48	5
TAP	39	72	4
TAP	39	96	5
TAP	39	144	1
TAP	39	144	6
TAP	39	192	2
TAP	39	216	3
TAP	39	240	2
TAP	39	288	1
TAP	39	288	6
TAP	39	336	5
TAP	39	360	4
TAP	40	0	5
TAP	40	48	1
TAP	40	48	6
TAP	40	96	2
TAP	40	120	3
TAP	40	144	2
STR	40	192	1
SI_	40	192	1	96	48	4
STR	40	192	6
SI_	40	192	6	96	48	3
TAP	40	288	1
TAP	40	288	6
STR	41	0	0
SI_	41	0	0	96	48	5
STR	41	0	5
SI_	41	0	5	96	48	3
STR	41	192	2
SI_	41	192	2	96	48	4
STR	41	192	7
SI_	41	192	7	96	48	2
STR	42	0	0
SI_	42	0	0	96	48	4
TAP	42	0	5
STR	42	96	6
SI_	42	96	6	96	48	3
STR	42	192	7
SI_	42	192	7	96	48	2
TAP	42	288	6
TAP	43	0	3
STR	43	0	4
SI_	43	0	4	96	48	7
TAP	43	96	3
STR	43	192	3
SI_	43	192	3	96	48	0
TAP	43	192	4
TAP	43	288	4
STR	44	0	3
SXR	44	0	3	96	144	0
STR	44	0	4
SXL	44	0	4	96	144	7
TAP	44	288	1
TAP	44	288	6
STR	45	0	1
SI_	45	0	1	96	48	4
STR	45	0	4
SI_	45	0	4	96	48	7
STR	45	192	3
SI_	45	192	3	96	48	0
STR	45	192	6
SI_	45	192	6	96	48	3
STR	46	0	1
SI_	46	0	1	96	48	4
STR	46	96	6
SI_	46	96	6	96	48	3
STR	46	192	0
SI_	46	192	0	96	48	4
TAP	46	288	7
TAP	47	0	1
TAP	47	0	6
TAP	47	48	2
TAP	47	72	3
TAP	47	96	2
TAP	47	144	5
TAP	47	168	4
TAP	47	192	5
TAP	47	240	2
TAP	47	264	3
TAP	47	288	2
TAP	47	336	5
TAP	47	360	4
TAP	48	0	5
TAP	48	48	2
TAP	48	72	3
TAP	48	96	2
TAP	48	144	1
TAP	48	144	6
STR	48	192	1
SI_	48	192	1	96	48	4
STR	48	192	6
SI_	48	192	6	96	48	3
TAP	48	288	1
TAP	48	288	6
STR	49	0	3
SI_	49	0	3	96	48	7
STR	49	96	4
SI_	49	96	4	96	48	6
STR	49	192	3
SI_	49	192	3	96	48	1
STR	49	288	4
SI_	49	288	4	96	48	0
STR	50	0	3
SI_	50	0	3	96	48	7
TAP	50	96	4
TAP	50	192	0
TAP	50	192	7
TAP	50	288	1
TAP	50	288	6
TAP	51	0	2
TAP	51	48	4
TAP	51	96	0
TAP	51	144	0
TAP	51	192	5
TAP	51	240	3
TAP	51	288	7
TAP	51	336	7
TAP	52	0	2
TAP	52	48	4
TAP	52	96	0
TAP	52	144	0
TAP	52	192	3
TAP	52	192	4
TAP	52	288	1
TAP	52	288	6
TAP	53	0	3
STR	53	0	7
SUR	53	0	7	96	48	3
TAP	53	96	5
STR	53	192	0
SUL	53	192	0	96	48	4
TAP	53	192	4
TAP	53	288	2
TAP	54	0	3
STR	54	0	7
SUR	54	0	7	96	48	3
TAP	54	96	5
STR	54	192	0
SI_	54	192	0	96	48	4
STR	54	288	7
SCL	54	288	7	96	96	3
STR	55	0	3
SCL	55	0	3	96	96	7
STR	55	96	7
SCL	55	96	7	96	96	3
STR	55	192	3
SCL	55	192	3	96	96	7
STR	55	288	7
SF_	55	288	7	96	96	3
TAP	56	192	3
TAP	56	192	4
TAP	56	288	1
TAP	56	288	6
STR	57	0	0
SUL	57	0	0	96	48	4
TAP	57	0	4
TAP	57	96	2
TAP	57	192	3
STR	57	192	7
SUR	57	192	7	96	48	3
TAP	57	288	5
STR	58	0	0
SUL	58	0	0	96	48	4
TAP	58	0	4
TAP	58	96	2
STR	58	192	7
SI_	58	192	7	96	48	3
STR	58	288	0
SCR	58	288	0	96	96	4
STR	59	0	4
SCR	59	0	4	96	96	0
STR	59	96	0
SCR	59	96	0	96	96	4
STR	59	192	4
SCR	59	192	4	96	96	0
STR	59	288	0
SF_	59	288	0	96	96	4
TAP	60	192	3
TAP	60	192	4
TAP	60	288	1
TAP	60	288	6
TAP	61	0	3
STR	61	0	7
SUR	61	0	7	96	48	3
TAP	61	96	5
STR	61	192	0
SUL	61	192	0	96	48	4
TAP	61	192	4
TAP	61	288	2
TAP	62	0	3
STR	62	0	7
SUR	62	0	7	96	48	3
TAP	62	96	5
STR	62	192	4
SI_	62	192	4	96	48	0
STR	62	288	3
SI_	62	288	3	96	48	7
STR	63	0	5
SI_	63	0	5	96	48	1
STR	63	96	2
SI_	63	96	2	96	48	6
STR	63	192	4
SI_	63	192	4	96	48	0
TAP	63	288	3
TAP	64	0	7
TAP	64	48	7
TAP	64	96	0
TAP	64	144	0
TAP	64	192	1
TAP	64	192	6
TAP	64	288	3
TAP	64	288	4
HLD	65	0	5	96
STR	65	0	7
SUL	65	0	7	96	48	2
BRK	65	192	0
BRK	65	192	1
BRK	65	288	3
BRK	65	288	5
STR	66	0	1
SI_	66	0	1	96	48	5
STR	66	0	6
SI_	66	0	6	96	48	2
TAP	66	192	1
TAP	66	192	7
TAP	66	288	0
TAP	66	288	6
TAP	67	0	1
TAP	67	48	1
TAP	67	96	7
TAP	67	144	3
TAP	67	192	6
TAP	67	240	6
TAP	67	288	0
TAP	67	336	4
TAP	68	0	2
TAP	68	48	3
TAP	68	96	5
TAP	68	144	4
STR	68	192	3
SI_	68	192	3	96	48	7
STR	68	192	4
SI_	68	192	4	96	48	0
TAP	69	0	1
TAP	69	48	1
TAP	69	96	7
TAP	69	144	7
STR	69	192	3
SI_	69	192	3	96	48	7
TAP	69	288	4
TAP	70	0	6
TAP	70	48	6
TAP	70	96	0
TAP	70	144	0
STR	70	192	4
SI_	70	192	4	96	48	0
TAP	70	288	3
TAP	71	0	1
TAP	71	48	1
TAP	71	96	7
TAP	71	144	7
STR	71	192	3
SI_	71	192	3	96	48	7
TAP	71	288	4
TAP	72	0	6
TAP	72	48	6
TAP	72	96	0
TAP	72	144	0
STR	72	192	4
SI_	72	192	4	96	48	0
TAP	72	288	3
TAP	73	0	1
TAP	73	48	1
TAP	73	96	5
TAP	73	144	5
STR	73	192	2
SI_	73	192	2	96	48	7
TAP	73	288	3
TAP	74	0	6
TAP	74	48	6
TAP	74	96	2
TAP	74	144	2
STR	74	192	5
SI_	74	192	5	96	48	0
TAP	74	288	4
TAP	75	0	1
TAP	75	48	1
TAP	75	96	5
TAP	75	144	5
STR	75	192	2
SI_	75	192	2	96	48	7
TAP	75	288	3
TAP	76	0	6
TAP	76	48	6
TAP	76	96	2
TAP	76	144	2
TAP	76	192	3
TAP	76	192	4
TAP	76	288	0
TAP	76	288	7
STR	77	0	1
SCR	77	0	1	96	48	4
STR	77	0	4
SI_	77	0	4	96	48	0
STR	77	192	3
SI_	77	192	3	96	48	7
STR	77	192	6
SCL	77	192	6	96	48	3
STR	78	0	1
SI_	78	0	1	96	48	4
STR	78	96	6
SI_	78	96	6	96	48	3
STR	78	192	0
SI_	78	192	0	96	48	4
TAP	78	288	7
TAP	79	0	2
TAP	79	0	5
TAP	79	48	1
TAP	79	72	0
TAP	79	96	1
TAP	79	144	2
TAP	79	144	5
TAP	79	192	6
TAP	79	216	7
TAP	79	240	6
TAP	79	288	2
TAP	79	288	5
TAP	79	336	1
TAP	79	360	0
TAP	80	0	1
TAP	80	48	2
TAP	80	48	5
TAP	80	96	6
TAP	80	120	7
TAP	80	144	6
STR	80	192	2
SI_	80	192	2	96	48	7
STR	80	192	5
SI_	80	192	5	96	48	0
TAP	80	288	2
TAP	80	288	5
STR	81	0	2
SI_	81	0	2	96	48	7
STR	81	0	7
SI_	81	0	7	96	48	3
STR	81	192	0
SI_	81	192	0	96	48	4
STR	81	192	5
SI_	81	192	5	96	48	0
TAP	82	0	2
STR	82	0	7
SI_	82	0	7	96	48	3
STR	82	96	1
SI_	82	96	1	96	48	4
STR	82	192	0
SI_	82	192	0	96	48	5
TAP	82	288	1
STR	83	0	3
SI_	83	0	3	96	48	0
TAP	83	0	4
TAP	83	96	4
TAP	83	192	3
STR	83	192	4
SI_	83	192	4	96	48	7
TAP	83	288	3
TAP	84	0	1
TAP	84	0	6
TAP	84	48	2
TAP	84	48	5
TAP	84	96	1
TAP	84	96	6
TAP	84	144	2
TAP	84	144	5
BRK	84	192	1
BRK	84	192	6
TAP	84	288	3
TAP	84	288	4
STR	85	0	3
SI_	85	0	3	96	48	7
STR	85	0	6
SCL	85	0	6	96	48	3
STR	85	192	1
SCR	85	192	1	96	48	4
STR	85	192	4
SI_	85	192	4	96	48	0
STR	86	0	6
SI_	86	0	6	96	48	3
STR	86	96	1
SI_	86	96	1	96	48	4
STR	86	192	7
SI_	86	192	7	96	48	3
TAP	86	288	0
TAP	87	0	2
TAP	87	0	5
TAP	87	48	6
TAP	87	72	7
TAP	87	96	6
TAP	87	144	1
TAP	87	168	0
TAP	87	192	1
BST	87	288	1
SCR	87	288	1	96	96	6
BRK	87	288	6
BRK	87	336	1
BRK	87	336	6
STR	88	192	1
SI_	88	192	1	96	48	4
STR	88	192	6
SI_	88	192	6	96	48	3
TAP	88	288	1
TAP	88	288	6
STR	89	0	4
SI_	89	0	4	96	48	0
STR	89	96	3
SI_	89	96	3	96	48	1
STR	89	192	4
SI_	89	192	4	96	48	6
STR	89	288	3
SI_	89	288	3	96	48	7
STR	90	0	4
SI_	90	0	4	96	48	0
TAP	90	96	3
TAP	90	192	0
TAP	90	192	7
TAP	90	288	1
TAP	90	288	6
TAP	91	0	5
TAP	91	48	3
TAP	91	96	7
TAP	91	144	7
TAP	91	192	2
TAP	91	240	4
TAP	91	288	0
TAP	91	336	0
TAP	92	0	6
TAP	92	48	4
TAP	92	96	1
TAP	92	144	3
TAP	92	192	3
TAP	92	192	4
TAP	92	288	1
TAP	92	288	6
STR	93	0	3
SUR	93	0	3	96	48	7
TAP	93	0	7
TAP	93	96	1
TAP	93	192	0
STR	93	192	4
SUL	93	192	4	96	48	0
TAP	93	288	6
STR	94	0	3
SUR	94	0	3	96	48	7
TAP	94	0	7
TAP	94	96	1
STR	94	192	4
SI_	94	192	4	96	48	0
STR	94	288	3
SCL	94	288	3	96	96	7
STR	95	0	7
SUL	95	0	7	96	96	3
STR	95	96	3
SUL	95	96	3	96	96	7
STR	95	192	7
SCL	95	192	7	96	96	3
STR	95	288	3
SF_	95	288	3	96	48	7
TAP	96	96	2
TAP	96	96	4
TAP	96	192	4
TAP	96	192	5
TAP	96	288	1
TAP	96	288	6
TAP	97	0	0
STR	97	0	4
SUL	97	0	4	96	48	0
TAP	97	96	6
STR	97	192	3
SUR	97	192	3	96	48	7
TAP	97	192	7
TAP	97	288	1
TAP	98	0	0
STR	98	0	4
SUL	98	0	4	96	48	0
TAP	98	96	6
STR	98	192	3
SI_	98	192	3	96	48	7
STR	98	288	4
SCR	98	288	4	96	96	0
STR	99	0	0
SUR	99	0	0	96	96	4
STR	99	96	4
SUR	99	96	4	96	96	0
STR	99	192	0
SCR	99	192	0	96	96	4
STR	99	288	4
SF_	99	288	4	96	48	0
TAP	100	96	3
TAP	100	96	5
TAP	100	192	2
TAP	100	192	3
TAP	100	288	1
TAP	100	288	6
STR	101	0	3
SUR	101	0	3	96	48	7
TAP	101	0	7
TAP	101	96	1
TAP	101	192	0
STR	101	192	4
SUL	101	192	4	96	48	0
TAP	101	288	6
STR	102	0	3
SUR	102	0	3	96	48	7
TAP	102	0	7
TAP	102	96	1
STR	102	192	4
SI_	102	192	4	96	48	0
STR	102	288	3
SI_	102	288	3	96	48	7
STR	103	0	5
SI_	103	0	5	96	48	1
STR	103	96	2
SI_	103	96	2	96	48	6
STR	103	192	4
SI_	103	192	4	96	48	0
TAP	103	288	3
TAP	104	0	7
TAP	104	48	7
TAP	104	96	0
TAP	104	144	5
TAP	104	192	2
TAP	104	288	1
TAP	104	288	6
STR	105	0	2
SUR	105	0	2	96	48	7
HLD	105	0	5	96
BRK	105	192	0
BRK	105	192	1
BRK	105	288	3
BRK	105	288	5
STR	106	0	6
SI_	106	0	6	96	48	2
STR	106	0	7
SI_	106	0	7	96	48	3
STR	106	192	0
SI_	106	192	0	96	48	4
STR	106	192	1
SI_	106	192	1	96	48	5
TAP	107	0	3
TAP	107	48	3
TAP	107	96	4
TAP	107	144	1
TAP	107	192	4
TAP	107	240	4
TAP	107	288	3
TAP	107	336	6
TAP	108	0	0
TAP	108	48	7
TAP	108	96	1
BRK	108	144	3
BRK	108	144	4
BRK	108	192	3
BRK	108	192	4
BRK	108	288	1
BRK	108	288	6
TAP	109	0	1
TAP	109	0	5
TAP	109	48	2
TAP	109	48	6
TAP	109	96	1
TAP	109	96	5
TAP	109	144	2
TAP	109	144	6
TAP	109	192	1
TAP	109	192	5
TAP	109	288	2
TAP	109	288	6
TAP	110	0	1
TAP	110	0	5
TAP	110	48	2
TAP	110	48	6
TAP	110	96	1
TAP	110	96	5
TAP	110	144	2
TAP	110	144	6
TAP	110	192	1
TAP	110	192	5
TAP	110	288	2
TAP	110	288	6
TAP	111	0	1
TAP	111	0	5
TAP	111	48	2
TAP	111	48	6
TAP	111	96	1
TAP	111	96	5
TAP	111	144	2
TAP	111	144	6
TAP	111	192	1
TAP	111	192	5
TAP	111	288	2
TAP	111	288	6
TAP	112	0	1
TAP	112	0	5
TAP	112	48	2
TAP	112	48	6
TAP	112	96	1
TAP	112	96	5
TAP	112	144	2
TAP	112	144	6
TAP	112	192	1
TAP	112	192	5
BRK	112	288	0
BRK	112	288	7
TAP	113	0	0
TAP	113	0	4
TAP	113	48	2
TAP	113	48	6
TAP	113	96	0
TAP	113	96	4
TAP	113	144	2
TAP	113	144	6
TAP	113	192	0
TAP	113	192	4
TAP	113	288	2
TAP	113	288	6
TAP	114	0	0
TAP	114	0	4
TAP	114	48	2
TAP	114	48	6
TAP	114	96	0
TAP	114	96	4
TAP	114	144	2
TAP	114	144	6
TAP	114	192	0
TAP	114	192	4
TAP	114	288	2
TAP	114	288	6
TAP	115	0	1
TAP	115	0	5
TAP	115	48	3
TAP	115	48	7
TAP	115	96	1
TAP	115	96	5
TAP	115	144	3
TAP	115	144	7
TAP	115	192	1
TAP	115	192	5
TAP	115	288	3
TAP	115	288	7
TAP	116	0	1
TAP	116	0	5
TAP	116	48	3
TAP	116	48	7
TAP	116	96	1
TAP	116	96	5
TAP	116	144	3
TAP	116	144	7
TAP	116	192	1
TAP	116	192	5
HLD	116	288	2	528
HLD	116	288	6	528
BRK	118	96	1
BRK	118	96	5

T_REC_TAP	580
T_REC_BRK	24
T_REC_XTP	0
T_REC_HLD	11
T_REC_XHO	0
T_REC_STR	150
T_REC_BST	1
T_REC_XST	0
T_REC_TTP	0
T_REC_THO	0
T_REC_SLD	151
T_REC_ALL	917
T_NUM_TAP	730
T_NUM_BRK	25
T_NUM_HLD	11
T_NUM_SLD	151
T_NUM_ALL	917
T_JUDGE_TAP	755
T_JUDGE_HLD	76
T_JUDGE_SLD	151
T_JUDGE_ALL	982
TTM_EACHPAIRS	186
TTM_SCR_TAP	365000
TTM_SCR_BRK	65000
TTM_SCR_HLD	11000
TTM_SCR_SLD	226500
TTM_SCR_ALL	667500
TTM_SCR_S	645050
TTM_SCR_SS	665000
TTM_RAT_ACV	10037

