VERSION	0.00.00	1.03.00
FES_MODE	0
BPM_DEF	200.000	200.000	200.000	200.000
MET_DEF	4	4
RESOLUTION	384
CLK_DEF	384
COMPATIBLE_CODE	MA2

BPM	0	0	200.000
MET	0	0	4	4

TAP	1	0	2
TAP	1	96	3
HLD	1	192	2	96
TAP	2	0	5
TAP	2	96	4
HLD	2	192	5	96
TAP	3	0	2
TAP	3	96	3
HLD	3	192	2	96
TAP	4	0	5
TAP	4	96	4
HLD	4	192	5	96
TAP	5	0	2
TAP	5	96	3
TAP	5	192	1
TAP	5	192	4
TAP	5	288	1
TAP	5	288	4
TAP	6	0	5
TAP	6	96	4
TAP	6	192	3
TAP	6	192	6
TAP	6	288	3
TAP	6	288	6
TAP	7	0	2
TAP	7	96	3
TAP	7	192	1
TAP	7	192	4
TAP	7	288	1
TAP	7	288	4
TAP	8	0	5
TAP	8	96	4
TAP	8	192	3
TAP	8	192	6
TAP	8	288	3
TAP	8	288	6
TAP	9	0	2
TAP	9	96	3
TAP	9	192	1
TAP	9	192	4
TAP	9	288	0
TAP	9	288	5
TAP	10	0	5
TAP	10	96	4
TAP	10	192	3
TAP	10	192	6
TAP	10	288	2
TAP	10	288	7
TAP	11	0	2
TAP	11	96	3
TAP	11	192	1
TAP	11	192	4
TAP	11	288	0
TAP	11	288	5
TAP	12	0	5
TAP	12	96	4
TAP	12	192	3
TAP	12	192	6
TAP	12	288	2
TAP	12	288	7
HLD	13	0	1	96
TAP	13	96	2
TAP	13	192	3
TAP	13	288	4
HLD	14	0	6	96
TAP	14	96	5
TAP	14	192	4
TAP	14	288	3
HLD	15	0	1	96
TAP	15	96	2
TAP	15	192	3
TAP	15	288	4
STR	16	0	5
SCR	16	0	5	96	192	2
HLD	17	0	1	96
TAP	17	96	3
TAP	17	192	4
TAP	17	288	5
HLD	18	0	6	96
TAP	18	96	4
TAP	18	192	3
TAP	18	288	2
STR	19	0	0
SSL	19	0	0	96	192	4
TAP	20	0	5
TAP	20	96	2
TAP	20	192	0
TAP	20	192	7
HLD	21	0	2	96
TAP	21	96	3
TAP	21	192	1
TAP	21	288	7
HLD	22	0	5	96
TAP	22	96	4
TAP	22	192	6
TAP	22	288	0
TAP	23	0	2
TAP	23	96	3
TAP	23	192	5
TAP	23	288	4
STR	24	0	0
SI_	24	0	0	96	96	3
STR	24	0	7
SI_	24	0	7	96	96	4
TAP	24	288	3
TAP	24	288	4
HLD	25	0	5	96
TAP	25	96	4
TAP	25	192	6
TAP	25	288	0
TAP	25	288	7
HLD	26	0	2	96
TAP	26	96	3
TAP	26	192	1
TAP	26	288	0
TAP	26	288	7
TAP	27	0	1
TAP	27	96	3
TAP	27	192	6
TAP	27	288	4
TAP	28	0	2
TAP	28	0	5
TAP	28	96	1
TAP	28	96	6
BRK	28	192	0
BRK	28	192	7
HLD	29	0	2	96
TAP	29	96	3
HLD	29	192	5	96
TAP	29	288	4
HLD	30	0	1	96
TAP	30	96	3
HLD	30	192	6	96
TAP	30	288	4
HLD	31	0	0	96
TAP	31	96	2
HLD	31	192	7	96
TAP	31	288	5
TAP	32	0	1
TAP	32	0	6
TAP	32	96	0
TAP	32	96	2
TAP	32	192	5
TAP	32	192	7
HLD	33	0	1	96
TAP	33	96	0
HLD	33	192	6	96
TAP	33	288	7
HLD	34	0	2	96
TAP	34	96	0
HLD	34	192	5	96
TAP	34	288	7
HLD	35	0	3	96
TAP	35	96	1
HLD	35	192	4	96
TAP	35	288	6
TAP	36	0	3
TAP	36	0	4
TAP	36	96	0
TAP	36	96	2
TAP	36	192	5
TAP	36	192	7
STR	37	0	0
SI_	37	0	0	96	48	5
STR	37	0	1
SI_	37	0	1	96	48	4
STR	37	192	6
SI_	37	192	6	96	48	3
STR	37	192	7
SI_	37	192	7	96	48	2
TAP	38	0	0
TAP	38	0	1
TAP	38	96	2
TAP	38	96	6
TAP	38	192	6
TAP	38	192	7
TAP	38	288	1
TAP	38	288	5
STR	39	0	3
SV_	39	0	3	96	96	1
STR	39	0	7
SV_	39	0	7	96	96	5
TAP	40	0	4
TAP	40	0	6
TAP	40	96	1
TAP	40	96	3
TAP	40	192	6
TAP	40	240	7
TAP	40	288	0
TAP	40	288	5
TAP	41	0	2
TAP	41	0	3
TAP	41	96	7
TAP	41	192	4
TAP	41	192	5
TAP	41	288	0
TAP	42	0	3
TAP	42	0	4
TAP	42	96	1
HLD	42	96	6	96
HLD	42	192	5	96
HLD	42	288	4	96
STR	43	0	3
SCL	43	0	3	96	96	0
STR	43	192	7
SCL	43	192	7	96	96	4
STR	44	0	3
SCL	44	0	3	96	192	4
STR	45	0	6
SI_	45	0	6	96	48	3
STR	45	0	7
SI_	45	0	7	96	48	2
STR	45	192	0
SI_	45	192	0	96	48	5
STR	45	192	1
SI_	45	192	1	96	48	4
TAP	46	0	6
TAP	46	0	7
TAP	46	96	1
TAP	46	96	5
TAP	46	192	0
TAP	46	192	1
TAP	46	288	2
TAP	46	288	6
STR	47	0	0
SV_	47	0	0	96	96	2
STR	47	0	4
SV_	47	0	4	96	96	6
TAP	48	0	1
TAP	48	0	3
TAP	48	96	4
TAP	48	96	6
TAP	48	192	1
TAP	48	240	0
TAP	48	288	2
TAP	48	288	7
HLD	49	0	7	96
HLD	49	96	6	96
HLD	49	192	5	96
HLD	49	288	4	96
HLD	50	0	3	96
HLD	50	96	2	96
HLD	50	192	1	96
STR	50	288	0
SCR	50	288	0	96	192	7
TAP	52	0	2
TAP	52	0	5
TAP	52	96	0
TAP	52	96	7
TAP	52	192	3
HLD	52	192	6	96
STR	52	288	4
SI_	52	288	4	96	96	0
HLD	53	192	1	96
TAP	53	192	4
STR	53	288	3
SI_	53	288	3	96	96	7
TAP	54	192	4
TAP	54	192	6
HLD	54	288	1	384
TAP	54	288	3
TAP	55	0	4
TAP	55	96	5
TAP	55	192	6
TAP	55	288	7
TAP	56	0	0
TAP	56	0	1
HLD	56	192	2	96
TAP	56	192	7
STR	56	288	0
SI_	56	288	0	96	96	4
TAP	57	192	0
HLD	57	192	5	96
STR	57	288	7
SI_	57	288	7	96	96	3
TAP	58	192	0
TAP	58	192	2
TAP	58	288	4
HLD	58	288	6	384
TAP	59	0	5
TAP	59	96	7
TAP	59	192	0
TAP	59	288	1
TAP	60	0	2
TAP	60	0	6
HLD	60	192	5	96
TAP	60	192	7
TAP	60	288	4
TAP	61	0	0
TAP	61	0	1
TAP	61	192	0
HLD	61	192	2	96
TAP	61	288	3
TAP	62	0	6
TAP	62	0	7
HLD	62	192	2	96
TAP	62	192	3
TAP	62	288	0
TAP	63	0	4
HLD	63	0	5	96
TAP	63	96	7
TAP	63	192	3
TAP	63	192	4
TAP	63	288	2
TAP	63	288	5
HLD	64	0	1	192
HLD	64	0	6	192
TAP	65	0	1
TAP	65	96	2
TAP	65	192	3
TAP	65	288	4
TAP	66	0	5
TAP	66	96	6
TAP	66	192	0
TAP	66	192	7
STR	66	288	0
SXL	66	288	0	96	288	3
STR	66	288	7
SXR	66	288	7	96	288	4
TAP	68	0	2
TAP	68	0	3
TAP	68	96	4
TAP	68	96	5
TAP	68	192	3
TAP	68	192	4
BRK	68	288	1
BRK	68	288	6
TAP	69	0	2
TAP	69	48	3
TAP	69	96	2
TAP	69	192	7
TAP	69	288	7
TAP	70	0	5
TAP	70	48	4
TAP	70	96	5
TAP	70	192	0
TAP	70	288	0
TAP	71	0	2
TAP	71	48	3
TAP	71	96	1
TAP	71	192	7
TAP	71	288	7
TAP	72	0	5
TAP	72	48	4
TAP	72	96	6
TAP	72	192	0
TAP	72	288	0
TAP	73	0	2
TAP	73	48	3
TAP	73	96	1
TAP	73	192	6
TAP	73	288	6
TAP	73	288	7
TAP	74	0	5
TAP	74	48	4
TAP	74	96	6
TAP	74	192	1
TAP	74	288	0
TAP	74	288	1
TAP	75	0	2
TAP	75	48	3
TAP	75	96	1
TAP	75	192	6
TAP	75	288	6
TAP	75	288	7
TAP	76	0	5
TAP	76	48	4
TAP	76	96	6
TAP	76	192	0
TAP	76	192	7
STR	77	0	0
SI_	77	0	0	96	48	3
STR	77	0	6
SI_	77	0	6	96	48	3
STR	77	192	1
SI_	77	192	1	96	48	4
STR	77	192	7
SI_	77	192	7	96	48	4
TAP	78	0	3
TAP	78	0	5
TAP	78	96	0
TAP	78	96	3
TAP	78	192	2
TAP	78	192	4
TAP	78	288	4
TAP	78	288	7
STR	79	0	1
SV_	79	0	1	96	96	3
STR	79	0	5
SV_	79	0	5	96	96	7
TAP	80	0	4
TAP	80	0	6
TAP	80	96	1
TAP	80	96	3
TAP	80	192	7
TAP	80	240	0
TAP	80	288	1
TAP	80	288	6
HLD	81	0	0	96
HLD	81	0	7	96
TAP	81	144	1
TAP	81	144	6
HLD	81	192	1	96
HLD	81	192	6	96
BRK	82	0	4
BRK	82	0	6
BRK	82	96	1
BRK	82	96	3
BRK	82	192	5
BRK	82	192	7
BRK	82	288	0
BRK	82	288	2
HLD	83	0	3	96
HLD	83	0	4	96
HLD	83	192	1	96
HLD	83	192	6	96
TAP	84	0	4
TAP	84	0	5
TAP	84	96	2
TAP	84	96	3
BRK	84	192	0
BRK	84	192	7
STR	85	0	1
SCR	85	0	1	96	48	4
STR	85	0	7
SCL	85	0	7	96	48	4
STR	85	192	0
SCR	85	192	0	96	48	3
STR	85	192	6
SCL	85	192	6	96	48	3
TAP	86	0	2
TAP	86	0	4
TAP	86	96	4
TAP	86	96	7
TAP	86	192	3
TAP	86	192	5
TAP	86	288	0
TAP	86	288	3
STR	87	0	2
SV_	87	0	2	96	96	0
STR	87	0	6
SV_	87	0	6	96	96	4
TAP	87	288	1
TAP	87	288	6
BRK	87	336	1
BRK	87	336	6
TAP	88	192	3
TAP	88	192	4
TAP	88	288	1
TAP	88	288	6
HLD	89	0	0	96
HLD	89	96	1	96
HLD	89	192	2	96
HLD	89	288	3	96
HLD	90	0	4	96
HLD	90	96	5	96
HLD	90	192	6	96
STR	90	288	7
SCL	90	288	7	96	192	0
TAP	92	0	2
TAP	92	0	5
TAP	92	96	0
TAP	92	96	7
HLD	92	192	1	96
TAP	92	192	5
STR	92	288	4
SI_	92	288	4	96	96	0
TAP	93	0	3
TAP	93	192	2
HLD	93	192	6	96
STR	93	288	3
SI_	93	288	3	96	96	7
TAP	94	0	4
TAP	94	192	1
TAP	94	192	3
TAP	94	288	4
HLD	94	288	6	384
TAP	95	0	3
TAP	95	96	2
TAP	95	192	1
TAP	95	288	0
TAP	96	0	6
TAP	96	0	7
TAP	96	192	1
HLD	96	192	5	96
STR	96	288	0
SI_	96	288	0	96	96	4
TAP	97	0	7
HLD	97	192	2	96
TAP	97	192	6
STR	97	288	7
SI_	97	288	7	96	96	3
TAP	98	0	0
TAP	98	192	5
TAP	98	192	7
HLD	98	288	1	384
TAP	98	288	3
TAP	99	0	2
TAP	99	96	0
TAP	99	192	7
TAP	99	288	6
TAP	100	0	1
TAP	100	0	5
TAP	100	192	0
HLD	100	192	2	96
TAP	100	288	3
TAP	101	0	6
TAP	101	0	7
HLD	101	192	5	96
TAP	101	192	7
TAP	101	288	4
TAP	102	0	0
TAP	102	0	1
TAP	102	192	4
HLD	102	192	5	96
TAP	102	288	7
HLD	103	0	2	96
TAP	103	0	3
TAP	103	96	0
TAP	103	192	3
TAP	103	192	4
TAP	103	288	2
TAP	103	288	5
HLD	104	0	1	192
HLD	104	0	6	192
TAP	105	0	5
TAP	105	96	6
TAP	105	192	7
TAP	105	288	0
TAP	106	0	1
TAP	106	96	2
TAP	106	192	3
TAP	106	192	4
STR	106	288	3
SXR	106	288	3	96	288	0
STR	106	288	4
SXL	106	288	4	96	288	7
TAP	108	0	6
TAP	108	0	7
TAP	108	96	0
TAP	108	96	1
TAP	108	192	3
TAP	108	192	4
BRK	108	288	1
BRK	108	288	6
TAP	109	0	5
TAP	109	48	4
TAP	109	96	5
TAP	109	144	4
TAP	109	192	6
TAP	109	288	6
TAP	110	0	2
TAP	110	48	3
TAP	110	96	2
TAP	110	144	3
TAP	110	192	1
TAP	110	288	1
TAP	111	0	5
TAP	111	48	4
TAP	111	96	5
TAP	111	144	3
TAP	111	192	7
TAP	111	288	7
TAP	112	0	2
TAP	112	48	3
TAP	112	96	2
TAP	112	144	4
TAP	112	192	0
TAP	112	288	0
TAP	113	0	5
TAP	113	48	4
TAP	113	96	5
TAP	113	144	3
TAP	113	192	6
TAP	113	288	0
TAP	113	288	7
TAP	114	0	2
TAP	114	48	3
TAP	114	96	2
TAP	114	144	4
TAP	114	192	1
TAP	114	288	0
TAP	114	288	7
TAP	115	0	5
TAP	115	48	4
TAP	115	96	6
TAP	115	144	3
TAP	115	192	7
TAP	115	288	0
TAP	115	288	1
TAP	116	0	2
TAP	116	48	3
TAP	116	96	1
TAP	116	144	4
TAP	116	192	0
TAP	116	288	6
TAP	116	288	7
TAP	117	0	3
TAP	117	48	4
TAP	117	96	3
TAP	117	144	4
TAP	117	192	3
TAP	117	288	2
TAP	117	288	5
BRK	118	96	1
BRK	118	96	5

T_REC_TAP	422
T_REC_BRK	20
T_REC_XTP	0
T_REC_HLD	74
T_REC_XHO	0
T_REC_STR	45
T_REC_BST	0
T_REC_XST	0
T_REC_TTP	0
T_REC_THO	0
T_REC_SLD	45
T_REC_ALL	606
T_NUM_TAP	467
T_NUM_BRK	20
T_NUM_HLD	74
T_NUM_SLD	45
T_NUM_ALL	606
T_JUDGE_TAP	487
T_JUDGE_HLD	180
T_JUDGE_SLD	45
T_JUDGE_ALL	712
TTM_EACHPAIRS	151
TTM_SCR_TAP	233500
TTM_SCR_BRK	52000
TTM_SCR_HLD	74000
TTM_SCR_SLD	67500
TTM_SCR_ALL	427000
TTM_SCR_S	412250
TTM_SCR_SS	425000
TTM_RAT_ACV	10047

