VERSION	0.00.00	1.03.00
FES_MODE	0
BPM_DEF	200.000	200.000	200.000	200.000
MET_DEF	4	4
RESOLUTION	384
CLK_DEF	384
COMPATIBLE_CODE	MA2

BPM	0	0	200.000
MET	0	0	4	4

TAP	5	0	0
TAP	5	96	0
TAP	5	192	1
TAP	5	288	1
TAP	6	0	2
TAP	6	96	2
TAP	6	192	2
TAP	6	192	3
TAP	7	0	7
TAP	7	96	7
TAP	7	192	6
TAP	7	288	6
TAP	8	0	5
TAP	8	96	5
TAP	8	192	4
TAP	8	192	5
TAP	9	0	3
TAP	9	96	3
TAP	9	192	2
TAP	9	288	2
TAP	10	0	1
TAP	10	96	1
TAP	10	192	0
TAP	10	192	1
TAP	11	0	4
TAP	11	96	4
TAP	11	192	5
TAP	11	288	5
TAP	12	0	6
TAP	12	96	6
TAP	12	192	6
TAP	12	192	7
HLD	13	0	2	192
HLD	13	192	3	192
HLD	14	0	4	192
TAP	14	192	5
HLD	15	0	5	192
HLD	15	192	4	192
HLD	16	0	3	192
TAP	16	192	2
HLD	17	0	1	192
HLD	17	192	0	192
HLD	18	0	7	192
TAP	18	192	6
HLD	19	0	6	192
HLD	19	192	7	192
HLD	20	0	0	192
TAP	20	192	1
HLD	21	0	1	192
HLD	21	192	2	192
HLD	22	0	3	192
TAP	22	192	4
HLD	23	0	5	192
HLD	23	192	6	192
HLD	24	0	7	192
TAP	24	192	0
HLD	25	0	6	192
HLD	25	192	5	192
HLD	26	0	4	192
TAP	26	192	3
HLD	27	0	2	192
HLD	27	192	1	192
HLD	28	0	0	192
TAP	28	192	7
TAP	29	0	2
TAP	29	96	3
TAP	29	192	2
TAP	29	288	3
STR	30	0	2
SI_	30	0	2	96	96	7
TAP	31	0	6
TAP	31	96	7
TAP	31	192	6
TAP	31	288	7
STR	32	0	6
SI_	32	0	6	96	96	3
TAP	33	0	5
TAP	33	96	4
TAP	33	192	5
TAP	33	288	4
STR	34	0	5
SI_	34	0	5	96	96	0
TAP	35	0	1
TAP	35	96	0
TAP	35	192	1
TAP	35	288	0
STR	36	0	1
SI_	36	0	1	96	96	4
TAP	37	0	2
TAP	37	96	3
TAP	37	192	2
TAP	37	288	2
TAP	37	288	3
TAP	38	0	5
TAP	38	96	4
TAP	38	192	5
TAP	38	288	4
TAP	38	288	5
TAP	39	0	1
TAP	39	96	0
TAP	39	192	1
TAP	39	288	0
TAP	40	0	6
TAP	40	0	7
TAP	40	96	6
TAP	40	96	7
TAP	40	192	6
TAP	40	192	7
TAP	41	0	5
TAP	41	96	4
TAP	41	192	5
TAP	41	288	4
TAP	41	288	5
TAP	42	0	2
TAP	42	96	3
TAP	42	192	2
TAP	42	288	2
TAP	42	288	3
TAP	43	0	6
TAP	43	96	7
TAP	43	192	6
TAP	43	288	7
TAP	44	0	0
TAP	44	0	1
TAP	44	96	0
TAP	44	96	1
TAP	44	192	0
TAP	44	192	1
TAP	45	0	1
TAP	45	96	0
TAP	45	192	1
TAP	45	288	0
TAP	45	288	1
TAP	46	0	6
TAP	46	96	7
TAP	46	192	6
TAP	46	288	6
TAP	46	288	7
TAP	47	0	2
TAP	47	96	3
TAP	47	192	2
TAP	47	288	3
TAP	48	0	4
TAP	48	0	5
TAP	48	96	4
TAP	48	96	5
TAP	48	192	4
TAP	48	192	5
TAP	49	0	6
TAP	49	96	7
TAP	49	192	6
TAP	49	288	6
TAP	49	288	7
TAP	50	0	1
TAP	50	96	0
TAP	50	192	1
TAP	50	288	0
TAP	50	288	1
TAP	51	0	5
TAP	51	96	4
TAP	51	192	5
TAP	51	288	4
TAP	52	0	2
TAP	52	0	3
TAP	52	96	2
TAP	52	96	3
BRK	52	192	2
BRK	52	192	3
TAP	53	0	3
TAP	53	96	3
TAP	53	192	2
TAP	53	288	2
TAP	54	0	0
TAP	54	0	1
TAP	54	96	0
TAP	54	96	1
TAP	54	192	0
TAP	54	192	1
TAP	55	0	4
TAP	55	96	4
TAP	55	192	5
TAP	55	288	5
TAP	56	0	6
TAP	56	0	7
TAP	56	96	6
TAP	56	96	7
TAP	56	192	6
TAP	56	192	7
TAP	57	0	0
TAP	57	96	0
TAP	57	192	1
TAP	57	288	1
TAP	58	0	2
TAP	58	0	3
TAP	58	96	2
TAP	58	96	3
TAP	58	192	2
TAP	58	192	3
TAP	59	0	7
TAP	59	96	7
TAP	59	192	6
TAP	59	288	6
TAP	60	0	4
TAP	60	0	5
TAP	60	96	4
TAP	60	96	5
TAP	60	192	4
TAP	60	192	5
TAP	61	0	3
TAP	61	96	3
TAP	61	192	2
TAP	61	288	2
TAP	62	0	1
TAP	62	96	1
TAP	62	192	0
TAP	62	192	2
TAP	63	0	4
TAP	63	96	4
TAP	63	192	5
TAP	63	288	5
TAP	64	0	6
TAP	64	96	6
TAP	64	192	5
TAP	64	192	7
TAP	65	0	0
TAP	65	96	0
TAP	65	192	1
TAP	65	288	1
TAP	66	0	2
TAP	66	96	2
TAP	66	192	1
TAP	66	192	3
TAP	67	0	7
TAP	67	96	7
TAP	67	192	6
TAP	67	288	6
TAP	68	0	5
TAP	68	96	5
BRK	68	192	4
BRK	68	192	6
TAP	69	0	7
TAP	69	96	7
TAP	69	192	6
TAP	69	288	6
TAP	70	0	5
TAP	70	96	5
TAP	70	192	4
TAP	70	192	6
TAP	71	0	0
TAP	71	96	0
TAP	71	192	1
TAP	71	288	1
TAP	72	0	2
TAP	72	96	2
TAP	72	192	1
TAP	72	192	3
TAP	73	0	4
TAP	73	96	4
TAP	73	192	5
TAP	73	288	5
TAP	74	0	6
TAP	74	96	6
TAP	74	192	5
TAP	74	192	7
TAP	75	0	3
TAP	75	96	3
TAP	75	192	2
TAP	75	288	2
TAP	76	0	1
TAP	76	96	1
BRK	76	192	0
BRK	76	192	2
TAP	77	0	0
TAP	77	96	1
TAP	77	192	2
TAP	77	288	3
TAP	78	0	4
TAP	78	96	5
TAP	78	192	6
TAP	78	288	7
TAP	79	0	7
TAP	79	96	6
TAP	79	192	5
TAP	79	288	4
TAP	80	0	3
TAP	80	96	2
TAP	80	192	0
TAP	80	192	1
TAP	81	0	7
TAP	81	96	6
TAP	81	192	5
TAP	81	288	4
TAP	82	0	3
TAP	82	96	2
TAP	82	192	1
TAP	82	288	0
TAP	83	0	0
TAP	83	96	1
TAP	83	192	2
TAP	83	288	3
TAP	84	0	4
TAP	84	96	5
TAP	84	192	6
TAP	84	192	7
TAP	85	0	3
TAP	85	96	2
TAP	85	192	1
TAP	85	288	0
TAP	86	0	7
TAP	86	96	6
TAP	86	192	5
TAP	86	288	4
TAP	87	0	4
TAP	87	96	5
TAP	87	192	6
TAP	87	288	7
BRK	88	0	0
BRK	88	0	2
TAP	88	192	3
TAP	88	288	3
TAP	89	0	4
TAP	89	96	5
TAP	89	192	6
TAP	89	288	7
TAP	90	0	0
TAP	90	96	1
TAP	90	192	2
TAP	90	288	3
TAP	91	0	3
TAP	91	96	2
TAP	91	192	1
TAP	91	288	0
TAP	92	0	7
TAP	92	96	6
TAP	92	192	4
TAP	92	192	5
TAP	93	0	5
TAP	93	96	4
TAP	93	192	6
TAP	93	288	7
TAP	94	0	6
TAP	94	0	7
TAP	94	96	6
TAP	94	96	7
TAP	94	192	0
TAP	94	192	5
TAP	95	0	2
TAP	95	96	3
TAP	95	192	1
TAP	95	288	0
TAP	96	0	0
TAP	96	0	1
TAP	96	96	0
TAP	96	96	1
TAP	96	192	2
TAP	96	192	7
TAP	97	0	6
TAP	97	96	7
TAP	97	192	5
TAP	97	288	4
TAP	98	0	4
TAP	98	0	5
TAP	98	96	4
TAP	98	96	5
TAP	98	192	3
TAP	98	192	6
TAP	99	0	1
TAP	99	96	0
TAP	99	192	2
TAP	99	288	3
TAP	100	0	2
TAP	100	0	3
TAP	100	96	2
TAP	100	96	3
TAP	100	192	1
TAP	100	192	4
TAP	101	0	5
TAP	101	96	4
TAP	101	96	5
TAP	101	192	5
TAP	101	288	4
TAP	101	288	5
TAP	102	0	6
TAP	102	96	6
TAP	102	96	7
TAP	102	192	0
TAP	102	192	5
TAP	103	0	2
TAP	103	96	2
TAP	103	96	3
TAP	103	192	2
TAP	103	288	2
TAP	103	288	3
TAP	104	0	1
TAP	104	96	0
TAP	104	96	1
TAP	104	192	2
TAP	104	192	7
TAP	105	0	6
TAP	105	96	6
TAP	105	96	7
TAP	105	192	6
TAP	105	288	6
TAP	105	288	7
TAP	106	0	5
TAP	106	96	4
TAP	106	96	5
TAP	106	192	3
TAP	106	192	6
TAP	107	0	1
TAP	107	96	0
TAP	107	96	1
TAP	107	192	1
TAP	107	288	0
TAP	107	288	1
TAP	108	0	2
TAP	108	96	2
TAP	108	96	3
BRK	108	192	1
BRK	108	192	4
TAP	109	0	0
TAP	109	96	0
TAP	109	192	1
TAP	109	288	1
TAP	110	0	2
TAP	110	0	3
TAP	110	96	1
TAP	110	96	4
TAP	110	192	0
TAP	110	192	5
TAP	111	0	7
TAP	111	96	7
TAP	111	192	6
TAP	111	288	6
TAP	112	0	4
TAP	112	0	5
TAP	112	96	3
TAP	112	96	6
TAP	112	192	2
TAP	112	192	7
TAP	113	0	3
TAP	113	96	3
TAP	113	192	2
TAP	113	288	2
TAP	114	0	0
TAP	114	0	1
TAP	114	96	2
TAP	114	96	7
TAP	114	192	3
TAP	114	192	6
TAP	115	0	4
TAP	115	96	4
TAP	115	192	5
TAP	115	288	5
TAP	116	0	6
TAP	116	0	7
TAP	116	96	0
TAP	116	96	5
TAP	116	192	1
TAP	116	192	4
TAP	116	288	2
STR	116	288	3
SI_	116	288	3	96	480	7

T_REC_TAP	419
T_REC_BRK	10
T_REC_XTP	0
T_REC_HLD	24
T_REC_XHO	0
T_REC_STR	5
T_REC_BST	0
T_REC_XST	0
T_REC_TTP	0
T_REC_THO	0
T_REC_SLD	5
T_REC_ALL	463
T_NUM_TAP	424
T_NUM_BRK	10
T_NUM_HLD	24
T_NUM_SLD	5
T_NUM_ALL	463
T_JUDGE_TAP	434
T_JUDGE_HLD	96
T_JUDGE_SLD	5
T_JUDGE_ALL	535
TTM_EACHPAIRS	89
TTM_SCR_TAP	212000
TTM_SCR_BRK	26000
TTM_SCR_HLD	24000
TTM_SCR_SLD	7500
TTM_SCR_ALL	269500
TTM_SCR_S	260450
TTM_SCR_SS	268500
TTM_RAT_ACV	10037

