VERSION	0.00.00	1.03.00
FES_MODE	0
BPM_DEF	200.000	200.000	200.000	200.000
MET_DEF	4	4
RESOLUTION	384
CLK_DEF	384
COMPATIBLE_CODE	MA2

BPM	0	0	200.000
MET	0	0	4	4

TAP	1	0	0
TAP	2	0	0
TAP	3	0	7
TAP	4	0	7
TAP	5	0	0
TAP	5	192	0
TAP	6	0	0
TAP	7	0	7
TAP	7	192	7
TAP	8	0	7
TAP	9	0	0
TAP	9	192	0
TAP	10	0	0
TAP	11	0	7
TAP	11	192	7
BRK	12	0	0
BRK	12	0	7
HLD	13	0	1	192
TAP	14	0	1
TAP	14	192	1
HLD	15	0	2	192
TAP	16	0	2
TAP	16	192	2
HLD	17	0	3	192
TAP	18	0	3
TAP	18	192	3
HLD	19	0	4	192
TAP	20	0	4
TAP	20	96	4
TAP	20	192	4
HLD	21	0	5	192
TAP	22	0	5
TAP	22	192	5
HLD	23	0	6	192
TAP	24	0	6
TAP	24	192	6
HLD	25	0	7	192
TAP	26	0	7
TAP	26	192	7
HLD	27	0	0	192
TAP	28	0	0
TAP	28	96	0
TAP	28	192	0
TAP	29	0	7
TAP	29	192	7
TAP	30	0	7
TAP	30	96	7
TAP	30	192	7
TAP	31	0	6
TAP	31	192	6
TAP	32	0	6
TAP	32	96	6
TAP	32	192	6
TAP	33	0	5
TAP	33	192	5
TAP	34	0	5
TAP	34	96	5
TAP	34	192	5
TAP	35	0	4
TAP	35	192	4
TAP	36	0	4
TAP	36	96	4
TAP	36	192	4
TAP	37	0	3
TAP	37	96	3
TAP	37	192	2
TAP	38	0	1
TAP	38	96	1
TAP	38	192	0
STR	39	0	0
SI_	39	0	0	96	288	4
TAP	41	0	4
TAP	41	96	4
TAP	41	192	5
TAP	42	0	6
TAP	42	96	6
TAP	42	192	7
BRK	43	0	0
BRK	43	0	7
BRK	43	192	0
BRK	43	192	7
BRK	44	0	1
BRK	44	0	6
TAP	45	0	7
TAP	45	96	7
TAP	45	192	6
TAP	46	0	5
TAP	46	96	5
TAP	46	192	4
STR	47	0	4
SI_	47	0	4	96	288	0
TAP	49	0	0
TAP	49	96	0
TAP	49	192	1
TAP	50	0	2
TAP	50	96	2
TAP	50	192	3
HLD	51	0	3	384
HLD	51	0	4	384
TAP	52	192	3
TAP	52	192	4
TAP	53	0	1
TAP	53	96	1
TAP	53	192	2
TAP	53	288	2
TAP	54	0	3
TAP	54	96	3
TAP	54	192	4
TAP	55	0	3
TAP	55	0	4
TAP	55	96	3
TAP	55	96	4
TAP	55	192	3
TAP	55	192	4
TAP	56	0	2
TAP	56	0	5
TAP	56	192	3
TAP	56	192	4
TAP	57	0	6
TAP	57	96	6
TAP	57	192	5
TAP	57	288	5
TAP	58	0	4
TAP	58	96	4
TAP	58	192	3
TAP	59	0	3
TAP	59	0	4
TAP	59	96	3
TAP	59	96	4
TAP	59	192	3
TAP	59	192	4
TAP	60	0	2
TAP	60	0	5
TAP	60	192	3
TAP	60	192	4
TAP	61	0	5
TAP	61	96	5
TAP	61	192	6
TAP	61	288	6
TAP	62	0	7
TAP	62	96	7
TAP	62	192	0
TAP	63	0	0
TAP	63	0	7
TAP	63	96	0
TAP	63	96	7
TAP	63	192	0
TAP	63	192	7
TAP	64	0	1
TAP	64	0	6
TAP	64	192	1
TAP	64	192	6
TAP	65	0	2
TAP	65	96	2
TAP	65	192	1
TAP	65	288	1
TAP	66	0	0
TAP	66	96	0
TAP	66	192	7
STR	67	0	0
SI_	67	0	0	96	288	3
STR	67	0	7
SI_	67	0	7	96	288	4
TAP	69	0	7
TAP	69	96	7
TAP	69	192	7
TAP	70	0	0
TAP	70	96	0
TAP	70	192	0
TAP	71	0	7
TAP	71	96	7
TAP	71	192	7
TAP	72	0	0
TAP	72	96	0
TAP	72	192	0
TAP	73	0	6
TAP	73	96	7
TAP	73	192	6
TAP	74	0	1
TAP	74	96	0
TAP	74	192	1
TAP	75	0	6
TAP	75	96	7
TAP	75	192	6
TAP	76	0	1
TAP	76	96	0
TAP	76	192	1
TAP	77	0	0
TAP	77	96	0
TAP	77	192	1
TAP	78	0	2
TAP	78	96	2
TAP	78	192	3
STR	79	0	3
SI_	79	0	3	96	288	7
TAP	81	0	7
TAP	81	96	7
TAP	81	192	6
TAP	82	0	5
TAP	82	96	5
TAP	82	192	4
BRK	83	0	3
BRK	83	0	4
BRK	83	192	3
BRK	83	192	4
BRK	84	0	2
BRK	84	0	5
TAP	85	0	4
TAP	85	96	4
TAP	85	192	5
TAP	86	0	6
TAP	86	96	6
TAP	86	192	7
STR	87	0	7
SI_	87	0	7	96	288	3
TAP	89	0	3
TAP	89	96	3
TAP	89	192	2
TAP	90	0	1
TAP	90	96	1
TAP	90	192	0
HLD	91	0	0	384
HLD	91	0	7	384
TAP	92	192	0
TAP	92	192	7
TAP	93	0	0
TAP	93	96	0
TAP	93	192	1
TAP	93	288	1
TAP	94	0	2
TAP	94	96	2
TAP	94	192	3
TAP	95	0	4
TAP	95	0	5
TAP	95	96	4
TAP	95	96	5
TAP	95	192	4
TAP	95	192	5
TAP	96	0	3
TAP	96	0	6
TAP	96	192	0
TAP	96	192	7
TAP	97	0	7
TAP	97	96	7
TAP	97	192	6
TAP	97	288	6
TAP	98	0	5
TAP	98	96	5
TAP	98	192	4
TAP	99	0	2
TAP	99	0	3
TAP	99	96	2
TAP	99	96	3
TAP	99	192	2
TAP	99	192	3
TAP	100	0	1
TAP	100	0	4
TAP	100	192	2
TAP	100	192	3
TAP	101	0	4
TAP	101	96	4
TAP	101	192	5
TAP	101	288	5
TAP	102	0	6
TAP	102	96	6
TAP	102	192	7
TAP	103	0	0
TAP	103	0	1
TAP	103	96	0
TAP	103	96	1
TAP	103	192	0
TAP	103	192	1
TAP	104	0	2
TAP	104	0	3
TAP	104	192	4
TAP	104	192	5
TAP	105	0	3
TAP	105	96	3
TAP	105	192	2
TAP	105	288	2
TAP	106	0	1
TAP	106	96	1
TAP	106	192	0
STR	107	0	0
SI_	107	0	0	96	288	3
STR	107	0	7
SI_	107	0	7	96	288	4
TAP	109	0	1
TAP	109	96	0
TAP	109	192	1
TAP	110	0	6
TAP	110	96	7
TAP	110	192	6
TAP	111	0	1
TAP	111	96	0
TAP	111	192	1
TAP	112	0	6
TAP	112	96	7
TAP	112	192	6
TAP	113	0	1
TAP	113	96	7
TAP	113	192	0
TAP	114	0	6
TAP	114	96	0
TAP	114	192	7
TAP	115	0	1
TAP	115	96	7
TAP	115	192	0
TAP	116	0	6
TAP	116	96	0
TAP	116	192	7
HLD	117	0	1	480
HLD	117	0	6	480

T_REC_TAP	269
T_REC_BRK	14
T_REC_XTP	0
T_REC_HLD	14
T_REC_XHO	0
T_REC_STR	8
T_REC_BST	0
T_REC_XST	0
T_REC_TTP	0
T_REC_THO	0
T_REC_SLD	8
T_REC_ALL	313
T_NUM_TAP	277
T_NUM_BRK	14
T_NUM_HLD	14
T_NUM_SLD	8
T_NUM_ALL	313
T_JUDGE_TAP	291
T_JUDGE_HLD	84
T_JUDGE_SLD	8
T_JUDGE_ALL	383
TTM_EACHPAIRS	44
TTM_SCR_TAP	138500
TTM_SCR_BRK	36400
TTM_SCR_HLD	14000
TTM_SCR_SLD	12000
TTM_SCR_ALL	200900
TTM_SCR_S	193550
TTM_SCR_SS	199500
TTM_RAT_ACV	10070

