VERSION	0.00.00	1.03.00
FES_MODE	0
BPM_DEF	134.000	134.000	134.000	134.000
MET_DEF	4	4
RESOLUTION	384
CLK_DEF	384
COMPATIBLE_CODE	MA2

BPM	0	0	134.000
MET	0	0	4	4

HLD	2	0	1	72
HLD	2	72	2	72
TAP	2	144	3
TAP	2	240	2
TAP	2	288	3
TAP	2	336	2
HLD	3	0	6	72
HLD	3	72	5	72
TAP	3	144	4
TAP	3	240	5
TAP	3	288	4
TAP	3	336	5
HLD	4	0	1	72
HLD	4	72	2	72
TAP	4	144	3
TAP	4	240	3
TAP	4	240	4
TAP	4	288	3
TAP	4	312	4
TAP	4	336	3
TAP	4	360	4
TAP	5	0	2
TAP	5	24	5
TAP	5	72	3
TAP	5	72	4
TAP	5	120	5
TAP	5	144	4
TAP	5	192	2
TAP	5	192	3
TAP	5	240	0
TAP	5	240	5
HLD	6	0	7	72
HLD	6	72	6	72
TAP	6	144	5
TAP	6	240	3
TAP	6	288	2
TAP	6	336	1
HLD	7	0	0	72
HLD	7	72	1	72
TAP	7	144	2
TAP	7	240	5
TAP	7	264	4
TAP	7	288	5
TAP	7	336	3
TAP	7	336	6
HLD	8	0	7	72
HLD	8	72	6	72
TAP	8	144	5
TAP	8	240	3
TAP	8	240	4
TAP	8	288	4
TAP	8	312	3
TAP	8	336	4
TAP	8	360	3
TAP	9	0	5
TAP	9	24	2
TAP	9	72	3
TAP	9	72	4
TAP	9	120	2
TAP	9	144	3
TAP	9	192	4
TAP	9	192	5
TAP	9	240	2
TAP	9	240	7
HLD	10	0	0	72
HLD	10	72	1	72
TAP	10	144	2
TAP	10	240	4
TAP	10	288	5
TAP	10	336	6
HLD	11	0	7	72
HLD	11	72	6	72
TAP	11	144	5
TAP	11	240	2
TAP	11	264	3
TAP	11	288	2
TAP	11	336	1
TAP	11	336	4
HLD	12	0	0	72
HLD	12	72	1	72
TAP	12	144	2
HLD	12	192	7	72
HLD	12	264	6	72
TAP	12	336	5
TAP	13	0	0
TAP	13	0	1
TAP	13	72	6
TAP	13	72	7
BRK	13	144	1
BRK	13	144	6
TAP	13	288	3
TAP	13	288	4
TAP	14	0	0
TAP	14	0	5
TAP	14	96	2
TAP	14	96	3
TAP	14	144	7
HLD	14	192	7	72
HLD	14	264	6	72
STR	14	336	5
SCL	14	336	5	96	48	2
TAP	15	0	5
TAP	15	48	0
STR	15	96	1
SI_	15	96	1	96	48	5
TAP	15	144	1
STR	15	192	7
SI_	15	192	7	96	48	3
TAP	15	240	7
TAP	15	288	0
TAP	15	336	0
TAP	16	0	2
TAP	16	0	7
TAP	16	96	3
TAP	16	96	4
TAP	16	144	0
HLD	16	192	0	72
HLD	16	264	1	72
STR	16	336	2
SCR	16	336	2	96	48	5
TAP	17	0	2
TAP	17	48	7
STR	17	96	6
SI_	17	96	6	96	48	2
TAP	17	144	6
STR	17	192	0
SI_	17	192	0	96	48	4
TAP	17	240	0
TAP	17	288	7
TAP	17	336	7
TAP	18	0	0
TAP	18	0	5
TAP	18	96	2
TAP	18	96	3
TAP	18	144	7
HLD	18	192	7	72
HLD	18	264	6	72
STR	18	336	5
SCL	18	336	5	96	48	2
TAP	19	0	5
TAP	19	48	0
STR	19	96	1
SI_	19	96	1	96	48	5
TAP	19	144	1
STR	19	192	7
SI_	19	192	7	96	48	3
TAP	19	240	7
TAP	19	288	0
TAP	19	336	0
TAP	20	0	2
STR	20	0	3
SCR	20	0	3	96	48	7
TAP	20	96	1
STR	20	192	4
SCL	20	192	4	96	48	0
TAP	20	192	5
TAP	20	288	6
STR	21	0	6
SI_	21	0	6	96	48	2
TAP	21	48	6
STR	21	96	1
SI_	21	96	1	96	48	5
TAP	21	144	1
TAP	21	192	7
TAP	21	288	3
TAP	21	288	6
TAP	22	0	2
TAP	22	0	7
TAP	22	96	4
TAP	22	96	5
TAP	22	144	3
HLD	22	192	3	72
HLD	22	264	2	72
STR	22	336	1
SCL	22	336	1	96	48	6
TAP	23	0	1
TAP	23	48	4
STR	23	96	5
SI_	23	96	5	96	48	1
TAP	23	144	5
STR	23	192	3
SI_	23	192	3	96	48	7
TAP	23	240	3
TAP	23	288	4
TAP	23	336	4
TAP	24	0	0
TAP	24	0	5
TAP	24	96	2
TAP	24	96	3
TAP	24	144	4
HLD	24	192	4	72
HLD	24	264	5	72
STR	24	336	6
SCR	24	336	6	96	48	1
TAP	25	0	6
TAP	25	48	3
STR	25	96	2
SI_	25	96	2	96	48	6
TAP	25	144	2
STR	25	192	4
SI_	25	192	4	96	48	0
TAP	25	240	4
TAP	25	288	3
TAP	25	336	3
TAP	26	0	2
TAP	26	0	7
TAP	26	96	4
TAP	26	96	5
TAP	26	144	3
HLD	26	192	3	72
HLD	26	264	2	72
STR	26	336	1
SCL	26	336	1	96	48	6
TAP	27	0	1
TAP	27	48	4
STR	27	96	5
SI_	27	96	5	96	48	1
TAP	27	144	5
STR	27	192	3
SI_	27	192	3	96	48	7
TAP	27	240	3
TAP	27	288	4
TAP	27	336	4
TAP	28	0	6
STR	28	0	7
SCR	28	0	7	96	48	3
TAP	28	96	5
STR	28	192	0
SCL	28	192	0	96	48	4
TAP	28	192	1
TAP	28	288	2
STR	29	0	2
SI_	29	0	2	96	96	5
STR	29	0	6
SI_	29	0	6	96	96	1
HLD	30	0	2	72
HLD	30	72	3	72
STR	30	144	4
SCL	30	144	4	96	48	1
HLD	30	240	7	96
TAP	30	336	6
HLD	31	0	5	72
TAP	31	72	4
TAP	31	144	3
TAP	31	144	6
TAP	31	240	1
TAP	31	240	4
TAP	31	288	2
TAP	31	312	3
HLD	32	0	5	72
HLD	32	72	4	72
STR	32	144	3
SCR	32	144	3	96	48	6
TAP	32	240	0
TAP	32	288	0
TAP	32	336	1
TAP	33	0	2
TAP	33	48	3
TAP	33	96	2
TAP	33	96	3
TAP	33	144	1
TAP	33	144	4
TAP	33	240	5
TAP	33	264	4
TAP	33	288	5
TAP	33	336	3
TAP	33	336	6
HLD	34	0	2	72
HLD	34	72	3	72
STR	34	144	4
SCL	34	144	4	96	48	1
HLD	34	240	7	96
TAP	34	336	6
TAP	35	0	5
TAP	35	48	5
TAP	35	96	4
TAP	35	144	3
TAP	35	144	6
TAP	35	240	1
TAP	35	264	0
TAP	35	288	1
TAP	35	336	2
TAP	35	336	7
TAP	36	0	4
TAP	36	0	5
TAP	36	48	2
TAP	36	72	3
TAP	36	120	5
STR	36	144	4
SI_	36	144	4	96	48	0
TAP	36	240	6
TAP	36	288	5
TAP	36	336	4
BRK	37	0	2
BRK	37	0	7
BRK	37	72	0
BRK	37	72	5
BRK	37	144	1
BRK	37	144	6
TAP	37	240	2
TAP	37	240	5
TAP	37	288	3
TAP	37	288	4
TAP	38	0	0
TAP	38	0	1
TAP	38	72	4
TAP	38	72	5
STR	38	144	6
SI_	38	144	6	96	48	2
STR	38	144	7
SI_	38	144	7	96	48	3
TAP	38	240	6
TAP	38	240	7
TAP	38	336	1
HLD	39	0	1	72
HLD	39	72	2	72
STR	39	144	3
SCL	39	144	3	96	48	1
SCR	39	144	3	96	48	6
TAP	39	336	4
HLD	40	0	4	72
TAP	40	72	5
TAP	40	144	2
TAP	40	144	7
HLD	40	192	3	72
TAP	40	264	2
TAP	40	336	0
TAP	40	336	5
HLD	41	0	4	72
TAP	41	72	5
TAP	41	144	2
TAP	41	144	7
TAP	41	192	2
TAP	41	216	3
TAP	41	264	1
TAP	41	264	4
TAP	41	312	4
TAP	41	312	5
TAP	42	0	6
TAP	42	0	7
TAP	42	72	2
TAP	42	72	3
STR	42	144	0
SI_	42	144	0	96	48	4
STR	42	144	1
SI_	42	144	1	96	48	5
TAP	42	240	0
TAP	42	240	1
TAP	42	336	6
HLD	43	0	6	72
HLD	43	72	5	72
STR	43	144	4
SCL	43	144	4	96	48	1
SCR	43	144	4	96	48	6
TAP	43	192	4
TAP	43	336	3
HLD	44	0	3	72
TAP	44	72	2
TAP	44	144	0
TAP	44	144	5
TAP	44	240	0
TAP	44	240	1
TAP	44	288	2
TAP	44	288	7
TAP	44	336	3
TAP	44	336	6
TAP	45	0	4
TAP	45	0	5
BRK	45	72	0
BRK	45	72	4
TAP	45	288	3
TAP	45	288	4
TAP	46	0	2
TAP	46	0	3
TAP	46	72	1
TAP	46	72	4
TAP	46	144	5
TAP	46	168	4
TAP	46	192	5
TAP	46	240	3
TAP	46	288	3
TAP	46	336	2
TAP	47	0	4
TAP	47	0	5
TAP	47	72	3
TAP	47	72	6
TAP	47	144	2
TAP	47	168	3
TAP	47	192	2
TAP	47	240	4
TAP	47	288	4
TAP	47	336	5
TAP	48	0	2
TAP	48	0	3
TAP	48	72	1
TAP	48	72	4
TAP	48	144	5
TAP	48	168	4
TAP	48	192	5
TAP	48	240	3
TAP	48	288	3
TAP	48	336	2
TAP	49	0	4
TAP	49	0	5
TAP	49	72	3
TAP	49	72	6
STR	49	144	2
SCL	49	144	2	96	48	0
STR	49	144	3
SCR	49	144	3	96	48	5
TAP	49	240	2
TAP	49	240	3
TAP	50	0	4
TAP	50	0	5
TAP	50	72	3
TAP	50	72	6
TAP	50	144	2
TAP	50	168	3
STR	50	192	1
SCR	50	192	1	96	48	4
TAP	51	0	2
TAP	51	0	3
TAP	51	72	1
TAP	51	72	4
TAP	51	192	3
TAP	51	192	5
TAP	51	240	5
TAP	51	288	2
TAP	51	288	4
TAP	51	336	2
TAP	52	0	4
TAP	52	0	5
TAP	52	72	3
STR	52	72	6
SXL	52	72	6	96	120	1
TAP	53	0	2
TAP	53	0	3
TAP	53	72	1
TAP	53	72	4
STR	53	144	4
SCL	53	144	4	96	48	2
STR	53	144	5
SCR	53	144	5	96	48	7
TAP	53	240	4
TAP	53	240	5
TAP	54	0	6
TAP	54	0	7
TAP	54	72	2
TAP	54	72	3
STR	54	144	0
SI_	54	144	0	96	48	4
STR	54	144	1
SI_	54	144	1	96	48	5
TAP	54	240	0
TAP	54	240	1
TAP	54	336	5
HLD	55	0	5	72
HLD	55	72	6	72
STR	55	144	7
SCL	55	144	7	96	48	5
SCR	55	144	7	96	48	2
TAP	55	336	0
HLD	56	0	0	72
TAP	56	72	1
TAP	56	144	3
TAP	56	144	6
HLD	56	192	7	72
TAP	56	264	6
TAP	56	336	1
TAP	56	336	4
HLD	57	0	0	72
TAP	57	72	1
TAP	57	144	3
TAP	57	144	6
TAP	57	192	6
TAP	57	216	7
TAP	57	264	0
TAP	57	264	5
TAP	57	312	3
TAP	57	312	4
TAP	58	0	0
TAP	58	0	1
TAP	58	72	4
TAP	58	72	5
STR	58	144	6
SI_	58	144	6	96	48	2
STR	58	144	7
SI_	58	144	7	96	48	3
TAP	58	240	6
TAP	58	240	7
TAP	58	336	1
HLD	59	0	1	72
HLD	59	72	2	72
STR	59	144	3
SCL	59	144	3	96	48	1
SCR	59	144	3	96	48	6
TAP	59	192	3
TAP	59	336	4
HLD	60	0	4	72
TAP	60	72	5
TAP	60	144	2
TAP	60	144	7
TAP	60	240	6
TAP	60	240	7
TAP	60	288	0
TAP	60	288	5
TAP	60	336	1
TAP	60	336	4
TAP	61	0	2
TAP	61	0	3
TAP	61	72	0
TAP	61	72	5
TAP	61	144	4
TAP	61	144	5
BRK	61	192	6
BRK	61	192	7
BRK	61	264	1
BRK	61	264	4
BRK	61	336	0
BRK	61	336	1
TAP	62	0	2
TAP	62	0	3
TAP	62	72	6
TAP	62	72	7
STR	62	144	4
SCL	62	144	4	96	48	1
STR	62	144	5
SCR	62	144	5	96	48	0
TAP	62	240	4
TAP	62	240	5
TAP	62	336	0
HLD	63	0	0	72
HLD	63	72	1	72
STR	63	144	2
SCL	63	144	2	96	48	7
SCR	63	144	2	96	48	5
TAP	63	336	7
HLD	64	0	7	72
TAP	64	72	6
TAP	64	144	2
TAP	64	144	4
HLD	64	192	0	72
TAP	64	264	1
TAP	64	336	3
TAP	64	336	5
HLD	65	0	7	72
TAP	65	72	6
TAP	65	144	2
TAP	65	144	4
TAP	65	192	1
TAP	65	216	0
TAP	65	264	2
TAP	65	264	7
TAP	65	312	3
TAP	65	312	4
TAP	66	0	4
TAP	66	0	5
TAP	66	72	0
TAP	66	72	1
STR	66	144	2
SCL	66	144	2	96	48	7
STR	66	144	3
SCR	66	144	3	96	48	6
TAP	66	240	2
TAP	66	240	3
TAP	66	336	7
HLD	67	0	7	72
HLD	67	72	6	72
STR	67	144	5
SCL	67	144	5	96	48	2
SCR	67	144	5	96	48	0
TAP	67	192	5
TAP	67	336	3
HLD	68	0	3	72
TAP	68	72	2
TAP	68	144	0
TAP	68	144	5
TAP	68	240	3
TAP	68	240	4
TAP	68	288	2
TAP	68	288	5
TAP	68	336	0
TAP	68	336	7
STR	69	0	1
SCL	69	0	1	96	48	6
STR	69	0	6
SI_	69	0	6	96	48	3
BRK	69	72	1
BRK	69	72	6
TAP	69	192	1
TAP	69	192	4
TAP	69	264	3
TAP	69	264	6
TAP	69	336	3
TAP	69	336	4
STR	70	0	1
SI_	70	0	1	96	48	4
STR	70	0	6
SCR	70	0	6	96	48	1
BRK	70	72	1
BRK	70	72	6
STR	70	192	0
SI_	70	192	0	96	48	4
STR	70	192	7
SI_	70	192	7	96	48	3
TAP	70	288	0
TAP	70	288	7
BRK	71	0	2
BRK	71	0	5
TAP	71	96	1
TAP	71	96	6
TAP	71	144	7
TAP	71	168	0
STR	71	192	7
SCL	71	192	7	96	36	4
BRK	71	288	0
BRK	71	288	7
TAP	71	300	1
TAP	71	312	2
TAP	71	324	3
TAP	72	0	4
TAP	72	0	6
TAP	72	72	1
TAP	72	72	3
TAP	72	144	3
TAP	72	144	4
STR	72	240	0
SI_	72	240	0	96	48	3
STR	72	240	7
SI_	72	240	7	96	48	4
BRK	72	336	0
BRK	72	336	7

T_REC_TAP	409
T_REC_BRK	26
T_REC_XTP	0
T_REC_HLD	65
T_REC_XHO	0
T_REC_STR	63
T_REC_BST	0
T_REC_XST	0
T_REC_TTP	0
T_REC_THO	0
T_REC_SLD	69
T_REC_ALL	632
T_NUM_TAP	472
T_NUM_BRK	26
T_NUM_HLD	65
T_NUM_SLD	69
T_NUM_ALL	632
T_JUDGE_TAP	498
T_JUDGE_HLD	130
T_JUDGE_SLD	69
T_JUDGE_ALL	697
TTM_EACHPAIRS	144
TTM_SCR_TAP	236000
TTM_SCR_BRK	67600
TTM_SCR_HLD	65000
TTM_SCR_SLD	103500
TTM_SCR_ALL	472100
TTM_SCR_S	455450
TTM_SCR_SS	469500
TTM_RAT_ACV	10055

