VERSION	0.00.00	1.03.00
FES_MODE	0
BPM_DEF	134.000	134.000	134.000	134.000
MET_DEF	4	4
RESOLUTION	384
CLK_DEF	384
COMPATIBLE_CODE	MA2

BPM	0	0	134.000
MET	0	0	4	4

HLD	2	0	2	72
HLD	2	72	3	72
TAP	2	144	4
TAP	2	240	4
TAP	2	240	5
HLD	3	0	5	72
HLD	3	72	4	72
TAP	3	144	3
TAP	3	240	2
TAP	3	240	3
HLD	4	0	2	72
HLD	4	72	3	72
TAP	4	144	4
TAP	4	240	4
TAP	4	288	3
STR	4	288	5
SUL	4	288	5	96	192	3
BRK	5	240	0
BRK	5	240	5
HLD	6	0	7	72
HLD	6	72	6	72
TAP	6	144	5
TAP	6	240	3
TAP	6	288	2
TAP	6	288	4
HLD	7	0	0	72
HLD	7	72	1	72
TAP	7	144	2
TAP	7	240	4
TAP	7	288	3
TAP	7	288	5
HLD	8	0	7	72
HLD	8	72	6	72
TAP	8	144	5
TAP	8	240	3
STR	8	288	2
SUR	8	288	2	96	192	4
TAP	8	288	4
BRK	9	240	2
BRK	9	240	7
HLD	10	0	0	72
HLD	10	72	1	72
TAP	10	144	2
TAP	10	240	4
TAP	10	288	3
TAP	10	288	5
HLD	11	0	7	72
HLD	11	72	6	72
TAP	11	144	5
TAP	11	240	3
TAP	11	288	2
TAP	11	288	4
HLD	12	0	0	72
HLD	12	72	1	72
TAP	12	144	2
HLD	12	192	7	72
HLD	12	264	6	72
TAP	12	336	5
TAP	13	0	2
TAP	13	0	4
TAP	13	72	3
TAP	13	72	5
BRK	13	144	1
BRK	13	144	6
TAP	13	288	3
TAP	13	288	4
HLD	14	0	0	96
HLD	14	0	6	96
HLD	14	192	1	72
HLD	14	264	2	72
TAP	14	336	3
TAP	15	48	4
TAP	15	48	5
TAP	15	96	3
STR	15	96	6
SUR	15	96	6	96	96	4
HLD	16	0	1	96
HLD	16	0	7	96
HLD	16	192	6	72
HLD	16	264	5	72
TAP	16	336	4
TAP	17	48	2
TAP	17	48	3
STR	17	96	1
SUL	17	96	1	96	96	3
TAP	17	96	4
HLD	18	0	0	96
HLD	18	0	6	96
HLD	18	192	1	72
HLD	18	264	2	72
TAP	18	336	3
TAP	19	48	4
TAP	19	48	5
TAP	19	96	3
STR	19	96	6
SUR	19	96	6	96	96	4
HLD	20	0	2	96
TAP	20	0	3
TAP	20	96	5
TAP	20	192	4
HLD	20	192	5	96
TAP	20	288	2
STR	21	0	5
SUR	21	0	5	96	96	2
TAP	21	240	0
TAP	21	288	7
TAP	21	336	6
HLD	22	0	2	96
HLD	22	0	4	96
HLD	22	192	5	72
HLD	22	264	6	72
TAP	22	336	7
TAP	23	48	0
TAP	23	48	1
STR	23	96	2
SUR	23	96	2	96	96	0
TAP	23	96	7
HLD	24	0	3	96
HLD	24	0	5	96
HLD	24	192	2	72
HLD	24	264	1	72
TAP	24	336	0
TAP	25	48	6
TAP	25	48	7
TAP	25	96	0
STR	25	96	5
SUL	25	96	5	96	96	7
HLD	26	0	2	96
HLD	26	0	4	96
HLD	26	192	5	72
HLD	26	264	6	72
TAP	26	336	7
TAP	27	48	0
TAP	27	48	1
STR	27	96	2
SUR	27	96	2	96	96	0
TAP	27	96	7
HLD	28	0	6	96
TAP	28	0	7
TAP	28	96	1
TAP	28	192	0
HLD	28	192	1	96
TAP	28	288	6
BST	29	0	0
SF_	29	0	0	96	192	4
HLD	30	0	4	72
TAP	30	72	5
TAP	30	144	3
STR	30	144	6
SCR	30	144	6	96	96	2
HLD	31	0	3	72
TAP	31	72	2
STR	31	144	1
SCL	31	144	1	96	72	5
TAP	31	144	4
HLD	32	0	4	72
TAP	32	72	5
TAP	32	144	3
STR	32	144	6
SCR	32	144	6	96	72	2
STR	33	0	3
SLL	33	0	3	96	192	7
SLR	33	0	3	96	192	7
HLD	34	0	0	72
TAP	34	72	1
TAP	34	144	2
STR	34	144	7
SCR	34	144	7	96	72	3
HLD	35	0	7	72
TAP	35	72	6
STR	35	144	0
SCL	35	144	0	96	72	4
TAP	35	144	5
STR	36	0	1
SI_	36	0	1	96	48	4
STR	36	96	6
SI_	36	96	6	96	48	3
STR	36	192	0
SI_	36	192	0	96	48	4
TAP	36	288	7
TAP	37	0	3
TAP	37	0	4
TAP	37	72	0
TAP	37	72	7
BRK	37	144	1
BRK	37	144	6
TAP	37	288	3
TAP	37	288	4
HLD	38	0	0	72
HLD	38	72	1	72
STR	38	144	2
SCR	38	144	2	96	48	5
TAP	38	336	7
HLD	39	0	7	72
HLD	39	72	6	72
STR	39	144	5
SCL	39	144	5	96	48	2
TAP	39	336	1
HLD	40	0	1	72
HLD	40	72	2	72
TAP	40	144	3
HLD	40	192	6	72
HLD	40	264	5	72
TAP	40	336	4
HLD	41	0	1	72
HLD	41	72	2	72
TAP	41	144	3
TAP	41	192	1
TAP	41	192	4
TAP	41	288	4
TAP	41	288	5
HLD	42	0	7	72
HLD	42	72	6	72
STR	42	144	5
SUR	42	144	5	96	72	2
TAP	42	336	0
HLD	43	0	0	72
HLD	43	72	1	72
TAP	43	144	2
STR	43	192	2
SI_	43	192	2	96	48	6
STR	44	0	7
SI_	44	0	7	96	48	4
TAP	44	96	0
STR	44	144	0
SI_	44	144	0	96	48	3
TAP	44	240	7
TAP	44	288	7
TAP	45	0	3
TAP	45	0	4
BRK	45	72	1
BRK	45	72	6
STR	45	288	0
SLL	45	288	0	96	288	3
STR	45	288	7
SLR	45	288	7	96	288	4
HLD	47	0	2	72
HLD	47	0	3	72
TAP	47	192	3
TAP	47	240	4
TAP	47	288	5
HLD	48	0	4	72
HLD	48	0	5	72
TAP	48	192	4
TAP	48	240	3
TAP	48	288	2
HLD	49	0	2	72
HLD	49	0	3	72
STR	49	144	1
SI_	49	144	1	96	48	5
TAP	49	144	4
HLD	50	0	4	72
HLD	50	0	6	72
TAP	50	192	5
TAP	50	240	3
TAP	50	288	2
TAP	50	288	4
HLD	51	0	1	72
HLD	51	0	3	72
TAP	51	192	2
TAP	51	240	4
TAP	51	288	3
TAP	51	288	5
HLD	52	0	4	72
HLD	52	0	6	72
TAP	52	192	5
TAP	52	240	3
TAP	52	288	2
TAP	52	288	4
HLD	53	0	1	72
HLD	53	0	3	72
TAP	53	144	3
TAP	53	144	4
BRK	53	240	1
BRK	53	240	6
HLD	54	0	7	72
HLD	54	72	6	72
STR	54	144	5
SCL	54	144	5	96	48	2
TAP	54	336	0
HLD	55	0	0	72
HLD	55	72	1	72
STR	55	144	2
SCR	55	144	2	96	48	5
TAP	55	336	7
HLD	56	0	7	72
HLD	56	72	6	72
TAP	56	144	5
HLD	56	192	0	72
HLD	56	264	1	72
TAP	56	336	2
HLD	57	0	7	72
HLD	57	72	6	72
TAP	57	144	5
TAP	57	192	2
TAP	57	192	7
TAP	57	288	3
TAP	57	288	4
HLD	58	0	0	72
HLD	58	72	1	72
STR	58	144	2
SUL	58	144	2	96	72	5
TAP	58	336	7
HLD	59	0	7	72
HLD	59	72	6	72
TAP	59	144	5
STR	59	192	5
SI_	59	192	5	96	48	1
STR	60	0	0
SI_	60	0	0	96	48	4
TAP	60	96	7
STR	60	144	7
SI_	60	144	7	96	48	3
TAP	60	240	0
TAP	60	288	0
BRK	61	0	0
BRK	61	0	1
TAP	61	72	2
TAP	61	72	7
TAP	61	144	3
TAP	61	144	6
BRK	61	192	6
BRK	61	192	7
TAP	61	264	0
TAP	61	264	5
TAP	61	336	1
TAP	61	336	4
HLD	62	0	3	72
HLD	62	72	2	72
STR	62	144	1
SCL	62	144	1	96	72	5
TAP	62	336	4
HLD	63	0	4	72
HLD	63	72	5	72
STR	63	144	6
SCR	63	144	6	96	72	2
TAP	63	336	3
HLD	64	0	3	72
HLD	64	72	2	72
TAP	64	144	1
HLD	64	192	4	72
HLD	64	264	5	72
TAP	64	336	6
HLD	65	0	3	72
HLD	65	72	2	72
TAP	65	144	1
TAP	65	192	2
TAP	65	192	7
TAP	65	288	2
TAP	65	288	3
HLD	66	0	4	72
HLD	66	72	5	72
STR	66	144	6
SCR	66	144	6	96	48	1
TAP	66	336	3
HLD	67	0	3	72
HLD	67	72	2	72
TAP	67	144	1
STR	67	192	1
SUR	67	192	1	96	72	6
STR	68	0	4
SI_	68	0	4	96	48	0
TAP	68	96	3
STR	68	144	3
SI_	68	144	3	96	48	7
TAP	68	240	4
TAP	68	288	4
TAP	69	0	0
TAP	69	0	1
TAP	69	72	3
STR	69	72	6
SXL	69	72	6	96	168	1
TAP	70	0	4
TAP	70	0	5
STR	70	72	2
SXL	70	72	2	96	168	5
TAP	70	72	7
BRK	71	0	3
BRK	71	0	4
STR	71	96	1
SLR	71	96	1	96	144	0
STR	71	96	6
SLL	71	96	6	96	144	7
TAP	72	0	2
TAP	72	0	7
TAP	72	72	3
TAP	72	72	4
TAP	72	144	0
TAP	72	144	5
TAP	72	240	3
TAP	72	240	4
BRK	72	336	1
BRK	72	336	6

T_REC_TAP	175
T_REC_BRK	20
T_REC_XTP	0
T_REC_HLD	109
T_REC_XHO	0
T_REC_STR	43
T_REC_BST	1
T_REC_XST	0
T_REC_TTP	0
T_REC_THO	0
T_REC_SLD	45
T_REC_ALL	393
T_NUM_TAP	218
T_NUM_BRK	21
T_NUM_HLD	109
T_NUM_SLD	45
T_NUM_ALL	393
T_JUDGE_TAP	239
T_JUDGE_HLD	218
T_JUDGE_SLD	45
T_JUDGE_ALL	502
TTM_EACHPAIRS	84
TTM_SCR_TAP	109000
TTM_SCR_BRK	54600
TTM_SCR_HLD	109000
TTM_SCR_SLD	67500
TTM_SCR_ALL	340100
TTM_SCR_S	327900
TTM_SCR_SS	338000
TTM_RAT_ACV	10062

