VERSION	0.00.00	1.03.00
FES_MODE	0
BPM_DEF	134.000	134.000	134.000	134.000
MET_DEF	4	4
RESOLUTION	384
CLK_DEF	384
COMPATIBLE_CODE	MA2

BPM	0	0	134.000
MET	0	0	4	4

TAP	2	0	2
TAP	2	96	3
TAP	2	192	2
TAP	2	192	3
TAP	3	0	5
TAP	3	96	4
TAP	3	192	4
TAP	3	192	5
TAP	4	0	2
TAP	4	96	3
TAP	4	192	2
TAP	4	192	3
TAP	5	0	4
TAP	5	96	5
TAP	5	192	4
TAP	5	288	4
TAP	5	288	5
TAP	6	0	6
TAP	6	96	7
TAP	6	192	6
TAP	6	192	7
TAP	7	0	1
TAP	7	96	0
TAP	7	192	0
TAP	7	192	1
TAP	8	0	6
TAP	8	96	7
TAP	8	192	6
TAP	8	192	7
TAP	9	0	0
TAP	9	96	1
TAP	9	192	0
TAP	9	288	0
TAP	9	288	1
TAP	10	0	1
TAP	10	96	2
TAP	10	192	2
TAP	10	192	3
TAP	11	0	6
TAP	11	96	5
TAP	11	192	4
TAP	11	192	5
TAP	12	0	1
TAP	12	96	2
TAP	12	192	3
TAP	12	288	4
STR	13	0	5
SI_	13	0	5	96	192	0
TAP	14	0	1
TAP	14	96	2
TAP	14	192	3
TAP	14	288	4
TAP	14	288	5
TAP	15	0	6
TAP	15	96	5
TAP	15	192	4
TAP	15	288	2
TAP	15	288	3
TAP	16	0	1
TAP	16	96	2
TAP	16	192	3
TAP	16	288	4
TAP	16	288	5
TAP	17	0	6
TAP	17	96	5
TAP	17	192	4
TAP	17	288	3
TAP	17	288	4
TAP	18	0	1
TAP	18	96	2
TAP	18	192	3
TAP	18	288	3
TAP	18	288	4
TAP	19	0	6
TAP	19	96	5
TAP	19	192	4
TAP	19	288	3
TAP	19	288	4
TAP	20	0	1
TAP	20	96	2
TAP	20	192	3
STR	20	288	4
SLL	20	288	4	96	288	0
TAP	22	0	6
TAP	22	96	5
TAP	22	192	4
TAP	22	288	2
TAP	22	288	3
TAP	23	0	1
TAP	23	96	2
TAP	23	192	3
TAP	23	288	4
TAP	23	288	5
TAP	24	0	6
TAP	24	96	5
TAP	24	192	4
TAP	24	288	2
TAP	24	288	3
TAP	25	0	1
TAP	25	96	2
TAP	25	192	3
TAP	25	288	3
TAP	25	288	4
TAP	26	0	6
TAP	26	96	5
TAP	26	192	4
TAP	26	288	3
TAP	26	288	4
TAP	27	0	1
TAP	27	96	2
TAP	27	192	3
TAP	27	288	3
TAP	27	288	4
TAP	28	0	6
TAP	28	96	5
TAP	28	192	4
STR	28	288	3
SLR	28	288	3	96	288	7
HLD	30	0	2	192
HLD	30	192	3	192
HLD	31	0	4	192
TAP	31	192	5
HLD	32	0	5	192
HLD	32	192	4	192
HLD	33	0	3	192
TAP	33	192	2
HLD	34	0	3	192
HLD	34	192	2	192
HLD	35	0	1	192
TAP	35	192	0
HLD	36	0	4	192
HLD	36	192	5	192
STR	37	0	6
SI_	37	0	6	96	144	1
TAP	38	0	2
TAP	38	96	2
TAP	38	96	3
TAP	38	192	5
TAP	38	288	4
TAP	38	288	5
TAP	39	0	3
TAP	39	0	4
TAP	39	96	2
TAP	39	96	5
TAP	39	192	1
TAP	39	192	6
TAP	40	0	6
TAP	40	0	7
TAP	40	96	0
TAP	40	96	7
TAP	40	192	0
TAP	40	192	1
TAP	40	288	0
TAP	40	288	7
STR	41	0	6
SCR	41	0	6	96	144	1
TAP	42	0	1
TAP	42	96	0
TAP	42	96	1
TAP	42	192	6
TAP	42	288	6
TAP	42	288	7
TAP	43	0	0
TAP	43	0	7
TAP	43	96	1
TAP	43	96	6
TAP	43	192	0
TAP	43	192	7
TAP	44	0	6
TAP	44	0	7
TAP	44	96	0
TAP	44	96	7
TAP	44	192	0
TAP	44	192	1
TAP	44	288	0
TAP	44	288	7
BRK	45	0	1
BRK	45	0	6
HLD	46	0	3	288
TAP	46	192	4
TAP	46	288	4
HLD	47	0	4	288
TAP	47	192	3
TAP	47	288	3
HLD	48	0	2	288
TAP	48	192	3
TAP	48	288	3
HLD	49	0	5	288
TAP	49	192	4
TAP	49	288	4
HLD	50	0	1	288
TAP	50	192	2
TAP	50	288	2
HLD	51	0	6	288
TAP	51	192	5
TAP	51	288	5
HLD	52	0	2	288
TAP	52	192	1
TAP	52	288	1
HLD	53	0	5	288
TAP	53	192	6
TAP	53	288	6
TAP	54	0	2
TAP	54	96	2
TAP	54	96	3
TAP	54	192	5
TAP	54	288	4
TAP	54	288	5
TAP	55	0	3
TAP	55	0	4
TAP	55	96	2
TAP	55	96	5
TAP	55	192	1
TAP	55	192	6
TAP	56	0	6
TAP	56	0	7
TAP	56	96	0
TAP	56	96	7
TAP	56	192	0
TAP	56	192	1
TAP	56	288	0
TAP	56	288	7
STR	57	0	1
SCL	57	0	1	96	144	6
TAP	58	0	6
TAP	58	96	6
TAP	58	96	7
TAP	58	192	1
TAP	58	288	0
TAP	58	288	1
TAP	59	0	0
TAP	59	0	7
TAP	59	96	1
TAP	59	96	6
TAP	59	192	0
TAP	59	192	7
TAP	60	0	0
TAP	60	0	1
TAP	60	96	0
TAP	60	96	7
TAP	60	192	6
TAP	60	192	7
TAP	60	288	0
TAP	60	288	7
TAP	61	0	1
TAP	61	0	6
TAP	61	96	2
TAP	61	96	5
BRK	61	192	3
BRK	61	192	4
TAP	62	0	6
TAP	62	96	6
TAP	62	96	7
TAP	62	192	1
TAP	62	288	0
TAP	62	288	1
TAP	63	0	0
TAP	63	0	7
TAP	63	96	1
TAP	63	96	6
TAP	63	192	0
TAP	63	192	7
TAP	64	0	0
TAP	64	0	1
TAP	64	96	0
TAP	64	96	7
TAP	64	192	6
TAP	64	192	7
TAP	64	288	0
TAP	64	288	7
TAP	65	0	1
TAP	65	0	6
TAP	65	96	2
TAP	65	96	5
BRK	65	192	3
BRK	65	192	4
TAP	66	0	2
TAP	66	96	2
TAP	66	96	3
TAP	66	192	5
TAP	66	288	4
TAP	66	288	5
TAP	67	0	3
TAP	67	96	4
TAP	67	192	2
TAP	67	192	5
HLD	68	0	1	288
TAP	68	96	0
TAP	68	192	0
TAP	68	288	0
HLD	69	0	6	288
TAP	69	96	7
TAP	69	192	7
TAP	69	288	7
TAP	70	0	1
TAP	70	0	6
STR	71	0	0
SSL	71	0	0	96	192	4
STR	72	0	3
SI_	72	0	3	96	144	0
STR	72	0	4
SI_	72	0	4	96	144	7
BRK	72	336	1
BRK	72	336	6

T_REC_TAP	257
T_REC_BRK	8
T_REC_XTP	0
T_REC_HLD	21
T_REC_XHO	0
T_REC_STR	9
T_REC_BST	0
T_REC_XST	0
T_REC_TTP	0
T_REC_THO	0
T_REC_SLD	9
T_REC_ALL	304
T_NUM_TAP	266
T_NUM_BRK	8
T_NUM_HLD	21
T_NUM_SLD	9
T_NUM_ALL	304
T_JUDGE_TAP	274
T_JUDGE_HLD	104
T_JUDGE_SLD	9
T_JUDGE_ALL	387
TTM_EACHPAIRS	80
TTM_SCR_TAP	133000
TTM_SCR_BRK	20800
TTM_SCR_HLD	21000
TTM_SCR_SLD	13500
TTM_SCR_ALL	188300
TTM_SCR_S	181900
TTM_SCR_SS	187500
TTM_RAT_ACV	10042

