VERSION	0.00.00	1.03.00
FES_MODE	0
BPM_DEF	134.000	134.000	134.000	134.000
MET_DEF	4	4
RESOLUTION	384
CLK_DEF	384
COMPATIBLE_CODE	MA2

BPM	0	0	134.000
MET	0	0	4	4

TAP	2	0	0
TAP	3	0	7
TAP	4	0	0
HLD	5	0	7	240
TAP	6	0	0
TAP	6	192	0
TAP	7	0	1
TAP	7	192	1
TAP	8	0	2
TAP	8	192	2
HLD	9	0	3	240
TAP	10	0	4
TAP	10	192	4
TAP	11	0	5
TAP	11	192	5
TAP	12	0	6
TAP	12	192	6
BRK	13	0	0
BRK	13	0	7
TAP	14	0	7
TAP	14	192	7
TAP	15	0	6
TAP	15	96	6
TAP	15	192	6
TAP	16	0	5
TAP	16	192	5
TAP	17	0	4
TAP	17	96	4
TAP	17	192	3
TAP	17	288	3
TAP	18	0	4
TAP	18	192	4
TAP	19	0	3
TAP	19	96	3
TAP	19	192	3
TAP	20	0	2
TAP	20	192	1
TAP	21	0	0
TAP	21	96	7
TAP	21	192	0
TAP	22	0	0
TAP	22	192	0
TAP	23	0	1
TAP	23	96	1
TAP	23	192	1
TAP	24	0	2
TAP	24	192	2
TAP	25	0	3
TAP	25	96	3
TAP	25	192	4
TAP	25	288	4
TAP	26	0	3
TAP	26	192	3
TAP	27	0	4
TAP	27	96	4
TAP	27	192	4
TAP	28	0	5
TAP	28	192	6
HLD	29	0	0	192
HLD	29	0	7	192
STR	30	0	7
SI_	30	0	7	96	288	3
STR	32	0	0
SI_	32	0	0	96	288	4
TAP	34	0	7
TAP	34	192	6
HLD	35	0	4	192
HLD	35	0	5	192
TAP	36	0	3
TAP	36	192	2
BRK	37	0	1
TAP	38	0	0
TAP	38	96	0
TAP	38	192	0
TAP	39	0	1
TAP	39	96	1
TAP	39	192	1
TAP	40	0	2
TAP	40	0	3
TAP	40	192	3
TAP	40	192	4
TAP	41	0	5
TAP	41	96	4
TAP	41	192	5
TAP	42	0	7
TAP	42	96	7
TAP	42	192	7
TAP	43	0	6
TAP	43	96	6
TAP	43	192	6
TAP	44	0	4
TAP	44	0	5
TAP	44	192	3
TAP	44	192	4
TAP	45	0	2
TAP	45	96	3
TAP	45	192	2
STR	46	0	1
SI_	46	0	1	96	288	5
STR	48	0	6
SI_	48	0	6	96	288	2
STR	50	0	0
SI_	50	0	0	96	288	3
STR	52	0	7
SI_	52	0	7	96	288	4
TAP	54	0	2
TAP	54	96	2
TAP	54	192	2
TAP	55	0	1
TAP	55	96	1
TAP	55	192	1
TAP	56	0	0
TAP	56	0	1
TAP	56	192	0
TAP	56	192	7
TAP	57	0	6
TAP	57	96	7
TAP	57	192	6
TAP	58	0	5
TAP	58	96	5
TAP	58	192	5
TAP	59	0	6
TAP	59	96	6
TAP	59	192	6
TAP	60	0	6
TAP	60	0	7
TAP	60	192	0
TAP	60	192	7
TAP	61	0	1
TAP	61	96	0
TAP	61	192	1
TAP	62	0	2
TAP	62	96	3
TAP	62	192	2
TAP	63	0	5
TAP	63	96	4
TAP	63	192	5
TAP	64	0	6
TAP	64	96	6
TAP	64	192	7
TAP	64	288	7
TAP	65	0	0
TAP	65	96	7
TAP	65	192	1
TAP	65	192	6
TAP	66	0	5
TAP	66	96	4
TAP	66	192	5
TAP	67	0	2
TAP	67	96	3
TAP	67	192	2
TAP	68	0	1
TAP	68	96	1
TAP	68	192	0
TAP	68	288	0
TAP	69	0	7
TAP	69	96	0
TAP	69	192	7
TAP	70	0	0
TAP	70	96	7
TAP	70	192	0
HLD	71	0	1	192
HLD	71	0	6	192
STR	72	0	0
SI_	72	0	0	96	288	4

T_REC_TAP	140
T_REC_BRK	3
T_REC_XTP	0
T_REC_HLD	8
T_REC_XHO	0
T_REC_STR	7
T_REC_BST	0
T_REC_XST	0
T_REC_TTP	0
T_REC_THO	0
T_REC_SLD	7
T_REC_ALL	165
T_NUM_TAP	147
T_NUM_BRK	3
T_NUM_HLD	8
T_NUM_SLD	7
T_NUM_ALL	165
T_JUDGE_TAP	150
T_JUDGE_HLD	34
T_JUDGE_SLD	7
T_JUDGE_ALL	191
TTM_EACHPAIRS	13
TTM_SCR_TAP	73500
TTM_SCR_BRK	7800
TTM_SCR_HLD	8000
TTM_SCR_SLD	10500
TTM_SCR_ALL	99800
TTM_SCR_S	96550
TTM_SCR_SS	99500
TTM_RAT_ACV	10030

