VERSION	0.00.00	1.03.00
FES_MODE	0
BPM_DEF	185.000	185.000	185.000	185.000
MET_DEF	4	4
RESOLUTION	384
CLK_DEF	384
COMPATIBLE_CODE	MA2

BPM	0	0	185.000
MET	0	0	4	4

TAP	2	0	3
TAP	2	0	4
TAP	2	96	3
TAP	2	144	4
TAP	2	192	3
TAP	2	240	4
TAP	2	288	3
TAP	2	336	4
TAP	3	0	2
TAP	3	0	4
TAP	3	96	2
TAP	3	144	4
TAP	3	192	2
TAP	3	240	4
TAP	3	288	2
TAP	3	336	4
TAP	4	0	3
TAP	4	0	4
TAP	4	96	3
TAP	4	144	4
TAP	4	192	3
TAP	4	240	4
TAP	4	288	3
TAP	4	336	4
TAP	5	0	3
TAP	5	0	5
TAP	5	96	3
TAP	5	144	5
TAP	5	192	3
TAP	5	192	5
TAP	5	288	1
TAP	5	336	7
TAP	6	0	0
TAP	6	0	7
TAP	6	96	0
TAP	6	144	7
TAP	6	192	0
TAP	6	240	7
TAP	6	288	0
TAP	6	336	7
TAP	7	0	1
TAP	7	0	7
TAP	7	96	1
TAP	7	144	7
TAP	7	192	1
TAP	7	240	7
TAP	7	288	1
TAP	7	336	7
TAP	8	0	0
TAP	8	0	7
TAP	8	96	0
TAP	8	144	7
TAP	8	192	0
TAP	8	240	7
TAP	8	288	0
TAP	8	336	7
TAP	9	0	0
TAP	9	0	6
TAP	9	96	0
TAP	9	144	6
TAP	9	192	0
TAP	9	192	7
TAP	9	288	1
TAP	9	288	6
STR	10	0	1
SI_	10	0	1	96	48	3
TAP	10	48	4
TAP	10	96	4
STR	10	192	1
SI_	10	192	1	96	48	4
TAP	10	240	5
TAP	10	288	5
STR	11	0	1
SI_	11	0	1	96	48	5
TAP	11	48	6
TAP	11	96	6
STR	11	192	1
SI_	11	192	1	96	48	6
TAP	11	240	7
TAP	11	288	7
STR	12	0	1
SI_	12	0	1	96	48	5
TAP	12	48	6
TAP	12	96	6
STR	12	192	1
SI_	12	192	1	96	48	4
TAP	12	240	5
TAP	12	288	5
STR	13	0	1
SI_	13	0	1	96	48	3
TAP	13	48	4
TAP	13	96	4
TAP	13	192	2
TAP	13	192	5
TAP	13	240	1
TAP	13	240	6
TAP	13	288	0
TAP	13	288	7
STR	14	0	6
SI_	14	0	6	96	48	4
TAP	14	48	3
TAP	14	96	3
STR	14	192	6
SI_	14	192	6	96	48	3
TAP	14	240	2
TAP	14	288	2
STR	15	0	6
SI_	15	0	6	96	48	2
TAP	15	48	1
TAP	15	96	1
STR	15	192	6
SI_	15	192	6	96	48	1
TAP	15	240	0
TAP	15	288	0
STR	16	0	6
SI_	16	0	6	96	48	2
TAP	16	48	1
TAP	16	96	1
STR	16	192	6
SI_	16	192	6	96	48	3
TAP	16	240	2
TAP	16	288	2
STR	17	0	6
SI_	17	0	6	96	48	4
TAP	17	48	3
TAP	17	96	3
TAP	17	192	0
TAP	17	192	7
TAP	17	240	1
TAP	17	240	6
TAP	17	288	2
TAP	17	288	5
TAP	17	336	3
TAP	17	336	4
BST	18	0	2
SUR	18	0	2	96	384	4
STR	19	0	4
SUR	19	0	4	96	384	6
STR	20	0	6
SUR	20	0	6	96	384	0
STR	21	0	0
SCR	21	0	0	96	192	3
STR	21	192	3
SXR	21	192	3	96	48	1
TAP	22	0	6
TAP	22	48	7
TAP	22	96	6
TAP	22	144	7
TAP	22	192	5
TAP	22	240	4
TAP	22	288	5
TAP	22	336	4
TAP	23	0	0
TAP	23	48	1
TAP	23	96	0
TAP	23	144	1
TAP	23	192	3
TAP	23	240	2
TAP	23	288	3
TAP	23	336	2
TAP	24	0	4
TAP	24	0	5
TAP	24	48	4
TAP	24	48	5
TAP	24	144	2
TAP	24	144	3
TAP	24	192	2
TAP	24	192	3
TAP	24	288	4
TAP	24	288	5
TAP	24	336	4
TAP	24	336	6
TAP	25	48	2
TAP	25	48	3
TAP	25	96	1
TAP	25	96	3
TAP	25	192	6
TAP	25	192	7
TAP	25	288	0
TAP	25	288	1
STR	26	0	1
SCL	26	0	1	96	96	6
STR	26	96	6
SCL	26	96	6	96	96	3
STR	26	192	3
SCL	26	192	3	96	96	0
STR	26	288	0
SCL	26	288	0	96	96	5
SCR	26	288	0	96	96	3
BRK	27	192	2
BRK	27	192	5
STR	27	336	1
SI_	27	336	1	96	48	4
TAP	27	336	7
TAP	28	48	1
STR	28	96	0
SCL	28	96	0	96	48	5
TAP	28	192	2
TAP	28	240	1
TAP	28	288	0
STR	28	336	7
SCR	28	336	7	96	48	2
TAP	29	48	6
TAP	29	96	5
TAP	29	144	4
HLD	29	192	5	96
TAP	29	336	5
TAP	30	0	4
TAP	30	48	6
TAP	30	96	2
TAP	30	144	3
TAP	30	192	1
TAP	30	240	6
TAP	30	288	0
STR	30	336	7
SI_	30	336	7	96	48	3
TAP	31	48	7
STR	31	96	1
SV_	31	96	1	96	48	4
TAP	31	192	0
TAP	31	240	7
TAP	31	288	6
TAP	31	336	0
STR	31	336	5
SI_	31	336	5	96	48	2
TAP	32	48	5
STR	32	96	7
SCR	32	96	7	96	48	2
TAP	32	192	5
TAP	32	240	6
TAP	32	288	7
STR	32	336	0
SCL	32	336	0	96	48	5
TAP	33	48	1
HLD	33	96	2	96
TAP	33	240	6
TAP	33	288	2
TAP	33	336	5
TAP	34	0	3
STR	34	48	4
SXL	34	48	4	96	48	6
STR	34	144	4
SXR	34	144	4	96	48	2
STR	34	240	4
SF_	34	240	4	96	144	0
TAP	34	336	4
TAP	35	192	3
TAP	35	240	2
TAP	35	240	4
TAP	35	288	1
TAP	35	288	5
TAP	35	336	0
BST	35	336	6
SI_	35	336	6	96	48	3
TAP	36	48	6
STR	36	96	7
SCR	36	96	7	96	48	2
TAP	36	192	5
TAP	36	240	6
TAP	36	288	7
STR	36	336	0
SCL	36	336	0	96	48	5
TAP	37	48	1
TAP	37	96	2
TAP	37	144	3
HLD	37	192	2	96
TAP	37	336	2
TAP	38	0	3
TAP	38	48	1
TAP	38	96	7
TAP	38	144	5
TAP	38	192	6
TAP	38	240	3
TAP	38	288	4
STR	38	336	0
SI_	38	336	0	96	48	4
TAP	39	48	0
STR	39	96	5
SV_	39	96	5	96	48	2
TAP	39	192	6
TAP	39	240	7
TAP	39	288	0
STR	39	336	1
SI_	39	336	1	96	48	6
STR	39	336	2
SI_	39	336	2	96	48	5
TAP	40	144	4
STR	40	192	4
SV_	40	192	4	96	48	7
TAP	40	288	3
STR	40	336	3
SV_	40	336	3	96	48	0
TAP	41	48	5
HLD	41	96	5	96
TAP	41	240	5
TAP	41	288	4
TAP	41	336	6
TAP	42	0	0
TAP	42	48	2
TAP	42	96	1
TAP	42	144	4
TAP	42	192	3
STR	42	240	7
SXR	42	240	7	96	72	5
STR	42	336	0
SXL	42	336	0	96	72	2
TAP	43	144	4
TAP	43	192	3
TAP	43	192	5
TAP	43	240	2
TAP	43	240	6
TAP	43	288	1
TAP	43	288	7
HLD	43	336	0	336
TAP	44	48	7
TAP	44	96	6
TAP	44	144	5
TAP	44	192	4
TAP	44	240	5
TAP	44	288	6
HLD	44	336	6	336
TAP	45	48	0
TAP	45	96	1
TAP	45	144	2
TAP	45	192	3
TAP	45	240	2
TAP	45	288	1
HLD	45	336	1	336
TAP	46	48	0
TAP	46	96	7
TAP	46	144	6
TAP	46	192	5
TAP	46	240	6
TAP	46	288	7
HLD	46	336	7	240
TAP	47	48	4
TAP	47	96	3
TAP	47	144	2
TAP	47	192	1
STR	47	240	0
SF_	47	240	0	96	48	4
BRK	47	336	0
TAP	48	48	2
TAP	48	96	1
TAP	48	144	0
TAP	48	192	7
TAP	48	240	0
TAP	48	288	1
HLD	48	336	1	336
TAP	49	48	3
TAP	49	96	4
TAP	49	144	5
TAP	49	192	6
TAP	49	240	5
TAP	49	288	4
HLD	49	336	4	336
TAP	50	48	3
TAP	50	96	2
TAP	50	144	1
TAP	50	192	0
TAP	50	240	1
TAP	50	288	2
HLD	50	336	2	240
TAP	51	48	3
TAP	51	96	4
TAP	51	144	5
TAP	51	192	6
STR	51	240	7
SF_	51	240	7	96	48	3
TAP	51	336	7
TAP	52	96	5
TAP	52	144	5
TAP	52	240	1
TAP	52	288	1
TAP	53	0	7
TAP	53	48	6
TAP	53	96	5
TAP	53	144	4
TAP	53	240	0
TAP	53	288	0
TAP	54	0	6
TAP	54	48	5
TAP	54	96	4
TAP	54	144	3
TAP	54	240	7
TAP	54	288	7
TAP	55	0	2
TAP	55	48	3
TAP	55	96	2
TAP	55	192	0
TAP	55	192	1
TAP	55	288	1
TAP	55	288	2
TAP	56	0	4
TAP	56	48	5
TAP	56	96	6
TAP	56	144	7
TAP	56	240	3
TAP	56	288	3
TAP	57	0	5
TAP	57	48	6
TAP	57	96	7
TAP	57	144	0
TAP	57	240	4
TAP	57	288	4
TAP	58	0	3
TAP	58	48	4
TAP	58	96	3
TAP	58	192	4
TAP	58	192	5
TAP	58	288	5
TAP	58	288	6
STR	59	0	6
SI_	59	0	6	96	48	2
STR	59	0	7
SI_	59	0	7	96	48	1
BRK	59	192	0
BRK	59	192	7
STR	60	0	1
SI_	60	0	1	96	48	4
TAP	60	0	6
STR	60	96	0
SCL	60	96	0	96	48	5
TAP	60	192	1
TAP	60	240	2
TAP	60	288	3
STR	60	336	6
SI_	60	336	6	96	48	3
TAP	61	48	6
STR	61	96	7
SCR	61	96	7	96	48	2
TAP	61	192	6
TAP	61	240	5
TAP	61	288	4
STR	61	336	2
SI_	61	336	2	96	48	7
TAP	62	48	2
STR	62	96	3
SCR	62	96	3	96	48	6
TAP	62	192	7
TAP	62	240	0
TAP	62	288	1
HLD	62	336	2	96
TAP	63	96	3
TAP	63	144	2
TAP	63	144	4
TAP	63	192	1
TAP	63	192	5
TAP	63	240	0
TAP	63	240	6
STR	63	336	6
SCL	63	336	6	96	48	3
TAP	63	336	7
STR	64	48	1
SI_	64	48	1	96	48	5
TAP	64	96	1
STR	64	144	7
SI_	64	144	7	96	48	2
TAP	64	192	7
STR	64	240	4
SI_	64	240	4	96	48	0
TAP	64	288	4
TAP	64	336	7
STR	65	48	6
SI_	65	48	6	96	48	2
TAP	65	96	6
STR	65	144	0
SI_	65	144	0	96	48	5
TAP	65	192	0
STR	65	240	3
SI_	65	240	3	96	48	7
TAP	65	288	3
TAP	65	336	0
STR	66	48	1
SI_	66	48	1	96	48	5
TAP	66	96	1
STR	66	144	7
SI_	66	144	7	96	48	2
TAP	66	192	7
STR	66	240	4
SI_	66	240	4	96	48	0
TAP	66	288	4
STR	66	336	6
SCL	66	336	6	96	48	3
TAP	67	48	1
TAP	67	96	0
TAP	67	144	7
TAP	67	192	0
TAP	67	192	6
TAP	67	240	1
TAP	67	240	5
TAP	67	288	2
TAP	67	288	4
TAP	67	336	3
BST	67	336	5
SCR	67	336	5	96	48	0
TAP	68	48	5
STR	68	96	4
SV_	68	96	4	96	48	1
TAP	68	192	0
TAP	68	240	7
TAP	68	288	6
BST	68	336	2
SCL	68	336	2	96	48	7
TAP	69	48	2
STR	69	96	3
SV_	69	96	3	96	48	6
TAP	69	192	7
TAP	69	240	0
TAP	69	288	1
BST	69	336	5
SI_	69	336	5	96	48	0
TAP	70	48	5
STR	70	96	4
SCL	70	96	4	96	48	1
TAP	70	192	0
TAP	70	240	7
TAP	70	288	6
HLD	70	336	5	96
TAP	71	96	4
TAP	71	144	3
TAP	71	144	5
TAP	71	192	2
TAP	71	192	6
TAP	71	240	1
TAP	71	240	7
TAP	71	336	0
STR	71	336	1
SCR	71	336	1	96	48	4
STR	72	48	6
SI_	72	48	6	96	48	2
TAP	72	96	6
STR	72	144	0
SI_	72	144	0	96	48	5
TAP	72	192	0
STR	72	240	3
SI_	72	240	3	96	48	7
TAP	72	288	3
TAP	72	336	0
STR	73	48	1
SI_	73	48	1	96	48	5
TAP	73	96	1
STR	73	144	7
SI_	73	144	7	96	48	2
TAP	73	192	7
STR	73	240	4
SI_	73	240	4	96	48	0
TAP	73	288	4
TAP	73	336	7
STR	74	48	6
SI_	74	48	6	96	48	2
TAP	74	96	6
STR	74	144	0
SI_	74	144	0	96	48	5
TAP	74	192	0
STR	74	240	3
SI_	74	240	3	96	48	7
TAP	74	288	3
STR	74	336	1
SCR	74	336	1	96	48	4
TAP	75	48	6
TAP	75	96	7
TAP	75	144	0
TAP	75	192	1
TAP	75	192	7
TAP	75	240	2
TAP	75	240	6
TAP	75	288	3
TAP	75	288	5
HLD	75	336	3	96
HLD	75	336	5	96
TAP	76	96	3
TAP	76	96	4
TAP	76	144	5
TAP	76	192	3
TAP	76	192	4
TAP	76	240	2
TAP	76	288	3
TAP	76	288	4
TAP	76	336	5
TAP	77	0	3
TAP	77	0	4
TAP	77	48	1
TAP	77	96	3
TAP	77	96	4
TAP	77	144	6
TAP	77	192	3
TAP	77	192	4
TAP	77	240	1
TAP	77	288	3
TAP	77	288	4
TAP	78	0	2
TAP	78	0	3
TAP	78	48	1
TAP	78	96	4
TAP	78	96	5
TAP	78	144	6
TAP	78	192	2
TAP	78	192	3
TAP	78	240	1
TAP	78	288	4
TAP	78	288	5
TAP	78	336	6
TAP	79	0	2
TAP	79	0	3
TAP	79	48	0
TAP	79	96	4
TAP	79	96	5
TAP	79	144	7
TAP	79	192	2
TAP	79	192	3
TAP	79	240	0
TAP	79	288	4
TAP	79	288	5
HLD	79	336	4	96
HLD	79	336	5	96
BRK	80	96	0
BRK	80	96	7
TAP	80	192	2
TAP	80	192	3
TAP	80	240	0
TAP	80	288	4
TAP	80	288	5
TAP	80	336	7
TAP	81	0	2
TAP	81	0	3
TAP	81	48	0
TAP	81	96	4
TAP	81	96	5
TAP	81	144	7
TAP	81	192	2
TAP	81	192	3
TAP	81	240	0
TAP	81	288	4
TAP	81	288	5
TAP	81	336	7
TAP	82	0	2
TAP	82	0	3
TAP	82	48	2
TAP	82	48	3
TAP	82	96	4
TAP	82	96	5
TAP	82	144	4
TAP	82	144	5
TAP	82	192	1
TAP	82	192	3
TAP	82	240	1
TAP	82	240	3
TAP	82	288	4
TAP	82	288	6
TAP	82	336	4
TAP	82	336	6
TAP	83	0	7
TAP	83	16	6
TAP	83	32	5
TAP	83	48	4
TAP	83	96	0
TAP	83	112	1
TAP	83	128	2
TAP	83	144	3
TAP	83	192	6
TAP	83	208	5
TAP	83	224	4
TAP	83	240	3
TAP	83	288	1
HLD	83	336	6	96
HLD	83	336	7	96
TAP	84	96	3
TAP	84	96	4
HLD	84	144	0	96
HLD	84	144	1	96
HLD	84	288	5	96
HLD	84	288	6	96
HLD	85	48	1	96
HLD	85	48	2	96
TAP	85	192	0
TAP	85	240	1
TAP	85	288	2
TAP	85	336	3
STR	86	0	7
SI_	86	0	7	96	48	5
TAP	86	48	7
STR	86	96	0
SI_	86	96	0	96	48	2
TAP	86	144	0
STR	86	192	7
SI_	86	192	7	96	48	4
TAP	86	240	7
STR	86	288	0
SI_	86	288	0	96	48	4
TAP	86	336	0
STR	87	0	7
SI_	87	0	7	96	48	3
TAP	87	48	7
STR	87	96	0
SI_	87	96	0	96	48	3
TAP	87	144	0
STR	87	192	7
SI_	87	192	7	96	48	4
TAP	87	240	7
TAP	87	288	1
BST	87	336	2
SCL	87	336	2	96	48	7
TAP	88	48	2
TAP	88	96	5
TAP	88	192	4
TAP	88	192	5
TAP	88	240	3
TAP	88	240	6
STR	88	336	5
SCR	88	336	5	96	48	0
TAP	89	48	5
TAP	89	96	2
TAP	89	192	2
TAP	89	192	3
TAP	89	240	1
TAP	89	240	4
STR	89	336	2
SCL	89	336	2	96	48	7
TAP	90	48	2
TAP	90	96	5
TAP	90	192	4
TAP	90	192	5
TAP	90	240	3
TAP	90	240	6
TAP	90	288	2
TAP	90	288	7
HLD	90	336	0	96
HLD	90	336	1	96
TAP	91	96	0
TAP	91	96	1
TAP	91	192	2
TAP	91	192	6
STR	91	240	3
SI_	91	240	3	96	48	0
STR	91	240	7
SI_	91	240	7	96	48	4
TAP	91	288	0
TAP	91	288	4
BRK	91	336	3
BRK	91	336	7

T_REC_TAP	514
T_REC_BRK	9
T_REC_XTP	0
T_REC_HLD	27
T_REC_XHO	0
T_REC_STR	89
T_REC_BST	6
T_REC_XST	0
T_REC_TTP	0
T_REC_THO	0
T_REC_SLD	96
T_REC_ALL	741
T_NUM_TAP	603
T_NUM_BRK	15
T_NUM_HLD	27
T_NUM_SLD	96
T_NUM_ALL	741
T_JUDGE_TAP	618
T_JUDGE_HLD	85
T_JUDGE_SLD	96
T_JUDGE_ALL	799
TTM_EACHPAIRS	110
TTM_SCR_TAP	301500
TTM_SCR_BRK	39000
TTM_SCR_HLD	27000
TTM_SCR_SLD	144000
TTM_SCR_ALL	511500
TTM_SCR_S	494700
TTM_SCR_SS	510000
TTM_RAT_ACV	10029

