VERSION	0.00.00	1.03.00
FES_MODE	0
BPM_DEF	185.000	185.000	185.000	185.000
MET_DEF	4	4
RESOLUTION	384
CLK_DEF	384
COMPATIBLE_CODE	MA2

BPM	0	0	185.000
MET	0	0	4	4

TAP	2	0	2
TAP	2	96	1
TAP	2	192	0
TAP	3	0	5
TAP	3	96	6
TAP	3	192	7
TAP	4	0	2
TAP	4	96	1
TAP	4	192	0
TAP	5	0	5
TAP	5	96	6
TAP	5	192	7
HLD	6	0	2	384
TAP	6	96	0
TAP	6	192	7
TAP	6	288	6
HLD	7	0	5	384
TAP	7	96	7
TAP	7	192	0
TAP	7	288	1
HLD	8	0	2	384
TAP	8	96	0
TAP	8	192	7
TAP	8	288	6
HLD	9	0	5	384
TAP	9	96	7
TAP	9	192	0
TAP	9	288	1
BRK	10	0	2
TAP	10	96	6
TAP	10	144	6
TAP	10	240	6
TAP	10	240	7
STR	10	336	6
SI_	10	336	6	96	48	3
TAP	10	336	7
TAP	11	192	0
TAP	11	192	1
TAP	11	288	0
TAP	11	288	1
TAP	11	336	0
STR	11	336	1
SI_	11	336	1	96	48	4
TAP	12	192	6
TAP	12	192	7
TAP	12	288	6
TAP	12	288	7
STR	12	336	6
SI_	12	336	6	96	48	3
TAP	12	336	7
HLD	13	144	1	96
HLD	13	240	0	96
HLD	13	336	7	96
TAP	14	48	6
TAP	14	96	6
TAP	14	192	1
TAP	14	288	0
TAP	14	288	7
TAP	14	336	0
TAP	14	336	7
TAP	15	48	1
TAP	15	48	6
TAP	15	144	2
TAP	15	144	5
HLD	15	240	3	96
TAP	15	336	7
HLD	16	48	4	96
TAP	16	144	0
TAP	16	240	3
TAP	16	336	3
TAP	17	0	4
TAP	17	48	3
TAP	17	96	4
TAP	17	144	3
TAP	17	240	1
TAP	17	240	6
TAP	17	288	1
TAP	17	288	6
HLD	18	0	0	384
TAP	18	192	6
HLD	19	0	6	384
TAP	19	192	2
HLD	20	0	2	384
TAP	20	192	4
HLD	21	0	4	192
TAP	21	192	0
BRK	22	0	0
BRK	22	0	7
TAP	22	96	0
TAP	22	144	6
TAP	22	192	0
TAP	22	240	6
TAP	22	288	0
TAP	23	0	0
TAP	23	0	7
TAP	23	96	7
TAP	23	144	1
TAP	23	192	7
TAP	23	240	1
TAP	23	288	7
TAP	24	0	2
TAP	24	0	7
TAP	24	48	2
TAP	24	48	7
TAP	24	144	2
TAP	24	144	6
TAP	24	192	2
TAP	24	192	6
TAP	24	288	2
TAP	24	288	5
TAP	24	336	2
TAP	24	336	5
TAP	25	48	2
TAP	25	48	4
TAP	25	96	2
TAP	25	96	4
STR	25	192	2
SI_	25	192	2	96	48	7
STR	25	192	3
SI_	25	192	3	96	48	6
TAP	26	0	0
TAP	26	0	5
TAP	26	48	0
TAP	26	48	5
TAP	26	144	1
TAP	26	144	5
TAP	26	192	1
TAP	26	192	5
TAP	26	288	2
TAP	26	288	5
TAP	26	336	2
TAP	26	336	5
TAP	27	48	3
TAP	27	96	3
TAP	27	192	0
TAP	27	192	7
BRK	27	336	1
BRK	27	336	6
STR	28	96	4
SI_	28	96	4	96	48	0
STR	28	96	5
SI_	28	96	5	96	48	7
TAP	28	336	2
TAP	29	48	0
TAP	29	48	1
TAP	29	96	0
TAP	29	96	1
STR	29	192	6
SI_	29	192	6	96	48	4
STR	29	192	7
SI_	29	192	7	96	48	3
TAP	30	0	2
TAP	30	0	6
TAP	30	48	2
TAP	30	48	6
TAP	30	144	1
TAP	30	144	5
TAP	30	240	0
TAP	30	240	4
STR	30	336	3
SCR	30	336	3	96	144	6
STR	30	336	7
SCR	30	336	7	96	144	2
TAP	31	288	3
TAP	31	288	7
BST	31	336	3
SI_	31	336	3	96	48	0
BST	31	336	7
SI_	31	336	7	96	48	4
TAP	32	192	1
TAP	32	288	5
TAP	32	336	5
TAP	33	48	2
TAP	33	96	2
TAP	33	192	6
TAP	33	192	7
TAP	33	288	2
TAP	33	288	3
TAP	34	0	5
TAP	34	48	4
TAP	34	96	5
TAP	34	144	4
STR	34	240	0
SCL	34	240	0	96	96	5
STR	34	240	1
SUL	34	240	1	96	96	4
TAP	35	192	3
TAP	35	240	3
BRK	35	336	1
BRK	35	336	6
STR	36	96	2
SI_	36	96	2	96	48	0
STR	36	96	3
SI_	36	96	3	96	48	7
TAP	36	336	5
TAP	37	48	6
TAP	37	48	7
TAP	37	96	6
TAP	37	96	7
STR	37	192	0
SI_	37	192	0	96	48	4
STR	37	192	1
SI_	37	192	1	96	48	3
TAP	38	0	1
TAP	38	0	5
TAP	38	48	1
TAP	38	48	5
TAP	38	144	2
TAP	38	144	6
TAP	38	240	3
TAP	38	240	7
STR	38	336	0
SCL	38	336	0	96	144	5
STR	38	336	4
SCL	38	336	4	96	144	1
TAP	39	240	0
TAP	39	240	4
BST	39	336	0
SI_	39	336	0	96	48	3
BST	39	336	4
SI_	39	336	4	96	48	7
TAP	40	192	2
TAP	40	288	6
TAP	40	336	6
TAP	41	48	1
TAP	41	96	1
TAP	41	192	4
TAP	41	192	5
TAP	41	288	0
TAP	41	288	1
TAP	42	0	6
TAP	42	48	7
TAP	42	96	6
TAP	42	144	7
STR	42	240	2
SUR	42	240	2	96	96	7
STR	42	240	3
SCR	42	240	3	96	96	6
TAP	43	144	0
TAP	43	144	1
TAP	43	192	0
TAP	43	192	1
TAP	43	288	6
TAP	43	288	7
BST	43	336	6
SXR	43	336	6	96	144	4
BST	43	336	7
SCR	43	336	7	96	144	3
TAP	44	288	0
TAP	44	288	1
STR	44	336	0
SCL	44	336	0	96	144	4
STR	44	336	1
SXL	44	336	1	96	144	3
TAP	45	288	6
TAP	45	288	7
STR	45	336	6
SXR	45	336	6	96	144	4
STR	45	336	7
SCR	45	336	7	96	144	3
TAP	46	288	0
TAP	46	288	1
STR	46	336	0
SCL	46	336	0	96	144	4
STR	46	336	1
SXL	46	336	1	96	144	3
TAP	47	288	6
TAP	47	288	7
BRK	47	336	6
BRK	47	336	7
TAP	48	48	1
TAP	48	96	0
TAP	48	144	1
HLD	48	192	0	144
TAP	48	288	1
TAP	48	336	1
TAP	49	48	5
TAP	49	96	4
TAP	49	144	5
HLD	49	192	4	144
TAP	49	288	5
TAP	49	336	5
TAP	50	48	2
TAP	50	96	3
TAP	50	144	2
HLD	50	192	3	144
TAP	50	288	2
TAP	50	336	2
TAP	51	48	6
TAP	51	96	7
TAP	51	144	6
TAP	51	192	7
TAP	51	288	1
TAP	51	288	6
BRK	51	336	1
BRK	51	336	6
TAP	52	96	0
TAP	52	192	1
TAP	52	288	2
HLD	53	0	3	384
TAP	53	96	4
TAP	53	192	5
TAP	53	288	6
HLD	54	0	7	384
TAP	54	96	0
TAP	54	192	1
TAP	54	288	2
HLD	55	0	3	384
TAP	55	96	4
TAP	55	192	5
TAP	55	288	6
STR	56	0	7
SCL	56	0	7	96	192	4
TAP	56	96	0
TAP	56	192	1
TAP	56	288	2
STR	57	0	3
SCL	57	0	3	96	192	0
TAP	57	96	4
TAP	57	192	5
TAP	57	288	6
STR	58	0	7
SCL	58	0	7	96	192	4
TAP	58	96	0
TAP	58	192	1
TAP	58	288	2
STR	59	0	3
SI_	59	0	3	96	48	7
TAP	59	192	0
TAP	59	192	6
BRK	60	0	1
BRK	60	0	6
TAP	60	96	2
TAP	60	144	3
TAP	60	192	2
TAP	60	288	0
TAP	60	288	6
TAP	60	336	0
TAP	60	336	6
TAP	61	48	5
TAP	61	96	4
TAP	61	144	5
TAP	61	192	4
TAP	61	288	1
TAP	61	288	7
TAP	61	336	1
TAP	61	336	7
TAP	62	48	2
TAP	62	96	3
TAP	62	144	2
TAP	62	192	3
TAP	62	288	0
TAP	62	288	6
TAP	62	336	0
STR	62	336	6
SI_	62	336	6	96	48	3
TAP	63	96	2
STR	63	144	2
SI_	63	144	2	96	48	7
BRK	63	336	6
TAP	64	48	0
TAP	64	48	1
TAP	64	96	0
TAP	64	96	1
TAP	64	192	2
TAP	64	240	2
TAP	64	336	1
TAP	64	336	7
TAP	65	48	6
TAP	65	48	7
TAP	65	96	6
TAP	65	96	7
TAP	65	192	5
TAP	65	240	5
STR	65	336	2
SLL	65	336	2	96	96	6
TAP	65	336	3
TAP	66	192	5
TAP	66	288	4
TAP	66	288	5
TAP	66	336	4
STR	66	336	5
SLR	66	336	5	96	96	1
TAP	67	192	2
TAP	67	240	2
BRK	67	336	1
BRK	67	336	6
TAP	68	48	2
TAP	68	96	3
TAP	68	144	2
TAP	68	192	3
TAP	68	288	0
TAP	68	288	6
TAP	68	336	1
TAP	68	336	5
TAP	69	48	5
TAP	69	96	4
TAP	69	144	5
TAP	69	192	4
TAP	69	288	1
TAP	69	288	7
TAP	69	336	2
TAP	69	336	6
TAP	70	48	2
TAP	70	96	3
TAP	70	144	2
TAP	70	192	3
TAP	70	288	0
TAP	70	288	6
STR	70	336	1
SI_	70	336	1	96	48	4
TAP	70	336	5
TAP	71	96	5
STR	71	144	5
SI_	71	144	5	96	48	0
BRK	71	336	1
TAP	72	48	2
TAP	72	48	6
TAP	72	96	2
TAP	72	96	6
TAP	72	192	0
TAP	72	240	7
TAP	72	336	0
TAP	72	336	6
TAP	73	48	1
TAP	73	48	5
TAP	73	96	1
TAP	73	96	5
TAP	73	192	4
TAP	73	240	3
TAP	73	336	4
STR	73	336	5
SLR	73	336	5	96	96	1
TAP	74	192	2
TAP	74	288	2
TAP	74	288	3
STR	74	336	2
SLL	74	336	2	96	96	6
TAP	74	336	3
TAP	75	192	5
TAP	75	288	1
TAP	75	288	6
BRK	75	336	2
BRK	75	336	5
HLD	76	48	2	240
STR	76	48	5
SUL	76	48	5	96	144	7
STR	77	0	1
SUL	77	0	1	96	192	3
HLD	77	0	5	288
HLD	78	0	1	288
STR	78	0	7
SUR	78	0	7	96	192	5
STR	79	0	3
SUR	79	0	3	96	192	1
HLD	79	0	6	288
TAP	80	0	0
HLD	80	0	2	384
TAP	80	96	7
TAP	80	192	6
TAP	80	240	6
TAP	80	288	6
HLD	81	0	5	384
TAP	81	96	0
TAP	81	192	1
TAP	81	240	1
TAP	81	288	1
TAP	82	0	2
TAP	82	96	0
TAP	82	96	7
TAP	82	192	1
TAP	82	192	6
TAP	82	288	2
TAP	82	288	5
TAP	83	0	3
TAP	83	48	4
TAP	83	96	3
TAP	83	144	4
TAP	83	192	3
TAP	83	192	4
TAP	83	240	3
TAP	83	240	4
BRK	83	336	1
BRK	83	336	6
TAP	84	96	0
TAP	84	96	7
HLD	84	192	2	192
TAP	84	288	0
HLD	85	0	5	192
TAP	85	96	7
HLD	85	192	2	192
TAP	85	288	0
HLD	86	0	5	96
HLD	86	96	6	96
HLD	86	192	7	96
HLD	86	288	0	96
HLD	87	0	1	96
HLD	87	96	2	96
TAP	87	192	3
TAP	87	240	3
TAP	87	336	2
TAP	87	336	4
TAP	88	48	1
TAP	88	96	0
TAP	88	144	1
TAP	88	192	0
TAP	88	240	1
TAP	88	336	3
TAP	88	336	5
TAP	89	48	6
TAP	89	96	7
TAP	89	144	6
TAP	89	192	7
TAP	89	240	6
TAP	89	336	2
TAP	89	336	3
TAP	90	48	1
TAP	90	96	0
TAP	90	144	2
TAP	90	192	7
TAP	90	240	3
TAP	90	336	4
TAP	90	336	5
TAP	91	48	6
TAP	91	96	7
TAP	91	144	5
TAP	91	192	0
TAP	91	240	4
BST	91	336	2
SCL	91	336	2	96	240	5
BST	91	336	3
SUL	91	336	3	96	240	4

T_REC_TAP	375
T_REC_BRK	21
T_REC_XTP	0
T_REC_HLD	34
T_REC_XHO	0
T_REC_STR	43
T_REC_BST	8
T_REC_XST	0
T_REC_TTP	0
T_REC_THO	0
T_REC_SLD	51
T_REC_ALL	532
T_NUM_TAP	418
T_NUM_BRK	29
T_NUM_HLD	34
T_NUM_SLD	51
T_NUM_ALL	532
T_JUDGE_TAP	447
T_JUDGE_HLD	166
T_JUDGE_SLD	51
T_JUDGE_ALL	664
TTM_EACHPAIRS	126
TTM_SCR_TAP	209000
TTM_SCR_BRK	75400
TTM_SCR_HLD	34000
TTM_SCR_SLD	76500
TTM_SCR_ALL	394900
TTM_SCR_S	380250
TTM_SCR_SS	392000
TTM_RAT_ACV	10073

