VERSION	0.00.00	1.03.00
FES_MODE	0
BPM_DEF	185.000	185.000	185.000	185.000
MET_DEF	4	4
RESOLUTION	384
CLK_DEF	384
COMPATIBLE_CODE	MA2

BPM	0	0	185.000
MET	0	0	4	4

TAP	2	0	0
TAP	2	192	0
TAP	3	0	1
TAP	3	192	1
TAP	4	0	2
TAP	4	192	2
TAP	5	0	2
TAP	5	0	3
TAP	5	192	2
TAP	5	192	3
TAP	6	0	7
TAP	6	192	7
TAP	7	0	6
TAP	7	192	6
TAP	8	0	5
TAP	8	192	5
TAP	9	0	4
TAP	9	0	5
TAP	9	192	4
TAP	9	192	5
TAP	10	0	5
TAP	10	96	4
TAP	10	192	4
TAP	10	192	5
TAP	11	0	2
TAP	11	96	3
TAP	11	192	2
TAP	11	192	3
TAP	12	0	5
TAP	12	96	4
TAP	12	192	4
TAP	12	192	5
TAP	13	0	2
TAP	13	96	3
TAP	13	192	2
TAP	13	192	3
TAP	14	0	5
TAP	14	96	5
TAP	14	192	6
TAP	14	288	6
TAP	15	0	1
TAP	15	0	7
TAP	15	96	1
TAP	15	96	7
TAP	15	192	1
TAP	15	192	7
TAP	16	0	2
TAP	16	96	2
TAP	16	192	1
TAP	16	288	1
TAP	17	0	0
TAP	17	0	6
TAP	17	96	0
TAP	17	96	6
TAP	17	192	0
TAP	17	192	6
STR	18	0	5
SCR	18	0	5	96	480	2
STR	20	0	2
SUR	20	0	2	96	480	5
TAP	22	0	4
TAP	22	96	3
TAP	22	192	2
TAP	22	192	5
TAP	23	0	3
TAP	23	96	4
TAP	23	192	2
TAP	23	192	5
TAP	24	0	5
TAP	24	96	4
TAP	24	192	3
TAP	24	192	6
TAP	24	288	3
TAP	24	288	6
TAP	25	0	2
TAP	25	96	3
TAP	25	192	1
TAP	25	192	4
TAP	25	288	1
TAP	25	288	4
TAP	26	0	3
TAP	26	96	4
TAP	26	192	2
TAP	26	192	5
TAP	26	288	2
TAP	26	288	5
TAP	27	0	1
TAP	27	0	6
TAP	27	96	1
TAP	27	96	6
STR	27	192	0
SCR	27	192	0	96	192	2
STR	27	192	7
SCL	27	192	7	96	192	5
TAP	28	192	3
TAP	28	192	4
TAP	29	0	3
TAP	29	96	4
TAP	29	192	2
TAP	29	192	5
TAP	30	0	2
TAP	30	0	3
TAP	30	96	3
TAP	30	96	4
TAP	30	192	4
TAP	30	288	3
BST	31	0	2
SI_	31	0	2	96	192	7
TAP	32	0	5
TAP	32	96	4
TAP	32	192	3
TAP	32	192	6
TAP	33	0	2
TAP	33	96	3
TAP	33	192	1
TAP	33	192	4
STR	34	0	3
SI_	34	0	3	96	192	0
STR	34	0	4
SI_	34	0	4	96	192	7
TAP	35	0	0
TAP	35	0	7
TAP	35	192	1
TAP	35	192	6
TAP	36	0	0
TAP	36	96	0
TAP	36	192	1
TAP	36	192	7
TAP	37	0	7
TAP	37	96	7
TAP	37	192	0
TAP	37	192	6
TAP	38	0	0
TAP	38	0	1
TAP	38	96	0
TAP	38	96	1
TAP	38	192	2
TAP	38	192	7
TAP	39	0	6
TAP	39	0	7
TAP	39	96	6
TAP	39	96	7
TAP	39	192	0
TAP	39	192	5
TAP	40	0	1
TAP	40	96	0
TAP	40	192	2
TAP	40	192	7
TAP	41	0	6
TAP	41	96	7
TAP	41	192	0
TAP	41	192	5
TAP	42	0	1
TAP	42	96	0
TAP	42	192	2
TAP	42	192	7
TAP	43	0	6
TAP	43	96	7
TAP	43	192	0
TAP	43	192	5
STR	43	288	0
SCR	43	288	0	96	240	3
TAP	43	288	5
TAP	45	0	4
TAP	45	96	5
TAP	45	192	6
STR	45	288	7
SCL	45	288	7	96	240	4
TAP	47	0	3
TAP	47	96	3
TAP	47	192	2
STR	47	288	2
SCR	47	288	2	96	240	5
TAP	49	0	6
TAP	49	96	6
TAP	49	192	5
STR	49	288	5
SCL	49	288	5	96	240	2
TAP	51	0	3
TAP	51	96	4
TAP	51	192	2
TAP	51	192	5
HLD	52	0	2	192
TAP	52	0	5
HLD	52	192	3	192
HLD	53	0	4	192
TAP	53	192	5
HLD	54	0	5	192
HLD	54	192	4	192
HLD	55	0	3	192
TAP	55	192	2
HLD	56	0	2	192
TAP	56	96	3
TAP	56	192	3
HLD	57	0	5	192
TAP	57	96	4
TAP	57	192	4
TAP	58	0	4
TAP	58	96	3
TAP	58	96	5
TAP	58	192	3
TAP	58	288	2
TAP	58	288	4
TAP	59	0	3
TAP	59	0	4
TAP	59	96	3
TAP	59	96	4
TAP	59	192	2
TAP	59	192	5
TAP	60	0	6
TAP	60	96	7
TAP	60	192	0
TAP	60	192	5
TAP	61	0	0
TAP	61	96	7
TAP	61	192	1
TAP	61	192	6
TAP	62	0	1
TAP	62	96	0
TAP	62	192	2
TAP	62	192	7
TAP	63	0	0
TAP	63	96	7
TAP	63	192	1
TAP	63	192	6
HLD	64	0	0	192
TAP	64	96	7
TAP	64	192	7
HLD	65	0	7	192
TAP	65	96	0
TAP	65	192	0
HLD	66	0	1	192
TAP	66	96	0
TAP	66	192	0
HLD	67	0	6	192
TAP	67	96	7
TAP	67	192	7
TAP	68	0	0
TAP	68	96	7
TAP	68	192	1
TAP	68	192	6
TAP	69	0	7
TAP	69	96	0
TAP	69	192	1
TAP	69	192	6
TAP	70	0	1
TAP	70	96	0
TAP	70	192	2
TAP	70	192	7
TAP	71	0	6
TAP	71	96	7
TAP	71	192	0
TAP	71	192	5
HLD	72	0	0	192
TAP	72	96	7
TAP	72	192	7
HLD	73	0	7	192
TAP	73	96	0
TAP	73	192	0
HLD	74	0	1	192
TAP	74	96	0
TAP	74	192	0
HLD	75	0	6	192
TAP	75	96	7
TAP	75	192	7
TAP	76	0	0
TAP	76	96	1
TAP	76	192	2
TAP	76	288	2
TAP	76	288	3
TAP	77	0	7
TAP	77	96	6
TAP	77	192	5
TAP	77	288	4
TAP	77	288	5
TAP	78	0	1
TAP	78	96	2
TAP	78	192	3
TAP	78	288	3
TAP	78	288	4
TAP	79	0	6
TAP	79	96	5
TAP	79	192	4
TAP	79	288	3
TAP	79	288	4
TAP	80	0	3
TAP	80	96	2
TAP	80	192	1
TAP	80	288	0
TAP	80	288	1
TAP	81	0	4
TAP	81	96	5
TAP	81	192	6
TAP	81	288	6
TAP	81	288	7
TAP	82	0	2
TAP	82	96	1
TAP	82	192	0
TAP	82	288	0
TAP	82	288	7
TAP	83	0	5
TAP	83	96	6
TAP	83	192	7
TAP	83	288	0
TAP	83	288	7
TAP	84	0	6
TAP	84	96	7
TAP	84	192	0
TAP	84	192	5
TAP	84	288	0
TAP	84	288	5
TAP	85	0	1
TAP	85	96	0
TAP	85	192	2
TAP	85	192	7
TAP	85	288	2
TAP	85	288	7
TAP	86	0	5
TAP	86	96	4
TAP	86	192	3
TAP	86	192	6
TAP	86	288	3
TAP	86	288	6
TAP	87	0	2
TAP	87	96	3
TAP	87	192	1
TAP	87	192	4
TAP	87	288	1
TAP	87	288	4
TAP	88	0	1
TAP	88	96	0
TAP	88	192	2
TAP	88	192	7
TAP	88	288	2
TAP	88	288	7
TAP	89	0	7
TAP	89	96	0
TAP	89	192	1
TAP	89	192	6
TAP	89	288	1
TAP	89	288	6
TAP	90	0	2
TAP	90	96	3
TAP	90	192	1
TAP	90	192	4
TAP	90	288	1
TAP	90	288	4
TAP	91	0	5
TAP	91	96	6
TAP	91	192	7
TAP	91	288	0
TAP	92	0	1
TAP	92	0	6

T_REC_TAP	315
T_REC_BRK	0
T_REC_XTP	0
T_REC_HLD	16
T_REC_XHO	0
T_REC_STR	10
T_REC_BST	1
T_REC_XST	0
T_REC_TTP	0
T_REC_THO	0
T_REC_SLD	11
T_REC_ALL	353
T_NUM_TAP	325
T_NUM_BRK	1
T_NUM_HLD	16
T_NUM_SLD	11
T_NUM_ALL	353
T_JUDGE_TAP	326
T_JUDGE_HLD	64
T_JUDGE_SLD	11
T_JUDGE_ALL	401
TTM_EACHPAIRS	85
TTM_SCR_TAP	162500
TTM_SCR_BRK	2600
TTM_SCR_HLD	16000
TTM_SCR_SLD	16500
TTM_SCR_ALL	197600
TTM_SCR_S	191600
TTM_SCR_SS	197500
TTM_RAT_ACV	10005

