VERSION	0.00.00	1.03.00
FES_MODE	0
BPM_DEF	185.000	185.000	185.000	185.000
MET_DEF	4	4
RESOLUTION	384
CLK_DEF	384
COMPATIBLE_CODE	MA2

BPM	0	0	185.000
MET	0	0	4	4

TAP	2	0	0
TAP	3	0	0
TAP	4	0	7
TAP	5	0	7
TAP	6	0	0
TAP	7	0	0
TAP	7	0	1
TAP	8	0	7
TAP	9	0	6
TAP	9	0	7
TAP	10	0	0
TAP	10	192	0
TAP	11	0	1
TAP	12	0	7
TAP	12	192	7
TAP	13	0	6
TAP	14	0	0
TAP	14	192	0
TAP	15	0	0
TAP	15	0	1
TAP	16	0	7
TAP	16	192	7
TAP	17	0	6
TAP	17	0	7
STR	18	0	0
SI_	18	0	0	96	288	3
STR	20	0	4
SI_	20	0	4	96	288	7
TAP	22	0	0
TAP	22	192	0
TAP	23	0	1
TAP	23	192	1
TAP	24	0	2
TAP	24	192	2
TAP	25	0	3
TAP	25	0	4
HLD	26	0	2	384
HLD	26	0	5	384
TAP	28	0	6
TAP	28	96	6
TAP	28	192	6
TAP	29	0	5
TAP	29	96	5
TAP	29	192	5
TAP	30	0	4
TAP	30	96	4
TAP	30	192	4
TAP	31	0	3
TAP	31	96	4
TAP	31	192	3
TAP	32	0	1
TAP	32	96	1
TAP	32	192	1
TAP	33	0	2
TAP	33	96	2
TAP	33	192	2
TAP	34	0	3
TAP	34	96	3
TAP	34	192	3
TAP	35	0	4
TAP	35	96	3
BRK	35	192	4
TAP	36	0	5
TAP	36	96	5
TAP	36	192	5
TAP	37	0	6
TAP	37	96	6
TAP	37	192	6
TAP	38	0	7
TAP	38	96	7
TAP	38	192	7
TAP	39	0	0
TAP	39	96	7
TAP	39	192	0
TAP	40	0	2
TAP	40	96	2
TAP	40	192	2
TAP	41	0	1
TAP	41	96	1
TAP	41	192	1
TAP	42	0	0
TAP	42	96	0
TAP	42	192	0
TAP	43	0	7
TAP	43	96	0
BRK	43	192	7
STR	44	0	7
SI_	44	0	7	96	288	3
STR	46	0	0
SI_	46	0	0	96	288	4
TAP	48	0	7
TAP	48	192	7
TAP	49	0	6
TAP	49	192	6
TAP	50	0	5
TAP	50	192	5
TAP	51	0	4
TAP	51	192	4
HLD	52	0	3	384
HLD	54	0	4	384
HLD	56	0	4	384
HLD	56	0	5	384
HLD	58	0	2	384
HLD	58	0	3	384
TAP	60	0	0
TAP	60	96	0
TAP	60	192	1
TAP	61	0	1
TAP	61	96	1
TAP	61	192	0
TAP	61	192	1
TAP	62	0	2
TAP	62	96	2
TAP	62	192	3
TAP	63	0	3
TAP	63	96	4
BRK	63	192	3
TAP	64	0	4
TAP	64	96	4
TAP	64	192	5
TAP	65	0	5
TAP	65	96	5
TAP	65	192	4
TAP	65	192	5
TAP	66	0	6
TAP	66	96	6
TAP	66	192	7
TAP	67	0	0
TAP	67	0	7
TAP	67	96	0
TAP	67	96	7
TAP	67	192	0
TAP	67	192	7
TAP	68	0	7
TAP	68	96	7
TAP	68	192	6
TAP	69	0	6
TAP	69	96	6
TAP	69	192	6
TAP	69	192	7
TAP	70	0	5
TAP	70	96	5
TAP	70	192	4
TAP	71	0	4
TAP	71	96	3
BRK	71	192	4
TAP	72	0	3
TAP	72	96	3
TAP	72	192	2
TAP	73	0	2
TAP	73	96	2
TAP	73	192	2
TAP	73	192	3
TAP	74	0	1
TAP	74	96	1
TAP	74	192	0
TAP	75	0	0
TAP	75	0	7
TAP	75	96	0
TAP	75	96	7
TAP	75	192	0
TAP	75	192	7
STR	76	0	0
SI_	76	0	0	96	288	3
STR	76	0	7
SI_	76	0	7	96	288	4
STR	78	0	3
SI_	78	0	3	96	288	0
STR	78	0	4
SI_	78	0	4	96	288	7
TAP	80	0	0
TAP	80	192	0
TAP	81	0	1
TAP	81	192	1
TAP	82	0	2
TAP	82	192	2
HLD	83	0	3	192
HLD	83	0	4	192
TAP	84	0	4
TAP	84	192	4
TAP	85	0	5
TAP	85	192	5
TAP	86	0	6
TAP	86	192	6
TAP	87	0	7
TAP	87	192	0
TAP	87	192	7
TAP	88	0	6
TAP	88	192	6
TAP	89	0	5
TAP	89	192	5
TAP	90	0	4
TAP	90	192	4
HLD	91	0	2	336
HLD	91	0	5	336

T_REC_TAP	163
T_REC_BRK	4
T_REC_XTP	0
T_REC_HLD	12
T_REC_XHO	0
T_REC_STR	8
T_REC_BST	0
T_REC_XST	0
T_REC_TTP	0
T_REC_THO	0
T_REC_SLD	8
T_REC_ALL	195
T_NUM_TAP	171
T_NUM_BRK	4
T_NUM_HLD	12
T_NUM_SLD	8
T_NUM_ALL	195
T_JUDGE_TAP	175
T_JUDGE_HLD	86
T_JUDGE_SLD	8
T_JUDGE_ALL	269
TTM_EACHPAIRS	23
TTM_SCR_TAP	85500
TTM_SCR_BRK	10400
TTM_SCR_HLD	12000
TTM_SCR_SLD	12000
TTM_SCR_ALL	119900
TTM_SCR_S	115950
TTM_SCR_SS	119500
TTM_RAT_ACV	10033

