VERSION	0.00.00	1.03.00
FES_MODE	0
BPM_DEF	202.000	202.000	202.000	202.000
MET_DEF	4	4
RESOLUTION	384
CLK_DEF	384
COMPATIBLE_CODE	MA2

BPM	0	0	202.000
MET	0	0	4	4

TAP	1	192	4
TAP	1	288	3
HLD	2	0	2	192
TAP	2	192	3
TAP	2	288	4
HLD	3	0	5	192
TAP	3	192	3
TAP	3	288	2
HLD	4	0	1	192
TAP	4	192	4
TAP	4	288	5
HLD	5	0	6	192
TAP	5	192	0
TAP	5	288	1
TAP	6	0	2
TAP	6	96	2
TAP	6	192	5
TAP	6	288	5
TAP	7	0	2
TAP	7	48	3
TAP	7	96	4
TAP	7	144	3
TAP	7	192	5
TAP	7	240	4
TAP	7	288	3
TAP	7	336	4
STR	8	0	1
SI_	8	0	1	96	48	5
TAP	8	0	6
TAP	8	192	1
STR	8	192	6
SI_	8	192	6	96	48	2
STR	9	0	0
SI_	9	0	0	96	48	4
STR	9	96	7
SI_	9	96	7	96	48	3
TAP	9	192	0
BST	9	288	2
SI_	9	288	2	96	48	7
BRK	9	288	5
STR	10	0	5
SI_	10	0	5	96	48	0
STR	10	96	3
SI_	10	96	3	96	48	6
STR	10	192	4
SI_	10	192	4	96	48	1
STR	10	288	2
SI_	10	288	2	96	48	7
STR	11	0	5
SI_	11	0	5	96	48	0
TAP	11	96	3
BRK	11	192	2
BRK	11	192	3
BRK	11	288	0
BST	11	288	5
SI_	11	288	5	96	48	0
STR	12	0	2
SI_	12	0	2	96	48	7
STR	12	96	4
SI_	12	96	4	96	48	1
STR	12	192	3
SI_	12	192	3	96	48	6
STR	12	288	5
SI_	12	288	5	96	48	0
STR	13	0	2
SI_	13	0	2	96	48	7
TAP	13	96	4
BRK	13	192	4
BRK	13	192	5
BST	13	288	2
SI_	13	288	2	96	48	7
BRK	13	288	7
STR	14	0	5
SI_	14	0	5	96	48	0
STR	14	96	3
SI_	14	96	3	96	48	6
STR	14	192	4
SI_	14	192	4	96	48	1
STR	14	288	2
SI_	14	288	2	96	48	7
STR	15	0	5
SI_	15	0	5	96	48	0
TAP	15	96	3
BRK	15	192	2
BRK	15	192	3
BST	15	288	0
SI_	15	288	0	96	48	5
BRK	15	288	5
STR	16	0	7
SI_	16	0	7	96	48	2
STR	16	96	1
SI_	16	96	1	96	48	4
STR	16	192	6
SI_	16	192	6	96	48	3
STR	16	288	0
SCR	16	288	0	96	192	7
BRK	17	0	7
TAP	17	288	4
TAP	17	288	5
TAP	18	0	1
TAP	18	0	7
TAP	18	96	2
TAP	18	96	3
TAP	18	192	0
TAP	18	192	6
STR	18	288	3
SXR	18	288	3	96	144	2
STR	18	288	4
SXL	18	288	4	96	144	5
TAP	19	240	3
TAP	19	240	4
TAP	19	288	3
TAP	19	288	4
STR	20	0	1
SI_	20	0	1	96	48	4
TAP	20	48	4
TAP	20	96	1
STR	20	144	6
SI_	20	144	6	96	48	3
TAP	20	192	3
TAP	20	240	6
STR	20	288	0
SI_	20	288	0	96	48	4
TAP	20	336	4
TAP	21	0	0
STR	21	48	7
SI_	21	48	7	96	48	3
TAP	21	96	3
TAP	21	144	7
STR	21	192	0
SF_	21	192	0	96	48	4
TAP	21	288	0
TAP	22	0	2
TAP	22	0	4
TAP	22	96	3
TAP	22	96	6
TAP	22	192	0
TAP	22	192	4
STR	22	288	1
SXL	22	288	1	96	144	2
STR	22	288	5
SXL	22	288	5	96	144	6
TAP	23	240	3
TAP	23	240	4
TAP	23	288	3
TAP	23	288	4
STR	24	0	7
SI_	24	0	7	96	48	3
TAP	24	48	3
TAP	24	96	7
STR	24	144	0
SI_	24	144	0	96	48	4
TAP	24	192	4
TAP	24	240	0
STR	24	288	7
SI_	24	288	7	96	48	2
TAP	24	336	2
TAP	25	0	7
STR	25	48	0
SI_	25	48	0	96	48	5
TAP	25	96	5
TAP	25	144	0
STR	25	192	7
SF_	25	192	7	96	48	3
TAP	25	288	7
STR	26	0	3
SXR	26	0	3	96	144	0
TAP	26	144	7
TAP	26	192	7
BRK	26	288	1
BRK	26	288	6
STR	27	0	4
SI_	27	0	4	96	96	7
TAP	27	144	0
TAP	27	192	0
BRK	27	288	1
BST	27	288	6
SI_	27	288	6	96	96	3
STR	28	0	3
SI_	28	0	3	96	96	0
STR	28	96	0
SI_	28	96	0	96	96	4
STR	28	192	4
SI_	28	192	4	96	96	7
STR	28	288	7
SCL	28	288	7	96	192	0
STR	29	288	2
SSL	29	288	2	96	192	6
TAP	29	288	5
TAP	30	0	5
TAP	30	144	7
TAP	30	192	7
BRK	30	288	2
BRK	30	288	7
HLD	31	0	3	96
TAP	31	144	3
TAP	31	192	3
BRK	31	288	0
BRK	31	288	5
TAP	32	0	1
TAP	32	0	4
TAP	32	96	2
STR	32	96	3
SXL	32	96	3	96	96	3
SXR	32	96	3	96	96	3
HLD	33	0	5	96
STR	33	0	7
SUL	33	0	7	96	48	2
TAP	33	192	0
TAP	33	192	1
TAP	33	288	3
TAP	33	288	4
BRK	34	0	0
BRK	34	0	7
BRK	34	48	0
BRK	34	48	7
BRK	34	96	1
BRK	34	96	6
TAP	34	192	3
TAP	34	192	4
STR	34	288	1
SI_	34	288	1	96	48	4
TAP	34	288	6
STR	35	0	5
SI_	35	0	5	96	48	0
STR	35	96	2
SI_	35	96	2	96	48	7
TAP	35	192	6
TAP	35	240	6
STR	35	288	7
SCL	35	288	7	96	48	4
SCR	35	288	7	96	48	2
TAP	35	336	7
BRK	36	96	1
BRK	36	96	5
TAP	36	192	2
TAP	36	192	3
TAP	36	288	1
STR	36	288	6
SI_	36	288	6	96	48	3
STR	37	0	2
SI_	37	0	2	96	48	7
STR	37	96	5
SI_	37	96	5	96	48	0
TAP	37	192	1
TAP	37	240	1
STR	37	288	0
SCL	37	288	0	96	48	5
SCR	37	288	0	96	48	3
TAP	37	336	0
BRK	38	96	2
BRK	38	96	6
TAP	38	192	4
TAP	38	192	6
TAP	38	288	1
TAP	38	288	3
STR	39	0	6
SCL	39	0	6	96	48	3
STR	39	0	7
SUL	39	0	7	96	48	3
STR	39	192	0
SUR	39	192	0	96	48	4
STR	39	192	1
SCR	39	192	1	96	48	4
STR	40	0	0
SUL	40	0	0	96	48	3
STR	40	0	6
SCL	40	0	6	96	48	3
STR	40	192	1
SCR	40	192	1	96	48	4
STR	40	192	7
SUR	40	192	7	96	48	4
STR	41	0	0
SCR	41	0	0	96	96	4
STR	41	96	4
SCR	41	96	4	96	96	0
STR	41	192	0
SCR	41	192	0	96	96	4
STR	41	288	4
SCR	41	288	4	96	96	0
BRK	42	0	0
BRK	42	96	4
TAP	42	192	0
TAP	42	192	7
TAP	42	288	2
STR	42	288	5
SI_	42	288	5	96	48	0
STR	43	0	1
SI_	43	0	1	96	48	4
STR	43	96	6
SI_	43	96	6	96	48	3
TAP	43	192	1
TAP	43	240	1
STR	43	288	0
SCL	43	288	0	96	48	5
SCR	43	288	0	96	48	3
TAP	43	336	0
BRK	44	96	2
BRK	44	96	6
TAP	44	192	3
TAP	44	192	4
TAP	44	240	3
TAP	44	240	4
STR	44	288	2
SI_	44	288	2	96	48	7
TAP	44	288	5
STR	45	0	6
SI_	45	0	6	96	48	3
STR	45	96	1
SI_	45	96	1	96	48	4
TAP	45	192	6
TAP	45	240	6
STR	45	288	7
SCL	45	288	7	96	48	4
SCR	45	288	7	96	48	2
TAP	45	336	7
BRK	46	96	1
BRK	46	96	5
HLD	46	192	0	96
HLD	46	288	1	96
STR	47	0	2
SI_	47	0	2	96	48	6
STR	47	96	5
SI_	47	96	5	96	48	1
STR	47	192	3
SI_	47	192	3	96	48	7
TAP	48	0	1
TAP	48	0	5
TAP	48	48	2
TAP	48	48	6
STR	48	96	1
SI_	48	96	1	96	144	5
STR	48	96	5
SLR	48	96	5	96	144	1
TAP	48	144	2
TAP	48	144	6
BRK	49	0	1
BST	49	0	6
SCL	49	0	6	96	96	2
STR	49	96	2
SUR	49	96	2	96	96	7
STR	49	192	7
SCR	49	192	7	96	96	3
STR	49	288	3
SUL	49	288	3	96	96	6
STR	50	0	6
SXR	50	0	6	96	192	0
TAP	50	96	0
STR	51	0	1
SCR	51	0	1	96	96	5
TAP	51	0	6
STR	51	96	5
SUL	51	96	5	96	96	0
STR	51	192	0
SCL	51	192	0	96	96	4
STR	51	288	4
SUR	51	288	4	96	96	1
STR	52	0	1
SXL	52	0	1	96	192	7
TAP	52	96	5
TAP	53	0	1
TAP	53	0	4
TAP	53	48	2
TAP	53	96	3
TAP	53	144	0
TAP	53	144	5
TAP	53	192	6
TAP	53	240	7
TAP	53	288	3
TAP	53	288	6
TAP	53	336	5
TAP	54	0	4
TAP	54	48	2
TAP	54	48	7
TAP	54	96	1
TAP	54	144	0
TAP	54	192	0
TAP	54	216	1
TAP	54	240	2
TAP	54	264	3
TAP	54	288	7
TAP	54	312	6
TAP	54	336	5
TAP	54	360	4
STR	55	0	3
SI_	55	0	3	96	48	1
STR	55	96	4
SI_	55	96	4	96	48	6
STR	55	192	3
SI_	55	192	3	96	48	0
STR	55	288	4
SI_	55	288	4	96	48	7
STR	56	0	3
SI_	56	0	3	96	48	7
STR	56	96	4
SI_	56	96	4	96	48	0
STR	56	192	3
SI_	56	192	3	96	48	1
STR	56	288	4
SI_	56	288	4	96	48	6
STR	57	0	0
SI_	57	0	0	96	48	4
TAP	57	48	0
STR	57	96	7
SI_	57	96	7	96	48	3
TAP	57	144	7
STR	57	192	0
SV_	57	192	0	96	48	5
TAP	57	240	0
STR	57	288	7
SV_	57	288	7	96	48	2
TAP	57	336	7
STR	58	0	0
SUR	58	0	0	96	48	5
TAP	58	48	0
STR	58	96	7
SUL	58	96	7	96	48	2
TAP	58	144	7
STR	58	192	0
SI_	58	192	0	96	48	4
TAP	58	240	0
BRK	58	288	7
STR	59	0	4
SCR	59	0	4	96	192	7
SUL	59	0	4	96	192	7
STR	60	0	3
SI_	60	0	3	96	192	0
TAP	61	0	3
TAP	61	0	4
TAP	61	96	2
TAP	61	96	5
STR	61	192	1
SSL	61	192	1	96	288	5
STR	61	192	6
SSR	61	192	6	96	288	2
TAP	62	288	0
TAP	62	288	7
STR	63	0	1
SCR	63	0	1	96	240	6
STR	63	0	6
SV_	63	0	6	96	240	1
STR	64	0	1
SUR	64	0	1	96	240	0
STR	64	0	4
SUL	64	0	4	96	240	5
STR	65	0	1
SCL	65	0	1	96	96	6
STR	65	96	6
SI_	65	96	6	96	96	2
STR	65	192	2
SCR	65	192	2	96	96	5
TAP	65	288	5
STR	66	0	6
SXL	66	0	6	96	96	6
STR	66	96	6
SCL	66	96	6	96	96	3
STR	67	0	1
SXR	67	0	1	96	96	1
STR	67	96	1
SCR	67	96	1	96	96	4
STR	68	0	7
SI_	68	0	7	96	48	2
SI_	68	0	7	96	48	4
STR	68	192	5
SI_	68	192	5	96	48	1
BRK	69	0	0
TAP	69	96	4
TAP	69	96	5
BRK	69	192	1
TAP	69	288	4
TAP	69	288	5
BRK	70	0	3
BRK	70	0	4
BRK	70	48	2
BRK	70	48	5
BRK	70	96	1
BRK	70	96	6
TAP	70	192	2
TAP	70	192	3
TAP	70	288	0
STR	70	288	5
SCR	70	288	5	96	48	0
STR	71	0	3
SI_	71	0	3	96	48	7
STR	71	96	5
SCL	71	96	5	96	48	2
TAP	71	192	1
TAP	71	240	1
STR	71	288	0
SCL	71	288	0	96	48	5
SCR	71	288	0	96	48	3
TAP	71	336	0
BRK	72	96	2
BRK	72	96	6
TAP	72	192	4
TAP	72	192	5
STR	72	288	2
SCL	72	288	2	96	48	7
TAP	72	288	7
STR	73	0	4
SI_	73	0	4	96	48	0
STR	73	96	2
SCR	73	96	2	96	48	5
TAP	73	192	6
TAP	73	240	6
STR	73	288	7
SCL	73	288	7	96	48	4
SCR	73	288	7	96	48	2
TAP	73	336	7
BRK	74	96	1
BRK	74	96	5
TAP	74	192	1
TAP	74	192	3
TAP	74	288	4
TAP	74	288	6
STR	75	0	4
SUR	75	0	4	96	48	0
STR	75	0	5
SCR	75	0	5	96	48	0
STR	75	192	2
SCL	75	192	2	96	48	7
STR	75	192	3
SUL	75	192	3	96	48	7
STR	76	0	3
SUR	76	0	3	96	48	0
STR	76	0	5
SCR	76	0	5	96	48	0
STR	76	192	2
SCL	76	192	2	96	48	7
STR	76	192	4
SUL	76	192	4	96	48	7
STR	77	0	3
SCL	77	0	3	96	96	7
STR	77	96	7
SCL	77	96	7	96	96	3
STR	77	192	3
SCL	77	192	3	96	96	7
STR	77	288	7
SCL	77	288	7	96	96	3
BRK	78	0	3
BRK	78	96	7
TAP	78	192	0
TAP	78	192	7
STR	78	288	2
SCL	78	288	2	96	48	7
TAP	78	288	5
STR	79	0	6
SCL	79	0	6	96	48	3
STR	79	96	0
SUR	79	96	0	96	48	4
TAP	79	192	6
TAP	79	240	6
STR	79	288	7
SCL	79	288	7	96	48	4
SCR	79	288	7	96	48	2
TAP	79	336	7
BRK	80	96	1
BRK	80	96	5
TAP	80	192	3
TAP	80	192	4
TAP	80	240	3
TAP	80	240	4
TAP	80	288	2
STR	80	288	5
SCR	80	288	5	96	48	0
STR	81	0	1
SCR	81	0	1	96	48	4
STR	81	96	7
SUL	81	96	7	96	48	3
TAP	81	192	1
TAP	81	240	1
STR	81	288	0
SCL	81	288	0	96	48	5
SCR	81	288	0	96	48	3
TAP	81	336	0
BRK	82	96	2
BRK	82	96	6
HLD	82	192	0	96
HLD	82	288	1	96
STR	83	0	2
SI_	83	0	2	96	48	6
STR	83	96	5
SI_	83	96	5	96	48	1
STR	83	192	3
SI_	83	192	3	96	48	7
STR	83	288	5
SSR	83	288	5	96	144	1
HLD	84	0	0	192
TAP	84	192	7
TAP	84	288	3
TAP	84	288	4
STR	85	0	2
SUR	85	0	2	96	48	7
STR	85	0	3
SCR	85	0	3	96	48	6
STR	85	192	4
SCL	85	192	4	96	48	1
STR	85	192	5
SUL	85	192	5	96	48	0
STR	86	0	1
SCL	86	0	1	96	48	6
STR	86	0	2
SUL	86	0	2	96	48	5
STR	86	192	5
SUR	86	192	5	96	48	2
STR	86	192	6
SCR	86	192	6	96	48	1
STR	87	0	2
SCL	87	0	2	96	48	7
STR	87	0	3
SUL	87	0	3	96	48	6
STR	87	192	4
SUR	87	192	4	96	48	1
STR	87	192	5
SCR	87	192	5	96	48	0
STR	88	0	3
SCL	88	0	3	96	48	0
STR	88	0	4
SUL	88	0	4	96	48	7
STR	88	192	3
SUR	88	192	3	96	48	0
STR	88	192	4
SCR	88	192	4	96	48	7
STR	89	0	1
SI_	89	0	1	96	48	6
TAP	89	96	4
STR	89	192	5
SI_	89	192	5	96	48	2
TAP	89	288	0
STR	90	0	1
SCL	90	0	1	96	48	6
STR	90	96	5
SUR	90	96	5	96	48	2
TAP	90	192	3
TAP	90	288	3
TAP	90	288	4
BRK	91	0	1
BRK	91	0	6
BRK	91	48	1
BRK	91	48	6
STR	91	192	2
SUR	91	192	2	96	144	7
STR	91	192	5
SUL	91	192	5	96	144	0
BRK	92	192	0
BRK	92	192	7
BRK	92	240	3
BRK	92	240	4
BRK	92	288	2
BST	92	288	5
SCR	92	288	5	96	48	0
STR	93	0	2
SCL	93	0	2	96	48	7
STR	93	96	4
SUR	93	96	4	96	48	1
STR	93	192	3
SUL	93	192	3	96	48	6
STR	93	288	5
SCR	93	288	5	96	48	0
STR	94	0	2
SCL	94	0	2	96	48	7
TAP	94	96	4
BRK	94	192	4
BRK	94	192	5
BST	94	288	2
SCL	94	288	2	96	48	7
BRK	94	288	7
STR	95	0	5
SCR	95	0	5	96	48	0
STR	95	96	3
SUL	95	96	3	96	48	6
STR	95	192	4
SUR	95	192	4	96	48	1
STR	95	288	2
SCL	95	288	2	96	48	7
STR	96	0	5
SCR	96	0	5	96	48	0
TAP	96	96	3
BRK	96	192	2
BRK	96	192	3
BRK	96	288	0
BST	96	288	5
SCR	96	288	5	96	48	0
STR	97	0	2
SCL	97	0	2	96	48	7
STR	97	96	4
SUR	97	96	4	96	48	1
STR	97	192	3
SUL	97	192	3	96	48	6
STR	97	288	5
SCR	97	288	5	96	48	0
STR	98	0	2
SCL	98	0	2	96	48	7
TAP	98	96	4
BRK	98	192	4
BRK	98	192	5
BST	98	288	2
SI_	98	288	2	96	48	7
BRK	98	288	7
STR	99	0	5
SI_	99	0	5	96	48	0
STR	99	96	3
SI_	99	96	3	96	48	7
STR	99	192	4
SI_	99	192	4	96	48	0
STR	99	288	2
SI_	99	288	2	96	48	6
STR	100	0	5
SI_	100	0	5	96	48	1
STR	100	96	2
SI_	100	96	2	96	48	7
STR	100	192	5
SI_	100	192	5	96	48	0
STR	100	288	3
SI_	100	288	3	96	48	7
STR	101	0	4
SI_	101	0	4	96	48	0
STR	101	96	1
SI_	101	96	1	96	48	5
STR	101	192	6
SI_	101	192	6	96	48	2
TAP	101	288	1
BRK	102	0	0
BRK	102	0	7
BRK	102	48	0
BRK	102	48	7
BRK	102	96	0
BRK	102	96	7
TAP	102	192	3
TAP	102	192	4
TAP	102	288	0
TAP	102	288	7
BST	103	0	1
SCL	103	0	1	96	1248	2
HLD	103	0	6	1344

T_REC_TAP	212
T_REC_BRK	78
T_REC_XTP	0
T_REC_HLD	12
T_REC_XHO	0
T_REC_STR	200
T_REC_BST	11
T_REC_XST	0
T_REC_TTP	0
T_REC_THO	0
T_REC_SLD	222
T_REC_ALL	735
T_NUM_TAP	412
T_NUM_BRK	89
T_NUM_HLD	12
T_NUM_SLD	222
T_NUM_ALL	735
T_JUDGE_TAP	501
T_JUDGE_HLD	60
T_JUDGE_SLD	222
T_JUDGE_ALL	783
TTM_EACHPAIRS	122
TTM_SCR_TAP	206000
TTM_SCR_BRK	231400
TTM_SCR_HLD	12000
TTM_SCR_SLD	333000
TTM_SCR_ALL	782400
TTM_SCR_S	750300
TTM_SCR_SS	773500
TTM_RAT_ACV	10115

