VERSION	0.00.00	1.03.00
FES_MODE	0
BPM_DEF	202.000	202.000	202.000	202.000
MET_DEF	4	4
RESOLUTION	384
CLK_DEF	384
COMPATIBLE_CODE	MA2

BPM	0	0	202.000
MET	0	0	4	4

STR	2	0	3
SCL	2	0	3	96	192	0
STR	3	0	4
SCR	3	0	4	96	192	7
STR	4	0	2
SCL	4	0	2	96	192	7
STR	5	0	5
SCR	5	0	5	96	192	0
TAP	6	0	2
TAP	6	96	2
TAP	6	192	5
TAP	6	288	5
TAP	7	0	1
TAP	7	96	6
TAP	7	192	0
TAP	7	288	7
STR	8	0	2
SI_	8	0	2	96	96	7
STR	8	192	5
SI_	8	192	5	96	96	0
STR	9	0	2
SI_	9	0	2	96	96	7
BRK	9	288	1
BRK	9	288	6
TAP	10	0	2
TAP	10	0	4
TAP	10	96	3
TAP	10	96	5
TAP	10	192	2
TAP	10	192	3
TAP	10	288	4
TAP	10	288	5
TAP	11	0	1
TAP	11	0	3
TAP	11	96	4
TAP	11	96	6
BRK	11	192	0
BRK	11	192	1
BRK	11	288	0
BRK	11	288	1
TAP	12	0	3
TAP	12	0	5
TAP	12	96	2
TAP	12	96	4
TAP	12	192	4
TAP	12	192	5
TAP	12	288	2
TAP	12	288	3
TAP	13	0	4
TAP	13	0	6
TAP	13	96	1
TAP	13	96	3
BRK	13	192	6
BRK	13	192	7
BRK	13	288	6
BRK	13	288	7
TAP	14	0	2
TAP	14	0	4
TAP	14	96	3
TAP	14	96	5
TAP	14	192	2
TAP	14	192	3
TAP	14	288	4
TAP	14	288	5
TAP	15	0	1
TAP	15	0	3
TAP	15	96	4
TAP	15	96	6
BRK	15	192	0
BRK	15	192	1
BRK	15	288	0
BRK	15	288	1
TAP	16	0	3
TAP	16	0	4
TAP	16	96	2
TAP	16	96	5
TAP	16	192	1
TAP	16	192	6
TAP	16	288	0
TAP	16	288	7
BST	17	0	0
SI_	17	0	0	96	192	3
BST	17	0	7
SI_	17	0	7	96	192	4
HLD	18	0	2	96
HLD	18	96	3	96
HLD	18	192	4	96
HLD	18	288	5	96
STR	19	0	1
SUL	19	0	1	96	192	4
HLD	20	0	6	288
TAP	20	96	5
TAP	20	192	7
TAP	20	288	1
HLD	21	0	1	288
TAP	21	96	2
TAP	21	192	0
TAP	21	288	6
HLD	22	0	5	96
HLD	22	96	4	96
HLD	22	192	3	96
HLD	22	288	2	96
STR	23	0	6
SUR	23	0	6	96	192	3
HLD	24	0	1	288
TAP	24	96	2
TAP	24	192	0
TAP	24	288	6
HLD	25	0	6	288
TAP	25	96	5
TAP	25	192	7
TAP	25	288	1
TAP	26	0	1
TAP	26	0	6
TAP	26	144	3
TAP	26	144	4
TAP	26	192	3
TAP	26	192	4
BRK	26	288	2
BRK	26	288	7
TAP	27	0	1
TAP	27	0	6
TAP	27	144	3
TAP	27	144	4
TAP	27	192	3
TAP	27	192	4
BRK	27	288	2
BRK	27	288	7
TAP	28	0	1
TAP	28	96	3
TAP	28	192	4
STR	28	288	6
SUL	28	288	6	96	192	3
TAP	30	0	1
TAP	30	0	6
TAP	30	144	3
TAP	30	144	4
TAP	30	192	3
TAP	30	192	4
BRK	30	288	0
BRK	30	288	5
TAP	31	0	1
TAP	31	0	6
TAP	31	144	3
TAP	31	144	4
TAP	31	192	3
TAP	31	192	4
BRK	31	288	0
BRK	31	288	5
TAP	32	0	6
TAP	32	96	4
TAP	32	192	3
STR	32	288	1
SUR	32	288	1	96	192	4
BRK	34	0	0
BRK	34	0	7
BRK	34	48	0
BRK	34	48	7
BRK	34	96	0
BRK	34	96	7
TAP	34	192	4
TAP	34	192	5
TAP	34	288	2
TAP	34	288	3
TAP	35	0	0
TAP	35	0	1
TAP	35	96	2
TAP	35	96	7
TAP	35	192	3
TAP	35	192	4
TAP	35	288	6
TAP	35	336	7
HLD	36	0	5	96
BRK	36	96	7
TAP	36	192	2
TAP	36	192	3
TAP	36	288	4
TAP	36	288	5
TAP	37	0	6
TAP	37	0	7
TAP	37	96	0
TAP	37	96	5
TAP	37	192	3
TAP	37	192	4
TAP	37	288	1
TAP	37	336	0
HLD	38	0	2	96
BRK	38	96	0
TAP	38	192	3
TAP	38	192	4
TAP	38	288	2
TAP	38	288	5
TAP	39	0	1
TAP	39	0	3
TAP	39	96	2
TAP	39	96	4
TAP	39	192	3
TAP	39	192	5
TAP	39	288	4
TAP	39	288	7
TAP	40	0	4
TAP	40	0	6
TAP	40	96	3
TAP	40	96	5
TAP	40	192	2
TAP	40	192	4
TAP	40	288	0
TAP	40	288	3
TAP	41	0	0
TAP	41	0	7
TAP	41	96	4
TAP	41	96	5
TAP	41	144	4
TAP	41	144	5
TAP	41	240	2
TAP	41	240	3
TAP	41	288	2
TAP	41	288	3
STR	42	0	7
SI_	42	0	7	96	48	5
STR	42	96	0
SI_	42	96	0	96	48	2
STR	42	192	6
SI_	42	192	6	96	48	4
TAP	42	288	1
TAP	43	0	6
TAP	43	0	7
TAP	43	96	0
TAP	43	96	5
TAP	43	192	3
TAP	43	192	4
TAP	43	288	1
TAP	43	336	0
HLD	44	0	2	96
BRK	44	96	0
TAP	44	192	4
TAP	44	192	5
TAP	44	288	2
TAP	44	288	3
TAP	45	0	0
TAP	45	0	1
TAP	45	96	2
TAP	45	96	7
TAP	45	192	3
TAP	45	192	4
TAP	45	288	6
TAP	45	336	7
HLD	46	0	5	96
BRK	46	96	7
TAP	46	192	0
TAP	46	288	1
TAP	47	0	2
TAP	47	0	5
TAP	47	48	2
TAP	47	48	5
STR	47	144	2
SCL	47	144	2	96	96	0
STR	47	144	5
SCR	47	144	5	96	96	7
TAP	48	0	4
TAP	48	0	5
TAP	48	96	2
TAP	48	96	3
TAP	48	192	0
TAP	48	192	1
TAP	48	288	6
TAP	48	288	7
BRK	49	0	1
BRK	49	0	6
TAP	49	96	2
TAP	49	96	4
TAP	49	192	1
TAP	49	192	3
TAP	49	288	0
TAP	49	288	3
TAP	50	0	1
TAP	50	0	3
TAP	50	96	2
TAP	50	96	4
TAP	50	192	3
TAP	50	192	5
TAP	50	288	4
TAP	50	288	7
TAP	51	0	4
TAP	51	0	6
TAP	51	96	3
TAP	51	96	5
TAP	51	192	2
TAP	51	192	4
TAP	51	288	0
TAP	51	288	3
TAP	52	0	1
TAP	52	0	3
TAP	52	96	2
TAP	52	96	4
TAP	52	192	3
TAP	52	192	5
TAP	52	288	4
TAP	52	288	7
HLD	53	0	1	144
TAP	53	96	0
TAP	53	144	0
HLD	53	288	6	144
TAP	54	0	7
TAP	54	48	7
STR	54	192	1
SCR	54	192	1	96	48	3
STR	54	288	6
SCL	54	288	6	96	48	4
STR	55	0	2
SCL	55	0	2	96	192	5
STR	56	0	5
SCR	56	0	5	96	192	2
STR	57	0	0
SI_	57	0	0	96	48	2
STR	57	96	7
SI_	57	96	7	96	48	5
STR	57	192	1
SI_	57	192	1	96	48	3
STR	57	288	6
SI_	57	288	6	96	48	4
STR	58	0	0
SI_	58	0	0	96	48	2
STR	58	96	7
SI_	58	96	7	96	48	5
STR	58	192	1
SI_	58	192	1	96	48	3
TAP	58	288	6
HLD	59	0	0	192
HLD	59	192	1	192
HLD	60	0	2	192
HLD	60	192	3	192
TAP	61	0	1
TAP	61	96	3
TAP	61	192	4
STR	61	288	6
SUL	61	288	6	96	192	3
HLD	63	0	7	192
HLD	63	192	6	192
HLD	64	0	5	192
HLD	64	192	4	192
TAP	65	0	6
TAP	65	96	4
TAP	65	192	3
STR	65	288	1
SUR	65	288	1	96	192	4
STR	67	0	6
SI_	67	0	6	96	96	3
TAP	67	96	0
STR	67	192	1
SI_	67	192	1	96	96	4
TAP	67	288	7
STR	68	0	6
SXR	68	0	6	96	192	3
BRK	69	0	0
BRK	69	192	1
BRK	70	0	2
BRK	70	0	5
BRK	70	48	2
BRK	70	48	5
BRK	70	96	2
BRK	70	96	5
TAP	70	192	4
TAP	70	192	5
TAP	70	288	2
TAP	70	288	3
TAP	71	0	1
TAP	71	48	0
TAP	71	96	2
TAP	71	96	7
TAP	71	192	3
TAP	71	192	4
TAP	71	288	6
TAP	71	336	7
HLD	72	0	5	96
BRK	72	96	7
TAP	72	192	2
TAP	72	192	3
TAP	72	288	4
TAP	72	288	5
TAP	73	0	6
TAP	73	48	7
TAP	73	96	0
TAP	73	96	5
TAP	73	192	3
TAP	73	192	4
TAP	73	288	1
TAP	73	336	0
HLD	74	0	2	96
BRK	74	96	0
TAP	74	192	3
TAP	74	240	4
TAP	74	288	2
TAP	74	288	5
TAP	75	0	1
TAP	75	0	3
TAP	75	96	2
TAP	75	96	4
TAP	75	192	3
TAP	75	192	5
TAP	75	288	4
TAP	75	288	7
TAP	76	0	4
TAP	76	0	6
TAP	76	96	3
TAP	76	96	5
TAP	76	192	2
TAP	76	192	4
TAP	76	288	0
TAP	76	288	3
TAP	77	0	0
TAP	77	0	7
TAP	77	96	4
TAP	77	96	5
TAP	77	144	4
TAP	77	144	5
TAP	77	240	2
TAP	77	240	3
TAP	77	288	2
TAP	77	288	3
STR	78	0	7
SI_	78	0	7	96	48	5
STR	78	96	0
SI_	78	96	0	96	48	2
STR	78	192	6
SI_	78	192	6	96	48	4
TAP	78	288	1
TAP	79	0	6
TAP	79	48	7
TAP	79	96	0
TAP	79	96	5
TAP	79	192	3
TAP	79	192	4
TAP	79	288	1
TAP	79	336	0
HLD	80	0	2	96
BRK	80	96	0
TAP	80	192	4
TAP	80	192	5
TAP	80	288	2
TAP	80	288	3
TAP	81	0	1
TAP	81	48	0
TAP	81	96	2
TAP	81	96	7
TAP	81	192	3
TAP	81	192	4
TAP	81	288	6
TAP	81	336	7
HLD	82	0	5	96
BRK	82	96	7
TAP	82	192	0
TAP	82	288	1
TAP	83	0	2
TAP	83	0	5
TAP	83	48	2
TAP	83	48	5
STR	83	144	2
SCL	83	144	2	96	96	0
STR	83	144	5
SCR	83	144	5	96	96	7
TAP	84	0	4
TAP	84	0	5
TAP	84	96	0
TAP	84	96	1
TAP	84	192	6
TAP	84	192	7
TAP	84	288	2
TAP	84	288	3
BRK	84	336	2
BRK	84	336	3
TAP	85	96	1
TAP	85	96	5
TAP	85	192	0
TAP	85	192	7
TAP	85	288	4
TAP	85	288	5
BRK	85	336	4
BRK	85	336	5
TAP	86	96	2
TAP	86	96	6
TAP	86	192	0
TAP	86	192	7
TAP	86	288	2
TAP	86	288	3
BRK	86	336	2
BRK	86	336	3
TAP	87	96	1
TAP	87	96	5
TAP	87	192	0
TAP	87	192	7
TAP	87	288	4
TAP	87	288	5
BRK	87	336	4
BRK	87	336	5
TAP	88	96	2
TAP	88	96	6
TAP	88	192	0
TAP	88	192	7
TAP	88	288	1
TAP	88	288	6
BRK	89	0	3
BRK	89	0	4
TAP	89	144	0
TAP	89	192	7
TAP	89	288	1
TAP	89	288	6
TAP	90	0	2
TAP	90	0	3
TAP	90	96	6
TAP	90	96	7
TAP	90	192	4
TAP	90	192	5
TAP	90	288	0
TAP	90	288	1
TAP	91	0	3
TAP	91	0	4
BST	91	48	3
SXR	91	48	3	96	336	0
BST	91	48	4
SXL	91	48	4	96	336	7
BRK	92	192	1
BRK	92	192	6
BRK	92	240	1
BRK	92	240	6
BRK	92	288	1
BRK	92	288	6
TAP	93	0	1
TAP	93	0	7
TAP	93	96	0
TAP	93	96	6
TAP	93	192	0
TAP	93	192	1
TAP	93	288	6
TAP	93	288	7
TAP	94	0	2
TAP	94	0	7
TAP	94	96	0
TAP	94	96	5
BRK	94	192	2
BRK	94	192	3
BRK	94	288	4
BRK	94	288	7
TAP	95	0	0
TAP	95	0	6
TAP	95	96	1
TAP	95	96	7
TAP	95	192	6
TAP	95	192	7
TAP	95	288	0
TAP	95	288	1
TAP	96	0	0
TAP	96	0	5
TAP	96	96	2
TAP	96	96	7
BRK	96	192	4
BRK	96	192	5
BRK	96	288	0
BRK	96	288	3
TAP	97	0	1
TAP	97	0	7
TAP	97	96	0
TAP	97	96	6
TAP	97	192	0
TAP	97	192	1
TAP	97	288	6
TAP	97	288	7
TAP	98	0	2
TAP	98	0	7
TAP	98	96	0
TAP	98	96	5
BRK	98	192	2
BRK	98	192	3
BRK	98	288	4
BRK	98	288	7
TAP	99	0	0
TAP	99	0	7
TAP	99	96	1
TAP	99	96	6
TAP	99	192	2
TAP	99	192	5
TAP	99	288	3
TAP	99	288	4
BST	100	0	3
SCL	100	0	3	96	192	0
BST	100	0	4
SCR	100	0	4	96	192	7
TAP	101	0	0
TAP	101	0	7
TAP	101	96	0
TAP	101	96	7
TAP	101	192	1
TAP	101	192	6
TAP	101	288	1
TAP	101	288	6
TAP	102	0	2
TAP	102	0	5
TAP	102	48	2
TAP	102	48	5
TAP	102	96	2
TAP	102	96	5
TAP	102	192	3
TAP	102	192	4
TAP	102	288	0
TAP	102	288	7
HLD	103	0	1	1344
HLD	103	0	6	1344

T_REC_TAP	415
T_REC_BRK	74
T_REC_XTP	0
T_REC_HLD	32
T_REC_XHO	0
T_REC_STR	37
T_REC_BST	6
T_REC_XST	0
T_REC_TTP	0
T_REC_THO	0
T_REC_SLD	43
T_REC_ALL	607
T_NUM_TAP	452
T_NUM_BRK	80
T_NUM_HLD	32
T_NUM_SLD	43
T_NUM_ALL	607
T_JUDGE_TAP	532
T_JUDGE_HLD	150
T_JUDGE_SLD	43
T_JUDGE_ALL	725
TTM_EACHPAIRS	209
TTM_SCR_TAP	226000
TTM_SCR_BRK	208000
TTM_SCR_HLD	32000
TTM_SCR_SLD	64500
TTM_SCR_ALL	530500
TTM_SCR_S	506850
TTM_SCR_SS	522500
TTM_RAT_ACV	10153

