VERSION	0.00.00	1.03.00
FES_MODE	0
BPM_DEF	202.000	202.000	202.000	202.000
MET_DEF	4	4
RESOLUTION	384
CLK_DEF	384
COMPATIBLE_CODE	MA2

BPM	0	0	202.000
MET	0	0	4	4

TAP	1	192	2
TAP	2	0	3
TAP	2	192	2
TAP	3	0	2
TAP	3	0	3
TAP	4	0	5
TAP	4	192	4
TAP	5	0	4
TAP	5	0	5
TAP	6	0	3
TAP	6	192	4
TAP	7	0	3
TAP	7	192	2
TAP	7	192	5
TAP	8	0	0
TAP	8	192	7
HLD	9	0	0	288
BRK	9	288	7
TAP	10	0	1
TAP	10	96	1
TAP	10	192	2
TAP	10	288	2
TAP	11	0	3
TAP	11	96	3
TAP	11	192	4
TAP	11	192	5
TAP	12	0	6
TAP	12	96	6
TAP	12	192	5
TAP	12	288	5
TAP	13	0	4
TAP	13	96	4
TAP	13	192	2
TAP	13	192	3
TAP	14	0	1
TAP	14	96	1
TAP	14	192	2
TAP	14	288	2
TAP	15	0	3
TAP	15	96	3
TAP	15	192	4
TAP	15	192	5
TAP	16	0	7
TAP	16	96	0
TAP	16	192	7
TAP	16	288	0
BRK	17	0	1
BRK	17	0	6
TAP	18	0	3
TAP	18	96	3
TAP	18	192	2
STR	18	288	2
SUL	18	288	2	96	192	5
TAP	20	0	4
TAP	20	96	4
TAP	20	192	5
TAP	20	288	5
TAP	21	0	4
TAP	21	96	5
TAP	21	192	3
TAP	21	192	6
TAP	22	0	0
TAP	22	96	0
TAP	22	192	1
STR	22	288	1
SUR	22	288	1	96	192	6
TAP	24	0	7
TAP	24	96	7
TAP	24	192	6
TAP	24	288	6
TAP	25	0	7
TAP	25	96	6
TAP	25	192	0
TAP	25	192	5
HLD	26	0	5	192
TAP	26	192	4
HLD	27	0	2	192
TAP	27	192	3
TAP	28	0	5
TAP	28	96	6
TAP	28	192	7
TAP	28	288	0
TAP	29	0	1
TAP	29	96	2
TAP	29	192	3
TAP	29	192	4
HLD	30	0	1	192
TAP	30	192	0
HLD	31	0	6	192
TAP	31	192	7
TAP	32	0	1
TAP	32	96	2
TAP	32	192	3
TAP	32	288	4
TAP	33	0	5
TAP	33	96	6
STR	33	192	0
SI_	33	192	0	96	96	3
STR	33	192	7
SI_	33	192	7	96	96	4
BRK	34	192	1
BRK	34	192	6
TAP	35	0	3
TAP	35	96	2
TAP	35	192	3
TAP	35	288	2
TAP	36	0	1
TAP	36	0	4
TAP	36	192	7
TAP	36	288	6
TAP	37	0	7
TAP	37	96	5
TAP	37	192	4
TAP	37	288	5
TAP	38	0	3
TAP	38	0	6
STR	39	0	6
SI_	39	0	6	96	96	3
STR	39	0	7
SI_	39	0	7	96	96	2
TAP	40	0	2
TAP	40	96	3
TAP	40	192	2
TAP	40	192	3
STR	41	0	0
SI_	41	0	0	96	96	5
STR	41	0	1
SI_	41	0	1	96	96	4
TAP	42	0	5
TAP	42	96	4
TAP	42	192	4
TAP	42	192	5
TAP	43	0	4
TAP	43	96	5
TAP	43	192	4
TAP	43	288	5
TAP	44	0	3
TAP	44	0	6
TAP	44	192	0
TAP	44	288	1
TAP	45	0	0
TAP	45	96	2
TAP	45	192	3
TAP	45	288	2
TAP	46	0	1
TAP	46	0	4
TAP	46	192	0
TAP	46	288	7
BRK	47	0	1
BRK	47	0	6
TAP	48	0	3
TAP	48	96	4
TAP	48	192	2
TAP	48	192	5
TAP	49	0	0
TAP	49	96	0
TAP	49	192	1
TAP	49	288	1
TAP	50	0	2
TAP	50	96	2
TAP	50	192	2
TAP	50	192	3
TAP	51	0	7
TAP	51	96	7
TAP	51	192	6
TAP	51	288	6
TAP	52	0	5
TAP	52	96	5
TAP	52	192	4
TAP	52	192	5
TAP	53	0	0
TAP	53	96	1
TAP	53	192	2
TAP	53	288	3
TAP	54	0	4
TAP	54	96	5
TAP	54	192	6
TAP	54	192	7
TAP	55	0	7
TAP	55	96	6
TAP	55	192	5
TAP	55	288	4
TAP	56	0	3
TAP	56	96	2
TAP	56	192	0
TAP	56	192	1
TAP	57	0	3
TAP	57	96	3
TAP	57	192	4
TAP	57	288	4
TAP	58	0	3
TAP	58	96	4
TAP	58	192	1
TAP	58	192	6
HLD	59	0	1	192
TAP	59	192	0
HLD	60	0	6	192
TAP	60	192	7
HLD	61	0	2	192
TAP	61	192	1
HLD	62	0	5	192
TAP	62	192	6
HLD	63	0	2	192
TAP	63	192	3
HLD	64	0	5	192
TAP	64	192	4
HLD	65	0	1	192
TAP	65	192	2
HLD	66	0	6	192
TAP	66	192	5
TAP	67	0	3
TAP	67	0	4
TAP	67	192	3
TAP	67	192	4
TAP	68	0	2
TAP	68	0	5
TAP	68	192	2
TAP	68	192	5
TAP	69	0	0
TAP	69	192	7
TAP	70	0	1
TAP	70	0	6
TAP	70	96	1
TAP	70	96	6
BRK	70	192	1
BRK	70	192	6
TAP	71	0	5
TAP	71	96	4
TAP	71	192	4
TAP	71	192	5
TAP	71	288	3
TAP	71	288	6
TAP	72	0	2
TAP	72	0	7
TAP	72	192	5
TAP	72	288	4
TAP	72	288	5
TAP	73	0	2
TAP	73	96	2
TAP	73	96	3
TAP	73	192	1
TAP	73	192	4
TAP	73	288	0
TAP	73	288	5
STR	74	0	6
SI_	74	0	6	96	96	3
STR	74	0	7
SI_	74	0	7	96	96	2
STR	75	0	4
SI_	75	0	4	96	96	1
STR	75	0	5
SI_	75	0	5	96	96	0
TAP	76	0	0
TAP	76	96	1
TAP	76	192	2
TAP	76	192	7
STR	77	0	2
SI_	77	0	2	96	96	7
STR	77	0	3
SI_	77	0	3	96	96	6
TAP	78	0	7
TAP	78	96	6
TAP	78	192	0
TAP	78	192	5
TAP	79	0	5
TAP	79	96	4
TAP	79	192	4
TAP	79	192	5
TAP	79	288	3
TAP	79	288	6
TAP	80	0	2
TAP	80	0	7
TAP	80	192	5
TAP	80	288	4
TAP	80	288	5
TAP	81	0	2
TAP	81	96	2
TAP	81	96	3
TAP	81	192	1
TAP	81	192	4
TAP	81	288	0
TAP	81	288	5
TAP	82	0	6
TAP	82	0	7
TAP	82	192	0
TAP	82	288	7
BRK	83	0	1
BRK	83	0	6
TAP	84	0	3
TAP	84	96	4
TAP	84	192	2
TAP	84	192	5
TAP	85	0	2
TAP	85	0	3
TAP	85	96	1
TAP	85	96	4
TAP	85	192	0
TAP	85	192	5
TAP	86	0	4
TAP	86	0	5
TAP	86	96	3
TAP	86	96	6
TAP	86	192	2
TAP	86	192	7
TAP	87	0	0
TAP	87	0	1
TAP	87	96	2
TAP	87	96	7
TAP	87	192	3
TAP	87	192	6
TAP	88	0	6
TAP	88	0	7
TAP	88	96	0
TAP	88	96	5
TAP	88	192	1
TAP	88	192	4
STR	89	0	6
SI_	89	0	6	96	96	2
STR	90	0	1
SI_	90	0	1	96	96	5
TAP	91	0	1
TAP	91	0	6
TAP	91	96	0
TAP	91	96	7
HLD	91	192	0	192
HLD	91	192	7	192
BRK	92	192	0
BRK	92	192	7
BRK	92	288	1
BRK	92	288	6
TAP	93	0	7
TAP	93	96	6
TAP	93	192	5
TAP	93	288	4
TAP	94	0	3
TAP	94	96	2
TAP	94	192	0
TAP	94	192	1
TAP	94	288	0
TAP	94	288	1
TAP	95	0	0
TAP	95	96	1
TAP	95	192	2
TAP	95	288	3
TAP	96	0	4
TAP	96	96	5
TAP	96	192	6
TAP	96	192	7
TAP	96	288	6
TAP	96	288	7
TAP	97	0	6
TAP	97	96	5
TAP	97	192	4
TAP	97	288	3
TAP	98	0	2
TAP	98	96	1
TAP	98	192	0
TAP	98	192	7
TAP	98	288	1
TAP	98	288	6
TAP	99	0	0
TAP	99	96	1
TAP	99	192	2
TAP	99	288	3
TAP	100	0	7
TAP	100	96	6
TAP	100	192	5
TAP	100	288	4
TAP	101	0	1
TAP	101	96	2
TAP	101	192	3
TAP	101	288	4
TAP	102	0	6
TAP	102	96	5
TAP	102	192	4
TAP	102	288	3
BRK	103	0	1
BRK	103	0	6

T_REC_TAP	314
T_REC_BRK	17
T_REC_XTP	0
T_REC_HLD	15
T_REC_XHO	0
T_REC_STR	16
T_REC_BST	0
T_REC_XST	0
T_REC_TTP	0
T_REC_THO	0
T_REC_SLD	16
T_REC_ALL	378
T_NUM_TAP	330
T_NUM_BRK	17
T_NUM_HLD	15
T_NUM_SLD	16
T_NUM_ALL	378
T_JUDGE_TAP	347
T_JUDGE_HLD	62
T_JUDGE_SLD	16
T_JUDGE_ALL	425
TTM_EACHPAIRS	80
TTM_SCR_TAP	165000
TTM_SCR_BRK	44200
TTM_SCR_HLD	15000
TTM_SCR_SLD	24000
TTM_SCR_ALL	248200
TTM_SCR_S	239150
TTM_SCR_SS	246500
TTM_RAT_ACV	10068

