VERSION	0.00.00	1.03.00
FES_MODE	0
BPM_DEF	202.000	202.000	202.000	202.000
MET_DEF	4	4
RESOLUTION	384
CLK_DEF	384
COMPATIBLE_CODE	MA2

BPM	0	0	202.000
MET	0	0	4	4

TAP	2	0	0
TAP	2	192	0
HLD	3	0	0	192
TAP	4	0	7
TAP	4	192	7
HLD	5	0	7	192
TAP	6	0	0
TAP	6	192	0
TAP	7	0	1
TAP	7	192	1
TAP	8	0	2
TAP	8	0	3
TAP	8	192	2
TAP	8	192	3
TAP	9	0	3
TAP	9	96	3
TAP	9	192	3
TAP	10	0	4
TAP	10	192	4
TAP	11	0	4
TAP	11	192	5
TAP	11	288	5
TAP	12	0	5
TAP	12	192	5
TAP	13	0	5
TAP	13	192	6
TAP	13	288	6
TAP	14	0	6
TAP	14	192	6
TAP	15	0	6
TAP	15	192	7
TAP	15	288	7
STR	16	0	7
SI_	16	0	7	96	288	3
TAP	18	0	0
TAP	18	0	1
TAP	18	192	6
TAP	18	192	7
HLD	19	0	0	192
HLD	19	0	1	192
TAP	20	0	7
TAP	20	192	7
TAP	21	0	6
TAP	21	192	6
TAP	21	192	7
TAP	22	0	4
TAP	22	0	5
TAP	22	192	2
TAP	22	192	3
HLD	23	0	4	192
HLD	23	0	5	192
TAP	24	0	3
TAP	24	192	3
TAP	25	0	2
TAP	25	192	2
TAP	25	192	3
HLD	26	0	1	192
HLD	27	0	0	192
STR	28	0	0
SI_	28	0	0	96	288	4
HLD	30	0	6	192
HLD	31	0	7	192
TAP	32	0	0
TAP	32	192	0
HLD	33	0	1	192
HLD	33	0	6	192
BRK	34	0	0
BRK	34	0	7
TAP	34	192	0
TAP	34	192	7
TAP	35	0	0
TAP	35	96	0
TAP	35	192	0
TAP	36	0	1
TAP	36	96	1
TAP	36	192	1
TAP	37	0	2
TAP	37	96	2
TAP	37	192	2
TAP	38	0	3
TAP	38	96	3
TAP	38	192	3
HLD	39	0	4	192
HLD	40	0	3	192
TAP	41	0	4
TAP	41	0	5
TAP	41	192	2
TAP	41	192	3
TAP	42	0	4
TAP	42	96	4
TAP	42	192	3
TAP	42	288	3
TAP	43	0	4
TAP	43	96	4
TAP	43	192	4
TAP	44	0	5
TAP	44	96	5
TAP	44	192	5
TAP	45	0	6
TAP	45	96	6
TAP	45	192	6
TAP	46	0	7
TAP	46	96	7
TAP	46	192	7
HLD	47	0	0	192
TAP	48	0	7
TAP	48	96	7
TAP	48	192	7
TAP	49	0	0
TAP	49	0	1
TAP	49	192	0
TAP	49	192	1
TAP	50	0	7
TAP	50	96	7
TAP	50	192	7
TAP	51	0	6
TAP	51	96	6
TAP	51	192	6
TAP	52	0	5
TAP	52	96	5
TAP	52	192	5
STR	53	0	5
SI_	53	0	5	96	288	1
STR	55	0	2
SI_	55	0	2	96	288	6
HLD	57	0	0	384
HLD	57	0	7	384
STR	59	0	0
SI_	59	0	0	96	288	3
STR	61	0	7
SI_	61	0	7	96	288	4
STR	63	0	1
SI_	63	0	1	96	288	4
STR	65	0	6
SI_	65	0	6	96	288	3
HLD	67	0	0	384
HLD	67	0	7	384
TAP	69	0	0
TAP	69	192	0
BRK	70	0	7
BRK	70	96	7
BRK	71	0	0
TAP	71	96	0
TAP	71	192	0
TAP	72	0	1
TAP	72	96	1
TAP	72	192	1
TAP	73	0	2
TAP	73	96	2
TAP	73	192	2
HLD	74	0	3	192
HLD	74	0	4	192
TAP	75	0	4
TAP	75	0	5
TAP	75	192	4
TAP	75	192	5
TAP	76	0	2
TAP	76	0	3
TAP	76	192	2
TAP	76	192	3
TAP	77	0	4
TAP	77	96	4
TAP	77	192	3
TAP	77	288	3
TAP	78	0	4
TAP	78	96	3
TAP	78	192	4
TAP	78	288	3
TAP	79	0	4
TAP	79	96	4
TAP	79	192	4
TAP	80	0	5
TAP	80	96	5
TAP	80	192	5
TAP	81	0	6
TAP	81	96	6
TAP	81	192	6
TAP	82	0	0
TAP	82	0	7
TAP	82	96	0
TAP	82	96	7
TAP	82	192	0
TAP	82	192	7
TAP	83	0	0
TAP	83	96	0
TAP	83	192	1
TAP	84	0	7
TAP	84	96	7
TAP	84	192	6
HLD	85	0	0	192
HLD	85	0	1	192
HLD	86	0	2	192
HLD	86	0	3	192
HLD	87	0	4	192
HLD	87	0	5	192
HLD	88	0	6	192
HLD	88	0	7	192
TAP	89	0	0
TAP	89	192	0
TAP	90	0	7
TAP	90	192	7
TAP	91	0	0
TAP	91	0	1
TAP	91	192	6
TAP	91	192	7
TAP	92	0	0
TAP	92	0	7
BRK	92	192	0
BRK	92	288	0
TAP	93	0	7
TAP	93	96	7
TAP	93	192	7
TAP	94	0	6
TAP	94	96	6
TAP	94	192	6
TAP	94	192	7
TAP	95	0	5
TAP	95	96	5
TAP	95	192	5
TAP	96	0	4
TAP	96	96	4
TAP	96	192	3
TAP	96	192	4
TAP	97	0	3
TAP	97	96	3
TAP	97	192	3
TAP	98	0	2
TAP	98	96	2
TAP	98	192	2
TAP	98	192	3
TAP	99	0	1
TAP	99	96	1
TAP	99	192	1
TAP	100	0	0
TAP	100	96	0
TAP	100	192	0
TAP	101	0	7
TAP	101	96	7
TAP	101	192	7
TAP	102	0	6
TAP	102	96	6
TAP	102	192	6
BRK	103	0	0
BRK	103	0	7

T_REC_TAP	190
T_REC_BRK	9
T_REC_XTP	0
T_REC_HLD	29
T_REC_XHO	0
T_REC_STR	8
T_REC_BST	0
T_REC_XST	0
T_REC_TTP	0
T_REC_THO	0
T_REC_SLD	8
T_REC_ALL	244
T_NUM_TAP	198
T_NUM_BRK	9
T_NUM_HLD	29
T_NUM_SLD	8
T_NUM_ALL	244
T_JUDGE_TAP	207
T_JUDGE_HLD	132
T_JUDGE_SLD	8
T_JUDGE_ALL	347
TTM_EACHPAIRS	38
TTM_SCR_TAP	99000
TTM_SCR_BRK	23400
TTM_SCR_HLD	29000
TTM_SCR_SLD	12000
TTM_SCR_ALL	163400
TTM_SCR_S	157650
TTM_SCR_SS	162500
TTM_RAT_ACV	10055

