VERSION	0.00.00	1.03.00
FES_MODE	0
BPM_DEF	156.000	156.000	156.000	156.000
MET_DEF	4	4
RESOLUTION	384
CLK_DEF	384
COMPATIBLE_CODE	MA2

BPM	0	0	156.000
MET	0	0	4	4

TAP	1	12	2
TAP	1	12	3
TAP	1	156	4
TAP	1	156	5
TAP	1	300	1
TAP	1	300	3
TAP	2	60	4
TAP	2	60	6
TAP	2	204	2
TAP	2	204	5
TAP	2	300	0
TAP	2	300	7
TAP	3	0	0
TAP	3	48	7
TAP	3	96	1
TAP	3	96	6
TAP	3	192	0
TAP	3	192	7
TAP	3	264	0
TAP	3	264	7
TAP	3	336	0
TAP	3	336	7
TAP	4	0	2
TAP	4	48	3
TAP	4	96	2
HLD	4	192	5	72
TAP	4	264	4
TAP	4	336	1
TAP	4	336	6
TAP	5	0	5
TAP	5	48	4
TAP	5	96	5
HLD	5	192	2	72
TAP	5	264	3
TAP	5	336	1
TAP	5	336	6
TAP	6	0	2
TAP	6	48	3
TAP	6	96	1
HLD	6	192	6	72
TAP	6	264	4
TAP	6	336	0
TAP	6	336	7
TAP	7	0	5
TAP	7	48	4
TAP	7	96	6
HLD	7	192	1	72
TAP	7	264	3
TAP	7	336	0
TAP	7	336	7
TAP	8	0	1
TAP	8	48	3
TAP	8	96	2
TAP	8	192	3
HLD	8	192	4	72
TAP	8	264	6
TAP	8	336	0
TAP	8	336	7
TAP	9	0	6
TAP	9	48	4
TAP	9	96	5
HLD	9	192	3	72
TAP	9	192	4
TAP	9	264	1
TAP	9	336	0
TAP	9	336	7
TAP	10	0	7
TAP	10	48	0
TAP	10	96	1
TAP	10	96	6
TAP	10	192	0
TAP	10	192	7
TAP	10	264	0
TAP	10	264	7
TAP	10	336	0
TAP	10	336	7
TAP	11	0	1
TAP	11	0	6
TAP	11	48	2
TAP	11	48	5
TAP	11	96	3
TAP	11	120	4
TAP	11	144	3
TAP	11	168	4
TAP	11	192	3
TAP	11	264	5
TAP	11	264	7
TAP	11	336	0
TAP	11	336	2
TAP	12	0	6
TAP	12	48	2
TAP	12	72	2
TAP	12	96	3
TAP	12	144	5
TAP	12	192	6
TAP	12	192	7
TAP	12	264	0
TAP	12	264	7
TAP	12	336	0
TAP	12	336	1
TAP	13	0	2
TAP	13	48	1
TAP	13	48	3
STR	13	96	2
SI_	13	96	2	96	48	7
TAP	13	168	4
TAP	13	240	4
TAP	13	288	5
TAP	13	336	0
TAP	13	336	6
TAP	14	0	1
TAP	14	48	5
TAP	14	72	5
TAP	14	96	4
TAP	14	144	2
TAP	14	192	5
TAP	14	240	4
TAP	14	288	3
TAP	14	336	2
STR	15	0	1
SI_	15	0	1	96	48	4
TAP	15	48	0
TAP	15	96	1
STR	15	144	6
SI_	15	144	6	96	48	3
TAP	15	168	6
TAP	15	240	7
TAP	15	288	7
TAP	16	0	1
TAP	16	48	5
TAP	16	72	5
TAP	16	96	4
TAP	16	144	2
TAP	16	192	0
TAP	16	192	1
TAP	16	264	0
TAP	16	264	7
TAP	16	336	6
TAP	16	336	7
TAP	17	0	5
TAP	17	48	4
TAP	17	48	6
STR	17	96	5
SI_	17	96	5	96	48	0
TAP	17	168	3
TAP	17	240	3
TAP	17	288	2
TAP	17	336	1
TAP	17	336	7
TAP	18	0	6
TAP	18	48	2
TAP	18	72	2
TAP	18	96	3
TAP	18	144	5
TAP	18	192	2
TAP	18	240	3
TAP	18	288	4
TAP	18	336	5
STR	19	0	6
SI_	19	0	6	96	48	3
TAP	19	48	7
TAP	19	96	6
STR	19	144	1
SI_	19	144	1	96	48	4
TAP	19	168	1
TAP	19	240	0
TAP	19	288	0
TAP	20	0	5
TAP	20	48	4
TAP	20	48	5
TAP	20	96	2
TAP	20	144	2
TAP	20	144	3
TAP	20	192	4
TAP	20	192	6
TAP	20	264	1
TAP	20	264	3
TAP	20	336	0
TAP	20	336	7
TAP	21	0	2
TAP	21	0	4
TAP	21	48	3
TAP	21	72	4
TAP	21	96	3
TAP	21	144	2
TAP	21	144	5
TAP	21	192	1
TAP	21	192	3
TAP	21	264	4
TAP	21	264	6
STR	21	336	1
SI_	21	336	1	96	48	4
TAP	22	48	1
TAP	22	48	6
STR	22	96	6
SI_	22	96	6	96	48	3
TAP	22	168	1
TAP	22	240	1
TAP	22	288	3
TAP	22	336	2
TAP	22	336	4
TAP	23	0	3
TAP	23	0	5
TAP	23	48	4
TAP	23	72	3
TAP	23	96	4
TAP	23	144	2
TAP	23	144	5
TAP	23	192	3
TAP	23	192	4
TAP	23	240	1
TAP	23	288	3
TAP	23	288	4
TAP	23	336	6
STR	24	0	0
SI_	24	0	0	96	48	4
TAP	24	48	1
TAP	24	48	7
TAP	24	96	0
STR	24	144	7
SI_	24	144	7	96	48	3
TAP	24	168	7
TAP	24	240	0
TAP	24	288	0
STR	25	0	3
SI_	25	0	3	96	96	6
STR	25	0	4
SI_	25	0	4	96	96	1
STR	26	0	1
SXL	26	0	1	96	192	4
STR	26	0	5
SXL	26	0	5	96	192	0
STR	27	0	2
SXR	27	0	2	96	192	7
STR	27	0	6
SXR	27	0	6	96	192	3
TAP	28	0	2
TAP	28	96	1
BRK	28	192	0
TAP	29	0	4
STR	29	0	6
SI_	29	0	6	96	48	2
TAP	29	96	6
TAP	29	96	7
TAP	29	144	0
TAP	29	192	1
TAP	29	264	3
TAP	29	264	7
STR	29	336	1
SI_	29	336	1	96	48	4
STR	29	336	5
SI_	29	336	5	96	48	0
TAP	30	48	1
TAP	30	48	5
TAP	30	144	3
TAP	30	144	6
TAP	30	192	4
TAP	30	192	5
TAP	30	264	0
TAP	30	264	1
TAP	31	0	5
TAP	31	0	7
TAP	31	48	6
TAP	31	96	0
TAP	31	96	2
TAP	31	144	1
HLD	31	192	4	72
TAP	31	192	6
TAP	31	264	2
STR	31	336	1
SXL	31	336	1	96	96	4
TAP	31	336	5
TAP	32	48	6
TAP	32	96	7
STR	32	144	0
SCL	32	144	0	96	48	5
TAP	32	240	0
TAP	32	288	1
STR	33	0	1
SI_	33	0	1	96	48	5
TAP	33	0	3
TAP	33	96	0
TAP	33	96	1
TAP	33	144	7
TAP	33	192	6
TAP	33	264	0
TAP	33	264	4
STR	33	336	2
SI_	33	336	2	96	48	7
STR	33	336	6
SI_	33	336	6	96	48	3
TAP	34	48	2
TAP	34	48	6
TAP	34	144	1
TAP	34	144	4
TAP	34	192	2
TAP	34	192	3
TAP	34	264	6
TAP	34	264	7
TAP	35	0	0
TAP	35	0	2
TAP	35	48	1
TAP	35	96	5
TAP	35	96	7
TAP	35	144	6
TAP	35	192	1
HLD	35	192	3	72
TAP	35	264	5
TAP	35	336	4
TAP	35	336	6
TAP	36	48	1
TAP	36	48	6
STR	36	96	0
SI_	36	96	0	96	48	4
STR	36	96	7
SI_	36	96	7	96	48	3
STR	36	192	0
SI_	36	192	0	96	48	5
STR	36	192	7
SI_	36	192	7	96	48	2
BRK	36	288	0
BRK	36	288	7
HLD	37	0	1	72
TAP	37	72	3
TAP	37	96	2
HLD	37	144	6	72
TAP	37	216	4
TAP	37	240	5
HLD	37	288	0	72
TAP	37	360	3
TAP	38	0	2
HLD	38	48	7	72
TAP	38	120	4
TAP	38	144	5
TAP	38	192	2
TAP	38	192	7
TAP	38	288	0
TAP	38	288	5
TAP	39	0	2
TAP	39	24	3
TAP	39	72	5
TAP	39	96	4
TAP	39	144	1
TAP	39	168	3
TAP	39	216	6
TAP	39	240	4
TAP	39	288	1
TAP	39	312	0
TAP	39	360	6
TAP	40	0	7
TAP	40	48	2
TAP	40	72	0
TAP	40	120	5
TAP	40	144	7
TAP	40	192	1
TAP	40	192	6
TAP	40	240	0
TAP	40	264	7
TAP	40	288	1
TAP	40	312	6
TAP	40	336	2
TAP	40	360	5
STR	41	0	3
SCL	41	0	3	96	192	4
TAP	42	0	1
TAP	42	48	2
TAP	42	96	3
STR	42	144	4
SCL	42	144	4	96	96	0
TAP	43	0	6
TAP	43	48	5
TAP	43	96	4
STR	43	144	3
SCR	43	144	3	96	96	7
TAP	44	0	1
TAP	44	48	2
TAP	44	96	3
STR	44	144	4
SCL	44	144	4	96	48	0
SCR	44	144	4	96	48	7
TAP	45	0	4
TAP	45	48	2
TAP	45	96	0
STR	45	144	6
SSL	45	144	6	96	96	2
TAP	46	0	3
TAP	46	48	5
TAP	46	96	7
STR	46	144	1
SSR	46	144	1	96	96	5
TAP	47	0	6
TAP	47	48	5
TAP	47	96	4
STR	47	144	3
SCL	47	144	3	96	48	0
SCR	47	144	3	96	48	7
TAP	48	0	5
TAP	48	48	4
TAP	48	96	3
TAP	48	144	2
TAP	48	288	1
TAP	48	288	6
HLD	49	144	1	96
HLD	49	240	3	96
TAP	49	336	2
TAP	50	0	3
TAP	50	48	2
HLD	50	144	6	96
HLD	50	240	4	96
TAP	50	336	5
TAP	51	0	4
TAP	51	48	5
HLD	51	144	3	96
HLD	51	240	4	96
TAP	51	336	3
TAP	52	0	2
TAP	52	0	5
TAP	52	192	3
TAP	52	192	4
TAP	52	288	3
TAP	52	288	4
TAP	52	336	6
TAP	53	0	4
HLD	53	48	5	96
HLD	53	144	4	96
TAP	53	240	3
TAP	54	0	3
HLD	54	48	3	96
HLD	54	144	4	96
TAP	54	240	3
TAP	54	336	1
TAP	55	0	3
HLD	55	48	2	96
HLD	55	144	3	96
TAP	55	240	4
TAP	55	336	2
TAP	55	336	5
TAP	56	0	3
TAP	56	48	4
TAP	56	96	2
TAP	56	96	5
TAP	56	192	3
TAP	56	192	4
TAP	56	288	1
TAP	56	288	6
STR	57	0	0
SI_	57	0	0	96	48	3
STR	57	96	6
SI_	57	96	6	96	48	3
TAP	57	144	6
STR	57	240	1
SI_	57	240	1	96	48	4
TAP	57	288	1
STR	58	0	7
SI_	58	0	7	96	48	4
STR	58	96	1
SI_	58	96	1	96	48	4
TAP	58	144	1
STR	58	240	6
SI_	58	240	6	96	48	3
TAP	58	288	6
STR	59	0	0
SI_	59	0	0	96	48	3
STR	59	96	6
SI_	59	96	6	96	48	3
TAP	59	144	6
STR	59	240	1
SI_	59	240	1	96	48	4
TAP	59	288	1
STR	60	0	7
SF_	60	0	7	96	48	3
TAP	60	192	1
TAP	60	192	3
TAP	60	288	4
TAP	60	288	6
TAP	60	336	2
TAP	60	336	5
TAP	61	0	3
TAP	61	0	4
TAP	61	48	2
TAP	61	96	3
TAP	61	96	4
TAP	61	144	5
TAP	61	192	3
TAP	61	192	4
TAP	61	240	1
TAP	61	288	3
TAP	61	288	4
TAP	61	336	6
TAP	62	0	4
TAP	62	0	5
TAP	62	48	3
TAP	62	96	4
TAP	62	96	5
TAP	62	144	6
TAP	62	192	2
TAP	62	192	3
TAP	62	240	1
TAP	62	288	2
TAP	62	288	3
TAP	62	336	4
TAP	63	0	2
TAP	63	0	3
TAP	63	48	0
TAP	63	96	4
TAP	63	96	5
TAP	63	144	7
TAP	63	192	3
TAP	63	192	4
TAP	63	240	1
TAP	63	240	6
TAP	63	288	0
TAP	63	312	7
TAP	63	336	0
TAP	64	0	2
TAP	64	0	3
TAP	64	24	2
TAP	64	24	3
TAP	64	144	4
TAP	64	144	5
TAP	64	168	4
TAP	64	168	5
TAP	64	288	3
TAP	64	288	4
TAP	64	312	3
TAP	64	312	4
TAP	65	0	1
TAP	65	0	6
TAP	65	336	0
TAP	65	336	5
TAP	66	0	1
TAP	66	0	3
BRK	66	72	6
BRK	66	72	7
TAP	66	144	2
TAP	66	144	7
TAP	66	192	4
TAP	66	192	6
BRK	66	264	0
BRK	66	264	1
TAP	67	0	5
TAP	67	48	4
TAP	67	48	5
TAP	67	96	2
TAP	67	144	2
TAP	67	144	3
HLD	67	192	4	72
TAP	67	192	6
TAP	67	264	2
STR	67	336	1
SCR	67	336	1	96	48	4
TAP	67	336	3
TAP	68	48	0
TAP	68	48	1
TAP	68	96	7
STR	68	144	6
SCL	68	144	6	96	48	3
TAP	68	240	6
TAP	68	240	7
TAP	68	288	0
TAP	69	0	1
TAP	69	0	6
TAP	69	96	2
TAP	69	96	4
TAP	69	144	3
TAP	69	144	5
TAP	69	192	2
TAP	69	192	7
TAP	69	264	0
TAP	69	264	5
STR	69	336	0
SI_	69	336	0	96	48	3
STR	69	336	7
SI_	69	336	7	96	48	4
TAP	70	48	0
TAP	70	48	7
TAP	70	144	2
TAP	70	144	5
TAP	70	192	0
TAP	70	192	1
TAP	70	264	6
TAP	70	264	7
TAP	71	0	2
TAP	71	48	1
TAP	71	48	3
TAP	71	96	5
TAP	71	144	4
TAP	71	144	6
HLD	71	192	0	72
TAP	71	192	2
TAP	71	264	6
TAP	71	336	5
TAP	71	336	7
TAP	72	48	2
TAP	72	48	5
STR	72	96	0
SI_	72	96	0	96	48	4
STR	72	96	1
SI_	72	96	1	96	48	5
STR	72	192	0
SCL	72	192	0	96	24	5
STR	72	192	1
SCR	72	192	1	96	24	4
BRK	72	288	0
BRK	72	288	1
TAP	73	0	0
HLD	73	0	4	96
TAP	73	96	2
TAP	73	120	3
TAP	73	144	2
TAP	73	192	5
TAP	73	216	4
TAP	73	264	2
TAP	73	264	7
STR	73	336	0
SI_	73	336	0	96	48	5
STR	73	336	1
SI_	73	336	1	96	48	4
TAP	74	48	0
TAP	74	48	1
TAP	74	144	2
TAP	74	144	3
TAP	74	192	0
STR	74	192	6
SI_	74	192	6	96	48	2
TAP	74	264	4
STR	75	0	0
SI_	75	0	0	96	48	4
TAP	75	48	0
STR	75	96	5
SI_	75	96	5	96	48	1
TAP	75	144	5
TAP	75	192	2
TAP	75	264	4
TAP	75	336	2
STR	75	336	6
SXR	75	336	6	96	96	3
TAP	76	48	1
TAP	76	96	0
STR	76	144	7
SCR	76	144	7	96	48	2
TAP	76	240	7
TAP	76	288	6
HLD	77	0	3	96
TAP	77	0	7
TAP	77	96	5
TAP	77	120	4
TAP	77	144	5
TAP	77	192	2
TAP	77	216	3
TAP	77	264	0
TAP	77	264	5
STR	77	336	6
SI_	77	336	6	96	48	3
STR	77	336	7
SI_	77	336	7	96	48	2
TAP	78	48	6
TAP	78	48	7
TAP	78	144	4
TAP	78	144	5
STR	78	192	1
SI_	78	192	1	96	48	5
TAP	78	192	7
TAP	78	264	3
STR	79	0	7
SI_	79	0	7	96	48	3
TAP	79	48	7
STR	79	96	2
SI_	79	96	2	96	48	6
TAP	79	144	2
TAP	79	192	5
TAP	79	264	3
TAP	79	336	2
TAP	79	336	7
TAP	80	48	0
TAP	80	48	5
STR	80	96	6
SI_	80	96	6	96	48	2
STR	80	96	7
SI_	80	96	7	96	48	3
STR	80	192	6
SCL	80	192	6	96	48	3
STR	80	192	7
SCR	80	192	7	96	48	2
BRK	80	288	6
BRK	80	288	7
TAP	81	0	1
TAP	81	24	1
TAP	81	72	0
TAP	81	144	6
TAP	81	168	6
TAP	81	216	7
STR	81	288	0
SI_	81	288	0	96	48	4
TAP	81	312	0
TAP	81	360	5
STR	82	48	7
SI_	82	48	7	96	48	3
TAP	82	72	7
TAP	82	120	2
STR	82	192	1
SI_	82	192	1	96	48	4
TAP	82	216	1
TAP	82	264	5
STR	82	336	6
SI_	82	336	6	96	48	3
TAP	82	360	6
TAP	83	24	2
BRK	83	96	0
TAP	83	192	0
TAP	83	216	7
TAP	83	240	1
TAP	83	264	6
TAP	83	288	0
TAP	83	312	7
TAP	83	336	2
TAP	83	360	5
TAP	84	0	3
TAP	84	24	3
TAP	84	24	4
TAP	84	156	1
TAP	84	156	3
TAP	84	180	1
TAP	84	180	3
TAP	84	300	4
TAP	84	300	6
TAP	84	324	4
TAP	84	324	6
TAP	85	60	2
TAP	85	60	5
TAP	85	84	2
TAP	85	84	5
TAP	85	204	0
TAP	85	204	1
TAP	85	228	0
TAP	85	228	1
TAP	85	300	6
TAP	85	300	7
TAP	85	324	6
TAP	85	324	7
TAP	86	0	3
TAP	86	0	4
TAP	86	48	2
TAP	86	48	5
TAP	86	96	1
TAP	86	96	6
TAP	86	144	0
TAP	86	144	7
TAP	86	192	1
TAP	86	192	3
TAP	86	264	4
TAP	86	264	6
STR	86	336	0
SCR	86	336	0	96	720	7
STR	86	336	7
SCL	86	336	7	96	720	0

T_REC_TAP	564
T_REC_BRK	12
T_REC_XTP	0
T_REC_HLD	28
T_REC_XHO	0
T_REC_STR	75
T_REC_BST	0
T_REC_XST	0
T_REC_TTP	0
T_REC_THO	0
T_REC_SLD	77
T_REC_ALL	756
T_NUM_TAP	639
T_NUM_BRK	12
T_NUM_HLD	28
T_NUM_SLD	77
T_NUM_ALL	756
T_JUDGE_TAP	651
T_JUDGE_HLD	56
T_JUDGE_SLD	77
T_JUDGE_ALL	784
TTM_EACHPAIRS	182
TTM_SCR_TAP	319500
TTM_SCR_BRK	31200
TTM_SCR_HLD	28000
TTM_SCR_SLD	115500
TTM_SCR_ALL	494200
TTM_SCR_S	478250
TTM_SCR_SS	493000
TTM_RAT_ACV	10024

