VERSION	0.00.00	1.03.00
FES_MODE	0
BPM_DEF	156.000	156.000	156.000	156.000
MET_DEF	4	4
RESOLUTION	384
CLK_DEF	384
COMPATIBLE_CODE	MA2

BPM	0	0	156.000
MET	0	0	4	4

STR	1	0	0
SI_	1	0	0	96	48	2
STR	1	144	6
SI_	1	144	6	96	48	4
STR	1	288	1
SI_	1	288	1	96	48	3
STR	2	48	7
SI_	2	48	7	96	48	5
STR	2	192	0
SI_	2	192	0	96	48	4
BRK	3	12	7
TAP	4	0	2
TAP	4	96	3
TAP	4	192	2
TAP	4	288	1
TAP	4	288	4
TAP	5	0	5
TAP	5	96	4
TAP	5	192	5
TAP	5	288	3
TAP	5	288	6
TAP	6	0	2
TAP	6	96	1
TAP	6	192	0
TAP	6	288	6
TAP	6	288	7
TAP	7	0	5
TAP	7	96	6
TAP	7	192	7
TAP	7	288	0
TAP	7	288	1
TAP	8	0	2
TAP	8	96	3
TAP	8	192	1
TAP	8	288	0
TAP	8	288	7
TAP	9	0	5
TAP	9	96	4
TAP	9	192	6
TAP	9	288	0
TAP	9	288	7
TAP	10	0	3
TAP	10	96	4
TAP	10	192	3
TAP	10	288	1
TAP	10	288	6
TAP	11	0	0
TAP	11	0	7
TAP	11	96	1
TAP	11	96	6
TAP	11	192	2
TAP	11	192	5
TAP	11	288	3
TAP	11	288	4
TAP	12	0	6
TAP	12	0	7
TAP	12	96	0
STR	12	96	1
SCR	12	96	1	96	120	5
HLD	13	0	6	96
TAP	13	96	7
HLD	13	192	1	96
TAP	13	288	0
HLD	14	0	5	96
TAP	14	96	4
TAP	14	192	3
TAP	14	192	6
TAP	14	288	2
TAP	14	288	7
TAP	15	0	1
TAP	15	48	0
TAP	15	96	1
TAP	15	192	6
TAP	15	240	7
TAP	15	288	6
TAP	16	0	0
TAP	16	0	1
STR	16	96	6
SCL	16	96	6	96	120	2
TAP	16	96	7
HLD	17	0	1	96
TAP	17	96	0
HLD	17	192	6	96
TAP	17	288	7
HLD	18	0	2	96
TAP	18	96	3
TAP	18	192	1
TAP	18	192	4
TAP	18	288	0
TAP	18	288	5
HLD	19	0	7	192
HLD	19	192	0	192
STR	20	0	1
SCR	20	0	1	96	144	6
TAP	20	288	0
TAP	20	288	7
TAP	21	0	4
TAP	21	0	5
STR	21	96	2
SCL	21	96	2	96	144	5
TAP	21	96	3
HLD	22	0	4	96
TAP	22	96	3
HLD	22	192	1	96
TAP	22	288	0
HLD	23	0	6	96
TAP	23	96	7
TAP	23	192	0
TAP	23	192	5
TAP	23	288	1
TAP	23	288	4
TAP	24	0	2
TAP	24	48	3
TAP	24	96	1
TAP	24	96	4
TAP	24	192	5
TAP	24	240	4
TAP	24	288	3
TAP	24	288	6
STR	25	0	7
SXR	25	0	7	96	192	4
STR	26	0	3
SXR	26	0	3	96	192	0
STR	27	0	7
SCL	27	0	7	96	192	0
TAP	28	0	4
TAP	28	0	6
TAP	28	96	1
TAP	28	96	3
BRK	28	192	2
BRK	28	192	5
TAP	29	0	3
TAP	29	0	4
TAP	29	96	1
TAP	29	144	0
TAP	29	192	2
TAP	29	192	7
TAP	29	264	1
TAP	29	264	4
STR	29	336	6
SI_	29	336	6	96	48	3
STR	29	336	7
SI_	29	336	7	96	48	2
TAP	30	144	0
TAP	30	144	1
STR	30	192	0
SI_	30	192	0	96	48	5
STR	30	192	1
SI_	30	192	1	96	48	4
TAP	31	0	6
TAP	31	48	6
TAP	31	96	3
TAP	31	144	4
HLD	31	192	1	72
HLD	31	264	3	72
TAP	31	336	4
TAP	32	48	5
TAP	32	96	5
TAP	32	144	2
TAP	32	192	2
TAP	32	240	7
TAP	32	288	0
TAP	32	288	7
TAP	33	0	3
TAP	33	0	4
TAP	33	96	6
TAP	33	144	7
TAP	33	192	0
TAP	33	192	5
TAP	33	264	3
TAP	33	264	6
STR	33	336	0
SI_	33	336	0	96	48	5
STR	33	336	1
SI_	33	336	1	96	48	4
TAP	34	144	6
TAP	34	144	7
STR	34	192	6
SI_	34	192	6	96	48	3
STR	34	192	7
SI_	34	192	7	96	48	2
TAP	35	0	1
TAP	35	48	1
TAP	35	96	4
TAP	35	144	3
HLD	35	192	6	72
HLD	35	264	7	72
TAP	35	336	0
TAP	36	48	1
TAP	36	48	6
TAP	36	96	1
TAP	36	96	6
BRK	36	192	3
BRK	36	192	7
BRK	36	288	0
BRK	36	288	4
HLD	37	0	1	96
HLD	37	0	7	96
HLD	37	144	2	96
HLD	37	144	3	96
HLD	37	288	0	96
HLD	37	288	6	96
HLD	38	48	4	96
HLD	38	48	5	96
TAP	38	192	0
TAP	38	192	7
TAP	38	288	3
TAP	38	288	4
STR	39	0	7
SI_	39	0	7	96	48	5
STR	39	144	1
SI_	39	144	1	96	48	3
STR	39	288	6
SI_	39	288	6	96	48	4
STR	40	48	0
SI_	40	48	0	96	48	2
TAP	40	192	7
TAP	40	240	6
TAP	40	288	5
TAP	40	336	4
HLD	41	0	3	384
HLD	42	0	5	384
HLD	43	0	7	384
HLD	44	0	6	384
HLD	45	0	1	384
HLD	46	0	0	384
HLD	47	0	2	384
STR	48	0	3
SCL	48	0	3	96	192	4
TAP	49	0	2
TAP	49	96	2
TAP	49	192	3
TAP	49	288	3
TAP	50	0	4
TAP	50	96	4
TAP	50	192	5
TAP	50	288	4
TAP	50	288	6
TAP	51	0	5
TAP	51	96	5
TAP	51	192	4
TAP	51	288	4
TAP	52	0	3
TAP	52	96	3
TAP	52	192	2
TAP	52	288	1
TAP	52	288	3
TAP	53	0	2
TAP	53	96	1
TAP	53	192	0
TAP	53	288	6
TAP	53	288	7
TAP	54	0	5
TAP	54	96	6
TAP	54	192	7
TAP	54	288	0
TAP	54	288	1
HLD	55	0	2	96
HLD	55	96	3	96
HLD	55	192	4	96
TAP	55	288	5
TAP	56	0	6
TAP	56	48	6
TAP	56	96	0
TAP	56	192	1
TAP	56	240	1
TAP	56	288	7
HLD	57	0	2	144
TAP	57	96	3
TAP	57	144	3
TAP	57	240	1
TAP	57	240	4
TAP	57	288	1
TAP	57	288	4
HLD	58	0	5	144
TAP	58	96	4
TAP	58	144	4
TAP	58	240	3
TAP	58	240	6
TAP	58	288	3
TAP	58	288	6
HLD	59	0	0	144
TAP	59	96	7
TAP	59	144	7
TAP	59	240	1
TAP	59	240	6
TAP	59	288	1
TAP	59	288	6
TAP	60	0	2
TAP	60	0	5
TAP	60	96	3
TAP	60	96	4
STR	60	192	1
SCR	60	192	1	96	48	3
STR	60	192	6
SCL	60	192	6	96	48	4
TAP	61	0	0
TAP	61	48	7
TAP	61	96	0
TAP	61	144	7
TAP	61	192	2
TAP	61	240	6
TAP	61	288	2
TAP	61	336	6
TAP	62	0	1
TAP	62	48	5
TAP	62	96	1
TAP	62	144	5
TAP	62	192	3
TAP	62	240	4
TAP	62	288	3
TAP	62	336	4
TAP	63	0	1
TAP	63	48	5
TAP	63	96	1
TAP	63	144	5
TAP	63	192	2
TAP	63	240	6
TAP	63	288	2
TAP	63	336	6
TAP	64	0	0
TAP	64	0	7
TAP	64	144	1
TAP	64	144	3
TAP	64	288	4
TAP	64	288	6
BRK	65	0	0
BRK	65	0	7
TAP	65	336	3
TAP	65	336	4
TAP	66	0	2
TAP	66	0	3
TAP	66	72	0
TAP	66	72	5
TAP	66	144	3
TAP	66	144	4
TAP	66	192	4
TAP	66	192	5
TAP	66	252	2
TAP	66	252	7
TAP	67	0	0
TAP	67	48	7
TAP	67	96	1
TAP	67	144	6
HLD	67	192	2	72
HLD	67	264	3	72
TAP	67	336	4
TAP	68	48	6
TAP	68	96	7
TAP	68	144	6
TAP	68	240	3
TAP	68	240	4
TAP	68	288	3
TAP	68	288	4
TAP	69	0	0
TAP	69	0	7
TAP	69	96	1
TAP	69	144	0
TAP	69	192	1
TAP	69	264	3
TAP	69	264	4
HLD	69	336	5	96
TAP	70	48	7
TAP	70	144	2
HLD	70	192	2	72
TAP	70	264	0
TAP	71	0	7
TAP	71	48	0
TAP	71	96	6
TAP	71	144	1
HLD	71	192	5	72
HLD	71	264	4	72
TAP	71	336	3
TAP	72	48	1
TAP	72	48	6
TAP	72	96	1
TAP	72	96	6
STR	72	192	3
SXR	72	192	3	96	48	1
STR	72	192	4
SXL	72	192	4	96	48	6
TAP	73	0	0
TAP	73	0	7
TAP	73	96	2
TAP	73	144	3
TAP	73	192	1
TAP	73	192	4
TAP	73	264	2
TAP	73	264	7
STR	73	336	4
SI_	73	336	4	96	48	1
STR	73	336	5
SI_	73	336	5	96	48	0
TAP	74	144	2
TAP	74	144	3
STR	74	192	2
SI_	74	192	2	96	48	7
STR	74	192	3
SI_	74	192	3	96	48	6
TAP	75	0	5
TAP	75	48	0
TAP	75	96	7
TAP	75	144	2
HLD	75	192	4	72
HLD	75	264	1	72
TAP	75	336	0
TAP	76	48	6
TAP	76	96	6
TAP	76	144	3
TAP	76	192	4
TAP	76	240	1
TAP	76	288	1
TAP	77	0	0
TAP	77	0	7
TAP	77	96	5
TAP	77	144	4
TAP	77	192	3
TAP	77	192	6
TAP	77	264	0
TAP	77	264	5
STR	77	336	2
SI_	77	336	2	96	48	7
STR	77	336	3
SI_	77	336	3	96	48	6
TAP	78	144	4
TAP	78	144	5
STR	78	192	4
SI_	78	192	4	96	48	1
STR	78	192	5
SI_	78	192	5	96	48	0
TAP	79	0	2
TAP	79	48	7
TAP	79	96	0
TAP	79	144	5
HLD	79	192	3	72
HLD	79	264	6	72
TAP	79	336	7
TAP	80	48	1
STR	80	96	1
SI_	80	96	1	96	48	5
BST	80	192	6
SI_	80	192	6	96	48	2
BRK	80	288	0
HLD	81	0	1	144
HLD	81	144	3	144
HLD	81	288	4	144
HLD	82	48	6	144
HLD	82	192	0	144
HLD	82	336	7	144
TAP	83	96	0
TAP	83	192	2
TAP	83	240	3
TAP	83	288	4
TAP	83	336	5
HLD	84	0	0	96
HLD	84	0	6	96
HLD	84	144	4	96
HLD	84	144	5	96
HLD	84	288	1	96
HLD	84	288	7	96
HLD	85	48	2	96
HLD	85	48	3	96
STR	85	192	0
SCR	85	192	0	96	48	2
STR	85	192	7
SCL	85	192	7	96	48	5
HLD	86	0	1	144
HLD	86	0	6	144
TAP	86	192	0
TAP	86	192	7
TAP	86	264	1
TAP	86	264	6
BRK	86	336	3
BRK	86	336	4

T_REC_TAP	318
T_REC_BRK	12
T_REC_XTP	0
T_REC_HLD	62
T_REC_XHO	0
T_REC_STR	40
T_REC_BST	1
T_REC_XST	0
T_REC_TTP	0
T_REC_THO	0
T_REC_SLD	41
T_REC_ALL	474
T_NUM_TAP	358
T_NUM_BRK	13
T_NUM_HLD	62
T_NUM_SLD	41
T_NUM_ALL	474
T_JUDGE_TAP	371
T_JUDGE_HLD	181
T_JUDGE_SLD	41
T_JUDGE_ALL	593
TTM_EACHPAIRS	103
TTM_SCR_TAP	179000
TTM_SCR_BRK	33800
TTM_SCR_HLD	62000
TTM_SCR_SLD	61500
TTM_SCR_ALL	336300
TTM_SCR_S	324950
TTM_SCR_SS	335000
TTM_RAT_ACV	10038

