VERSION	0.00.00	1.03.00
FES_MODE	0
BPM_DEF	156.000	156.000	156.000	156.000
MET_DEF	4	4
RESOLUTION	384
CLK_DEF	384
COMPATIBLE_CODE	MA2

BPM	0	0	156.000
MET	0	0	4	4

TAP	4	0	0
TAP	4	96	1
TAP	4	192	2
TAP	4	192	3
TAP	5	0	7
TAP	5	96	6
TAP	5	192	4
TAP	5	192	5
TAP	6	0	0
TAP	6	96	1
TAP	6	192	2
TAP	6	192	3
TAP	7	0	7
TAP	7	96	6
TAP	7	192	5
TAP	7	288	3
TAP	7	288	4
TAP	8	0	3
TAP	8	96	2
TAP	8	192	0
TAP	8	192	1
TAP	9	0	4
TAP	9	96	5
TAP	9	192	6
TAP	9	192	7
TAP	10	0	3
TAP	10	96	2
TAP	10	192	1
TAP	10	288	0
STR	10	288	7
SXR	10	288	7	96	288	4
TAP	12	0	5
TAP	12	96	4
TAP	12	192	2
TAP	12	192	3
TAP	13	0	2
TAP	13	96	3
TAP	13	192	4
TAP	13	192	5
TAP	14	0	5
TAP	14	96	4
TAP	14	192	3
TAP	14	288	2
TAP	14	288	3
TAP	15	0	4
TAP	15	96	3
TAP	15	96	5
TAP	15	192	3
TAP	15	288	2
TAP	15	288	4
TAP	16	0	1
TAP	16	96	0
TAP	16	192	6
TAP	16	192	7
TAP	17	0	6
TAP	17	96	7
TAP	17	192	0
TAP	17	192	1
TAP	18	0	0
TAP	18	96	7
TAP	18	192	0
TAP	18	288	1
TAP	18	288	6
TAP	19	0	7
TAP	19	96	0
TAP	19	96	6
TAP	19	192	0
TAP	19	288	1
TAP	19	288	7
STR	20	0	0
SCR	20	0	0	96	192	3
TAP	21	0	6
TAP	21	96	5
TAP	21	192	3
TAP	21	192	4
TAP	22	0	1
TAP	22	96	2
TAP	22	192	3
TAP	22	192	4
TAP	23	0	6
TAP	23	96	5
TAP	23	192	3
TAP	23	192	4
TAP	24	0	3
TAP	24	96	2
TAP	24	96	4
TAP	24	192	4
TAP	24	288	3
TAP	24	288	5
STR	25	0	5
SCR	25	0	5	96	192	0
STR	26	0	1
SCR	26	0	1	96	192	4
STR	27	0	4
SI_	27	0	4	96	192	0
TAP	28	0	0
TAP	28	96	0
BRK	28	192	0
BRK	28	192	7
TAP	29	0	2
TAP	29	96	3
TAP	29	192	1
TAP	29	192	4
TAP	29	288	1
TAP	29	288	4
TAP	30	0	5
TAP	30	96	4
TAP	30	192	3
TAP	30	192	6
TAP	30	288	3
TAP	30	288	6
TAP	31	0	0
TAP	31	96	7
TAP	31	192	1
TAP	31	192	6
TAP	31	288	1
STR	31	288	6
SXL	31	288	6	96	288	1
TAP	33	0	1
TAP	33	96	0
TAP	33	192	2
TAP	33	192	7
TAP	33	288	2
TAP	33	288	7
TAP	34	0	6
TAP	34	96	7
TAP	34	192	0
TAP	34	192	5
TAP	34	288	0
TAP	34	288	5
TAP	35	0	5
TAP	35	96	4
TAP	35	192	3
TAP	35	288	2
TAP	36	0	1
TAP	36	96	0
BRK	36	192	7
BRK	36	288	7
TAP	37	0	1
TAP	37	96	2
TAP	37	192	3
TAP	37	288	6
TAP	38	0	5
TAP	38	96	4
TAP	38	192	3
TAP	38	192	4
TAP	38	288	3
TAP	38	288	4
STR	39	0	3
SCR	39	0	3	96	480	1
STR	41	0	1
SI_	41	0	1	96	192	4
STR	42	0	5
SI_	42	0	5	96	192	0
STR	43	0	7
SI_	43	0	7	96	192	2
STR	44	0	3
SI_	44	0	3	96	192	6
STR	45	0	5
SCR	45	0	5	96	192	0
STR	46	0	1
SCR	46	0	1	96	192	4
STR	47	0	3
SCR	47	0	3	96	192	6
STR	48	0	7
SCR	48	0	7	96	192	2
HLD	49	0	2	192
HLD	49	192	3	192
HLD	50	0	4	192
TAP	50	192	5
HLD	51	0	5	192
HLD	51	192	4	192
HLD	52	0	3	192
TAP	52	192	2
HLD	53	0	1	192
HLD	53	192	0	192
HLD	54	0	7	192
TAP	54	192	6
HLD	55	0	6	192
HLD	55	192	7	192
HLD	56	0	0	192
TAP	56	192	1
HLD	57	0	2	192
HLD	57	192	3	192
HLD	58	0	4	192
HLD	58	192	5	192
HLD	59	0	4	192
HLD	59	192	3	192
HLD	60	0	2	192
TAP	60	192	3
TAP	61	0	3
TAP	61	0	4
TAP	61	96	3
TAP	61	96	4
TAP	61	192	3
TAP	61	192	5
TAP	61	288	3
TAP	61	288	5
TAP	62	0	3
TAP	62	0	4
TAP	62	96	3
TAP	62	96	4
TAP	62	192	2
TAP	62	192	4
TAP	62	288	2
TAP	62	288	4
TAP	63	0	1
TAP	63	0	6
TAP	64	0	0
TAP	64	0	7
TAP	64	144	0
TAP	64	144	7
TAP	64	288	0
TAP	64	288	7
TAP	65	0	1
TAP	65	96	0
TAP	65	192	2
TAP	65	192	7
TAP	65	288	2
TAP	65	288	7
TAP	66	0	6
TAP	66	96	7
TAP	66	192	0
TAP	66	192	5
TAP	66	288	0
TAP	66	288	5
TAP	67	0	2
TAP	67	0	3
TAP	67	96	1
TAP	67	96	4
TAP	67	192	4
TAP	67	192	5
TAP	67	288	3
TAP	67	288	6
TAP	68	0	6
TAP	68	0	7
TAP	68	96	0
TAP	68	96	5
TAP	68	192	0
TAP	68	192	1
TAP	68	288	2
TAP	68	288	7
TAP	69	0	6
TAP	69	96	7
TAP	69	192	0
TAP	69	192	5
TAP	69	288	0
TAP	69	288	5
TAP	70	0	1
TAP	70	96	0
TAP	70	192	2
TAP	70	192	7
TAP	70	288	2
TAP	70	288	7
HLD	71	0	2	96
HLD	71	0	3	96
HLD	71	192	4	96
HLD	71	192	5	96
HLD	72	0	1	96
HLD	72	0	6	96
BRK	72	192	7
BRK	72	288	7
TAP	73	0	7
TAP	73	96	0
TAP	73	96	6
TAP	73	192	0
TAP	73	288	1
TAP	73	288	7
TAP	74	0	7
TAP	74	96	0
TAP	74	96	6
TAP	74	192	0
TAP	74	288	1
TAP	74	288	7
TAP	75	0	6
TAP	75	96	5
TAP	75	96	7
TAP	75	192	1
TAP	75	288	0
TAP	75	288	2
TAP	76	0	6
TAP	76	96	5
TAP	76	96	7
TAP	76	192	1
TAP	76	288	0
TAP	76	288	2
TAP	77	0	0
TAP	77	0	7
TAP	77	96	6
TAP	77	96	7
TAP	77	192	0
TAP	77	192	7
TAP	77	288	0
TAP	77	288	1
TAP	78	0	0
TAP	78	96	7
TAP	78	192	1
TAP	78	192	6
TAP	78	288	1
TAP	78	288	6
HLD	79	0	6	96
TAP	79	0	7
TAP	79	96	7
TAP	79	192	0
HLD	79	192	1	96
TAP	79	288	0
TAP	80	0	2
TAP	80	0	5
TAP	80	96	3
TAP	80	96	4
BRK	80	192	3
BRK	80	288	3
STR	81	0	4
SCR	81	0	4	96	192	7
STR	82	0	3
SCL	82	0	3	96	192	0
STR	83	0	3
SI_	83	0	3	96	192	0
STR	83	0	4
SI_	83	0	4	96	192	7
STR	84	0	0
SXL	84	0	0	96	576	3
STR	84	0	7
SXR	84	0	7	96	576	4
TAP	86	0	2
TAP	86	0	5
TAP	86	96	1
TAP	86	96	6
HLD	86	192	0	96
HLD	86	192	7	96
TAP	86	336	1
TAP	86	336	6

T_REC_TAP	253
T_REC_BRK	8
T_REC_XTP	0
T_REC_HLD	29
T_REC_XHO	0
T_REC_STR	21
T_REC_BST	0
T_REC_XST	0
T_REC_TTP	0
T_REC_THO	0
T_REC_SLD	21
T_REC_ALL	332
T_NUM_TAP	274
T_NUM_BRK	8
T_NUM_HLD	29
T_NUM_SLD	21
T_NUM_ALL	332
T_JUDGE_TAP	282
T_JUDGE_HLD	96
T_JUDGE_SLD	21
T_JUDGE_ALL	399
TTM_EACHPAIRS	90
TTM_SCR_TAP	137000
TTM_SCR_BRK	20800
TTM_SCR_HLD	29000
TTM_SCR_SLD	31500
TTM_SCR_ALL	218300
TTM_SCR_S	211000
TTM_SCR_SS	217500
TTM_RAT_ACV	10036

