VERSION	0.00.00	1.03.00
FES_MODE	0
BPM_DEF	156.000	156.000	156.000	156.000
MET_DEF	4	4
RESOLUTION	384
CLK_DEF	384
COMPATIBLE_CODE	MA2

BPM	0	0	156.000
MET	0	0	4	4

TAP	4	0	0
TAP	4	192	0
TAP	5	0	1
TAP	5	192	1
TAP	6	0	2
TAP	6	192	2
TAP	7	0	3
TAP	7	192	3
TAP	7	192	4
TAP	8	0	4
TAP	8	192	4
TAP	9	0	5
TAP	9	192	5
TAP	10	0	6
TAP	10	192	6
TAP	11	0	7
TAP	11	192	0
TAP	11	192	7
TAP	12	0	1
TAP	12	192	1
TAP	13	0	2
TAP	13	192	2
TAP	14	0	3
TAP	14	192	3
TAP	15	0	4
TAP	15	0	5
TAP	15	192	2
TAP	15	192	3
TAP	16	0	5
TAP	16	192	5
TAP	17	0	6
TAP	17	192	6
TAP	18	0	7
TAP	18	192	7
TAP	19	0	0
TAP	19	0	1
TAP	19	192	6
TAP	19	192	7
BRK	20	0	0
TAP	21	0	7
TAP	21	192	6
TAP	22	0	5
TAP	22	192	3
TAP	22	192	4
TAP	23	0	2
TAP	23	192	1
TAP	24	0	0
TAP	24	96	0
TAP	24	192	7
TAP	24	288	7
TAP	25	0	0
TAP	25	192	1
TAP	26	0	2
TAP	26	192	3
TAP	26	192	4
TAP	27	0	5
TAP	27	192	6
TAP	28	0	7
TAP	28	96	7
TAP	28	192	7
TAP	29	0	0
TAP	29	96	0
TAP	29	192	0
TAP	30	0	1
TAP	30	96	1
TAP	30	192	1
TAP	31	0	2
TAP	31	96	2
TAP	31	192	2
TAP	32	0	3
TAP	32	96	4
TAP	32	192	3
TAP	33	0	4
TAP	33	96	4
TAP	33	192	4
TAP	34	0	5
TAP	34	96	5
TAP	34	192	5
TAP	35	0	6
TAP	35	96	6
TAP	35	192	6
TAP	36	0	7
TAP	36	96	7
TAP	36	192	0
TAP	36	288	0
STR	37	0	7
SI_	37	0	7	96	288	4
STR	39	0	0
SI_	39	0	0	96	288	3
HLD	41	0	4	384
HLD	43	0	3	384
HLD	45	0	5	384
HLD	47	0	2	384
TAP	49	0	4
TAP	50	0	4
TAP	51	0	3
TAP	52	0	3
TAP	53	0	5
TAP	54	0	5
TAP	55	0	2
TAP	56	0	2
STR	57	0	5
SI_	57	0	5	96	288	1
STR	59	0	2
SI_	59	0	2	96	288	6
TAP	61	0	7
TAP	61	192	6
TAP	62	0	5
TAP	62	192	4
TAP	63	0	3
TAP	63	192	2
HLD	64	0	1	192
BRK	65	0	0
BRK	66	0	7
TAP	67	0	1
TAP	67	96	1
TAP	67	192	2
TAP	68	0	2
TAP	68	96	2
TAP	68	192	2
TAP	68	192	3
TAP	69	0	3
TAP	69	96	3
TAP	69	192	4
TAP	70	0	4
TAP	70	96	4
TAP	70	192	5
TAP	71	0	5
TAP	71	96	5
TAP	71	192	6
TAP	72	0	6
TAP	72	96	6
TAP	72	192	0
TAP	72	192	7
TAP	72	288	0
TAP	72	288	7
TAP	73	0	7
TAP	73	96	7
TAP	73	192	6
TAP	74	0	6
TAP	74	96	6
TAP	74	192	5
TAP	75	0	5
TAP	75	96	5
TAP	75	192	4
TAP	76	0	3
TAP	76	96	4
TAP	76	192	3
TAP	77	0	4
TAP	77	96	4
TAP	77	192	3
TAP	78	0	3
TAP	78	96	3
TAP	78	192	2
TAP	79	0	2
TAP	79	96	2
TAP	79	192	1
TAP	80	0	1
TAP	80	96	1
TAP	80	192	0
TAP	80	192	7
TAP	80	288	0
TAP	80	288	7
TAP	81	0	0
TAP	81	192	1
TAP	82	0	2
TAP	82	192	3
TAP	83	0	4
TAP	83	192	5
STR	84	0	6
SI_	84	0	6	96	288	1
STR	86	0	2
SI_	86	0	2	96	288	5

T_REC_TAP	153
T_REC_BRK	3
T_REC_XTP	0
T_REC_HLD	5
T_REC_XHO	0
T_REC_STR	6
T_REC_BST	0
T_REC_XST	0
T_REC_TTP	0
T_REC_THO	0
T_REC_SLD	6
T_REC_ALL	173
T_NUM_TAP	159
T_NUM_BRK	3
T_NUM_HLD	5
T_NUM_SLD	6
T_NUM_ALL	173
T_JUDGE_TAP	162
T_JUDGE_HLD	36
T_JUDGE_SLD	6
T_JUDGE_ALL	204
TTM_EACHPAIRS	13
TTM_SCR_TAP	79500
TTM_SCR_BRK	7800
TTM_SCR_HLD	5000
TTM_SCR_SLD	9000
TTM_SCR_ALL	101300
TTM_SCR_S	98000
TTM_SCR_SS	101000
TTM_RAT_ACV	10029

