VERSION	0.00.00	1.03.00
FES_MODE	0
BPM_DEF	185.000	185.000	185.000	185.000
MET_DEF	4	4
RESOLUTION	384
CLK_DEF	384
COMPATIBLE_CODE	MA2

BPM	0	0	185.000
MET	0	0	4	4

STR	3	0	2
SI_	3	0	2	96	48	7
STR	3	0	4
SI_	3	0	4	96	48	7
STR	3	192	1
SI_	3	192	1	96	48	5
STR	3	192	5
SI_	3	192	5	96	48	1
STR	4	0	1
SI_	4	0	1	96	48	3
STR	4	0	7
SI_	4	0	7	96	48	5
STR	4	192	1
SI_	4	192	1	96	48	4
STR	4	192	7
SI_	4	192	7	96	48	4
STR	5	0	3
SV_	5	0	3	96	48	0
SV_	5	0	3	96	48	6
STR	5	192	4
SV_	5	192	4	96	48	1
SV_	5	192	4	96	48	7
STR	6	0	0
SV_	6	0	0	96	48	3
SV_	6	0	0	96	48	6
STR	6	192	7
SV_	6	192	7	96	48	1
SV_	6	192	7	96	48	4
HLD	7	0	2	336
TAP	7	0	4
TAP	7	48	4
TAP	7	96	5
TAP	7	144	5
TAP	7	192	6
TAP	7	240	6
TAP	7	288	7
TAP	7	336	7
HLD	8	0	1	336
TAP	8	0	3
TAP	8	48	3
TAP	8	96	4
TAP	8	144	4
TAP	8	192	5
TAP	8	240	5
TAP	8	288	6
TAP	8	336	6
HLD	9	0	0	144
TAP	9	0	3
TAP	9	48	3
TAP	9	96	5
TAP	9	144	5
TAP	9	192	2
TAP	9	216	6
TAP	9	240	2
TAP	9	264	6
TAP	9	288	1
TAP	9	312	5
TAP	9	336	1
TAP	9	360	5
TAP	10	0	0
TAP	10	24	4
TAP	10	48	0
TAP	10	72	4
STR	10	96	0
SI_	10	96	0	96	48	4
TAP	10	120	4
TAP	10	144	0
TAP	10	192	0
STR	10	192	4
SF_	10	192	4	96	48	0
BRK	10	288	4
TAP	11	0	4
TAP	11	0	6
TAP	11	48	5
STR	11	96	1
SCL	11	96	1	96	48	6
TAP	11	96	3
TAP	11	144	2
TAP	11	192	5
TAP	11	216	5
TAP	11	264	4
TAP	11	312	3
TAP	11	336	4
TAP	12	0	3
TAP	12	0	5
TAP	12	24	3
TAP	12	24	5
TAP	12	96	4
STR	12	96	6
SCR	12	96	6	96	48	1
TAP	12	144	5
TAP	12	192	2
TAP	12	216	2
TAP	12	264	3
TAP	12	312	4
TAP	12	336	3
TAP	13	0	1
TAP	13	0	3
TAP	13	48	2
TAP	13	96	4
STR	13	96	6
SCR	13	96	6	96	48	1
TAP	13	144	5
TAP	13	192	2
TAP	13	216	2
TAP	13	264	3
TAP	13	312	4
TAP	13	336	3
TAP	14	0	2
TAP	14	0	4
TAP	14	24	2
TAP	14	24	4
STR	14	96	1
SCL	14	96	1	96	48	6
TAP	14	96	3
TAP	14	144	2
TAP	14	192	5
TAP	14	216	5
TAP	14	264	4
TAP	14	312	3
TAP	14	336	4
TAP	15	0	1
TAP	15	0	3
TAP	15	48	2
TAP	15	96	4
STR	15	96	6
SCR	15	96	6	96	48	1
TAP	15	144	5
TAP	15	192	2
TAP	15	216	2
TAP	15	264	3
TAP	15	312	4
TAP	15	336	3
TAP	16	0	2
TAP	16	0	4
TAP	16	24	2
TAP	16	24	4
STR	16	96	1
SCL	16	96	1	96	48	6
TAP	16	96	3
TAP	16	144	2
TAP	16	192	5
TAP	16	216	5
TAP	16	264	4
TAP	16	312	3
TAP	16	336	4
TAP	17	0	4
TAP	17	0	6
TAP	17	48	5
TAP	17	96	1
TAP	17	96	3
TAP	17	144	2
TAP	17	192	5
TAP	17	192	7
TAP	17	240	6
TAP	17	288	0
TAP	17	288	2
TAP	17	336	1
TAP	18	0	2
STR	18	0	5
SCR	18	0	5	96	48	0
STR	18	96	1
SCR	18	96	1	96	48	4
TAP	18	192	7
TAP	18	216	7
TAP	18	264	1
TAP	18	264	6
TAP	18	312	3
TAP	18	336	4
BRK	19	0	1
BRK	19	0	4
TAP	19	48	2
TAP	19	96	3
STR	19	96	6
SCR	19	96	6	96	48	1
TAP	19	144	5
TAP	19	192	2
TAP	19	216	2
TAP	19	264	3
TAP	19	312	6
TAP	19	336	4
TAP	20	0	3
TAP	20	0	5
TAP	20	24	3
TAP	20	24	5
STR	20	96	1
SCL	20	96	1	96	48	6
TAP	20	96	4
TAP	20	144	2
TAP	20	192	5
TAP	20	216	5
TAP	20	264	4
TAP	20	312	1
TAP	20	336	3
TAP	21	0	1
TAP	21	0	4
TAP	21	48	2
TAP	21	96	3
STR	21	96	6
SCR	21	96	6	96	48	1
TAP	21	144	5
TAP	21	192	2
TAP	21	216	2
TAP	21	264	3
TAP	21	312	6
TAP	21	336	4
TAP	22	0	3
TAP	22	0	5
TAP	22	24	3
TAP	22	24	5
TAP	22	96	1
TAP	22	96	4
TAP	22	144	2
TAP	22	192	3
TAP	22	192	4
TAP	22	264	1
TAP	22	264	3
TAP	22	336	4
TAP	22	336	6
TAP	23	0	1
TAP	23	0	4
TAP	23	48	2
TAP	23	96	4
STR	23	96	6
SCR	23	96	6	96	48	1
TAP	23	144	5
TAP	23	192	2
TAP	23	216	2
TAP	23	264	3
TAP	23	312	6
TAP	23	336	4
TAP	24	0	3
TAP	24	0	5
TAP	24	24	3
TAP	24	24	5
STR	24	96	1
SCL	24	96	1	96	48	6
TAP	24	96	3
TAP	24	144	2
TAP	24	192	5
TAP	24	216	5
TAP	24	264	4
TAP	24	312	1
TAP	24	336	3
TAP	25	0	4
TAP	25	0	6
TAP	25	48	5
TAP	25	96	1
TAP	25	96	3
TAP	25	144	2
TAP	25	192	5
TAP	25	192	7
TAP	25	240	6
TAP	25	288	0
TAP	25	288	2
TAP	25	336	1
TAP	26	0	2
TAP	26	0	5
TAP	26	96	3
TAP	26	96	4
TAP	26	144	2
TAP	26	144	5
STR	26	192	0
SI_	26	192	0	96	48	4
STR	26	192	7
SI_	26	192	7	96	48	3
TAP	26	216	1
TAP	26	216	6
TAP	26	240	2
TAP	26	240	5
BRK	26	288	0
BRK	26	288	7
STR	27	0	1
SCR	27	0	1	96	48	4
STR	27	0	4
SI_	27	0	4	96	48	0
TAP	27	48	0
TAP	27	48	3
STR	27	192	3
SI_	27	192	3	96	48	7
STR	27	192	6
SCL	27	192	6	96	48	3
TAP	27	240	4
TAP	27	240	7
TAP	28	0	2
TAP	28	24	3
TAP	28	48	2
TAP	28	72	1
STR	28	96	2
SI_	28	96	2	96	48	0
TAP	28	120	3
TAP	28	144	2
TAP	28	168	1
STR	28	192	2
SI_	28	192	2	96	48	4
SI_	28	192	2	96	48	6
STR	29	0	2
SI_	29	0	2	96	48	7
STR	29	0	6
SI_	29	0	6	96	48	4
TAP	29	48	1
TAP	29	48	5
STR	29	192	1
SI_	29	192	1	96	48	3
STR	29	192	5
SI_	29	192	5	96	48	0
TAP	29	240	2
TAP	29	240	6
STR	30	0	7
SI_	30	0	7	96	48	3
TAP	30	48	6
STR	30	96	0
SI_	30	96	0	96	48	4
TAP	30	144	1
STR	30	192	6
SI_	30	192	6	96	48	3
TAP	30	240	7
TAP	30	288	0
TAP	30	336	0
STR	31	0	3
SI_	31	0	3	96	48	7
STR	31	0	6
SCL	31	0	6	96	48	3
TAP	31	48	4
TAP	31	48	7
STR	31	192	1
SCR	31	192	1	96	48	4
STR	31	192	4
SI_	31	192	4	96	48	0
TAP	31	240	0
TAP	31	240	3
TAP	32	0	5
TAP	32	24	4
TAP	32	48	5
TAP	32	72	6
STR	32	96	5
SI_	32	96	5	96	48	7
TAP	32	120	4
TAP	32	144	5
TAP	32	168	6
STR	32	192	5
SI_	32	192	5	96	48	1
SI_	32	192	5	96	48	3
STR	33	0	1
SI_	33	0	1	96	48	3
STR	33	0	5
SI_	33	0	5	96	48	0
TAP	33	48	2
TAP	33	48	6
STR	33	192	2
SI_	33	192	2	96	48	7
STR	33	192	6
SI_	33	192	6	96	48	4
TAP	33	240	1
TAP	33	240	5
STR	34	0	0
SI_	34	0	0	96	48	4
TAP	34	48	1
STR	34	96	7
SI_	34	96	7	96	48	3
TAP	34	144	6
STR	34	192	0
SF_	34	192	0	96	48	4
TAP	34	240	1
TAP	35	0	0
TAP	35	0	6
TAP	35	48	3
TAP	35	96	1
TAP	35	96	7
TAP	35	144	4
STR	35	192	3
SI_	35	192	3	96	48	7
STR	35	192	7
SI_	35	192	7	96	48	3
TAP	35	216	2
TAP	35	216	6
TAP	35	240	1
TAP	35	240	5
HLD	36	0	1	48
HLD	36	0	5	48
HLD	36	72	3	48
HLD	36	72	7	48
TAP	36	144	1
TAP	36	144	5
STR	36	192	3
SI_	36	192	3	96	48	0
STR	36	192	7
SI_	36	192	7	96	48	4
TAP	36	216	2
TAP	36	216	6
TAP	36	240	1
TAP	36	240	5
STR	37	0	0
SCR	37	0	0	96	48	3
STR	37	0	7
SCL	37	0	7	96	48	4
TAP	37	48	1
TAP	37	48	6
TAP	37	96	0
TAP	37	96	7
TAP	37	192	0
TAP	37	192	7
TAP	37	216	0
TAP	37	216	7
TAP	37	240	0
TAP	37	240	7
STR	37	288	1
SI_	37	288	1	96	48	6
STR	37	288	6
SI_	37	288	6	96	48	1
TAP	37	336	2
TAP	37	336	5
STR	38	0	1
SCR	38	0	1	96	48	3
STR	38	0	6
SCL	38	0	6	96	48	4
TAP	38	192	1
TAP	38	192	3
TAP	38	264	3
TAP	38	264	4
TAP	38	336	4
TAP	38	336	6
TAP	39	0	1
TAP	39	0	7
TAP	39	48	4
TAP	39	96	0
TAP	39	96	6
TAP	39	144	3
STR	39	192	0
SI_	39	192	0	96	48	4
STR	39	192	4
SI_	39	192	4	96	48	0
TAP	39	216	1
TAP	39	216	5
TAP	39	240	2
TAP	39	240	6
HLD	40	0	2	48
HLD	40	0	6	48
HLD	40	72	0	48
HLD	40	72	4	48
TAP	40	144	2
TAP	40	144	6
STR	40	192	0
SI_	40	192	0	96	48	3
STR	40	192	4
SI_	40	192	4	96	48	7
TAP	40	216	1
TAP	40	216	5
TAP	40	240	2
TAP	40	240	6
TAP	41	0	0
TAP	41	0	6
TAP	41	48	3
TAP	41	96	1
TAP	41	96	7
TAP	41	144	4
TAP	41	192	7
TAP	41	216	3
TAP	41	240	7
TAP	41	264	3
STR	41	288	7
SI_	41	288	7	96	48	3
TAP	41	312	3
TAP	41	336	7
STR	42	0	3
SF_	42	0	3	96	48	7
TAP	42	0	7
TAP	42	96	3
STR	42	192	1
SI_	42	192	1	96	48	4
STR	42	192	5
SI_	42	192	5	96	48	0
TAP	42	240	2
TAP	42	240	6
BRK	42	288	1
BRK	42	288	5
BRK	43	0	2
BRK	43	0	6
HLD	47	0	2	576
TAP	47	96	4
TAP	47	168	4
TAP	47	240	3
TAP	47	288	3
TAP	48	0	4
TAP	48	72	4
TAP	48	144	3
TAP	48	192	3
TAP	48	216	2
TAP	48	288	2
TAP	48	288	4
HLD	49	0	5	576
TAP	49	96	3
TAP	49	168	3
TAP	49	240	4
TAP	49	288	4
TAP	50	0	3
TAP	50	72	3
TAP	50	144	4
TAP	50	192	4
TAP	50	216	5
TAP	50	288	3
TAP	50	288	5
STR	51	0	6
SI_	51	0	6	96	24	4
STR	51	48	3
SI_	51	48	3	96	24	1
TAP	51	192	4
TAP	51	216	2
TAP	51	240	5
TAP	51	264	3
TAP	51	288	6
TAP	51	312	4
TAP	51	336	7
STR	52	0	1
SI_	52	0	1	96	24	3
STR	52	48	4
SI_	52	48	4	96	24	6
TAP	52	192	3
TAP	52	216	5
TAP	52	240	2
TAP	52	264	4
TAP	52	288	1
TAP	52	312	3
TAP	52	336	0
STR	53	0	6
SI_	53	0	6	96	24	4
STR	53	48	3
SI_	53	48	3	96	24	1
TAP	53	192	4
TAP	53	216	2
TAP	53	240	4
TAP	53	264	2
TAP	53	288	5
TAP	53	312	3
STR	53	336	6
SCL	53	336	6	96	96	2
STR	54	48	2
SCL	54	48	2	96	96	6
STR	54	144	6
SCL	54	144	6	96	96	2
TAP	54	240	2
TAP	54	336	1
STR	55	0	1
SI_	55	0	1	96	24	3
STR	55	48	4
SI_	55	48	4	96	24	6
TAP	55	192	3
TAP	55	216	5
TAP	55	240	2
TAP	55	264	4
TAP	55	288	1
TAP	55	312	3
TAP	55	336	0
STR	56	0	6
SI_	56	0	6	96	24	4
STR	56	48	3
SI_	56	48	3	96	24	1
TAP	56	192	4
TAP	56	216	2
TAP	56	240	5
TAP	56	264	3
TAP	56	288	6
TAP	56	312	4
TAP	56	336	7
STR	57	0	1
SI_	57	0	1	96	24	3
STR	57	48	4
SI_	57	48	4	96	24	6
TAP	57	192	3
TAP	57	216	5
TAP	57	240	3
TAP	57	264	5
TAP	57	288	2
TAP	57	312	4
STR	57	336	1
SCL	57	336	1	96	96	5
STR	58	48	5
SCL	58	48	5	96	96	1
TAP	58	144	1
TAP	58	240	7
TAP	58	288	0
TAP	58	288	7
TAP	59	0	3
HLD	59	0	5	48
TAP	59	72	4
HLD	59	72	6	48
TAP	59	144	5
TAP	59	144	7
TAP	59	192	0
TAP	59	192	7
HLD	59	288	2	48
TAP	59	288	4
HLD	59	360	1	48
TAP	59	360	3
HLD	60	48	0	48
TAP	60	48	2
TAP	60	120	1
TAP	60	120	7
TAP	60	240	3
TAP	60	240	4
TAP	60	336	4
TAP	60	360	3
HLD	61	0	2	48
TAP	61	0	4
TAP	61	72	1
HLD	61	72	3	48
TAP	61	144	0
TAP	61	144	2
TAP	61	192	0
TAP	61	192	7
TAP	61	288	3
HLD	61	288	5	48
HLD	61	360	4	48
TAP	61	360	6
TAP	62	48	5
HLD	62	48	7	48
TAP	62	120	0
HLD	62	120	6	48
HLD	62	192	1	48
TAP	62	192	7
TAP	62	264	0
HLD	62	264	2	48
HLD	62	336	1	48
TAP	62	336	3
TAP	63	24	2
TAP	63	24	4
TAP	63	144	3
TAP	63	168	4
TAP	63	192	3
HLD	63	192	5	48
HLD	63	264	4	48
TAP	63	264	6
HLD	63	336	5	48
HLD	63	336	7	48
TAP	64	48	3
HLD	64	48	5	48
HLD	64	120	2	48
TAP	64	120	4
TAP	64	192	1
HLD	64	192	3	48
HLD	64	264	0	48
TAP	64	264	2
TAP	64	336	1
TAP	64	336	7
TAP	65	0	2
TAP	65	24	2
TAP	65	48	4
TAP	65	72	4
TAP	65	96	3
TAP	65	120	3
TAP	65	144	5
TAP	65	168	5
TAP	65	192	2
TAP	65	216	2
TAP	65	240	4
TAP	65	264	4
TAP	65	288	3
TAP	65	312	3
TAP	65	336	5
TAP	65	360	5
TAP	66	0	2
TAP	66	24	2
TAP	66	48	3
TAP	66	72	3
TAP	66	96	4
TAP	66	120	4
TAP	66	144	5
TAP	66	168	5
TAP	66	192	2
TAP	66	216	2
TAP	66	240	3
TAP	66	264	3
TAP	66	288	4
TAP	66	312	4
TAP	66	336	5
TAP	66	360	5
BST	67	0	3
SCL	67	0	3	96	24	0
TAP	67	96	7
TAP	67	108	6
TAP	67	120	5
TAP	67	132	4
TAP	67	144	7
TAP	67	156	6
TAP	67	168	5
TAP	67	180	4
BST	67	192	3
SCL	67	192	3	96	24	0
TAP	67	288	7
TAP	67	300	6
TAP	67	312	5
TAP	67	324	4
TAP	67	336	7
TAP	67	348	6
TAP	67	360	5
TAP	67	372	4
BRK	68	0	3
BRK	68	48	0
TAP	68	60	1
TAP	68	72	2
TAP	68	84	3
TAP	68	96	4
BRK	68	144	7
TAP	68	156	6
TAP	68	168	5
TAP	68	180	4
TAP	68	192	3
BRK	68	240	0
TAP	68	252	1
TAP	68	252	7
TAP	68	264	2
TAP	68	264	6
TAP	68	276	3
TAP	68	276	5
TAP	68	288	4
TAP	68	336	3
TAP	68	336	4
TAP	69	0	3
TAP	69	0	4
TAP	69	48	3
TAP	69	96	4
TAP	69	120	3
TAP	69	144	5
TAP	69	168	2
TAP	69	192	6
BRK	69	240	0
TAP	69	252	7
TAP	69	264	6
TAP	69	276	5
TAP	69	288	4
BRK	69	336	7
TAP	69	348	0
TAP	69	360	1
TAP	69	372	2
STR	70	0	3
SCL	70	0	3	96	48	0
STR	70	0	4
SCR	70	0	4	96	48	7
STR	70	96	3
SI_	70	96	3	96	48	7
STR	70	96	4
SI_	70	96	4	96	48	0
TAP	70	192	3
TAP	70	192	4
BRK	70	288	1
BRK	70	288	6
TAP	71	0	0
TAP	71	0	7
TAP	71	48	2
TAP	71	48	5
STR	71	96	0
SI_	71	96	0	96	24	4
STR	71	120	7
SI_	71	120	7	96	24	3
TAP	71	168	0
TAP	71	192	7
TAP	71	240	0
TAP	71	264	0
STR	71	312	6
SI_	71	312	6	96	24	4
STR	71	336	7
SI_	71	336	7	96	24	3
TAP	72	0	6
TAP	72	24	7
TAP	72	72	6
TAP	72	96	6
STR	72	144	1
SI_	72	144	1	96	24	3
STR	72	168	0
SI_	72	168	0	96	24	4
TAP	72	216	1
TAP	72	240	0
TAP	72	288	1
TAP	72	336	0
TAP	72	336	6
TAP	73	0	1
TAP	73	0	7
TAP	73	48	2
TAP	73	48	5
STR	73	96	7
SI_	73	96	7	96	24	3
STR	73	120	0
SI_	73	120	0	96	24	4
TAP	73	168	7
TAP	73	192	0
TAP	73	240	7
TAP	73	264	7
STR	73	312	1
SI_	73	312	1	96	24	3
STR	73	336	0
SI_	73	336	0	96	24	4
TAP	74	0	1
TAP	74	24	0
TAP	74	72	1
TAP	74	96	1
STR	74	144	6
SI_	74	144	6	96	24	4
STR	74	168	7
SI_	74	168	7	96	24	3
TAP	74	216	6
TAP	74	240	7
BRK	74	288	6
BRK	74	336	1
BRK	74	336	7
TAP	75	0	0
TAP	75	0	6
TAP	75	48	2
TAP	75	48	5
STR	75	96	0
SI_	75	96	0	96	24	4
STR	75	120	7
SI_	75	120	7	96	24	3
TAP	75	168	0
TAP	75	192	7
TAP	75	240	0
TAP	75	264	0
STR	75	312	6
SI_	75	312	6	96	24	3
STR	75	336	7
SI_	75	336	7	96	24	2
TAP	76	0	6
TAP	76	24	7
TAP	76	72	6
TAP	76	96	6
STR	76	144	1
SI_	76	144	1	96	24	4
STR	76	168	0
SI_	76	168	0	96	24	5
TAP	76	216	1
TAP	76	240	0
TAP	76	288	1
TAP	76	336	0
TAP	76	336	6
TAP	77	0	2
HLD	77	0	3	72
TAP	77	72	0
HLD	77	144	4	72
TAP	77	144	5
TAP	77	216	7
TAP	77	288	3
TAP	77	288	4
TAP	77	336	2
TAP	77	336	5
HLD	78	0	0	72
TAP	78	0	1
TAP	78	72	3
TAP	78	144	6
HLD	78	144	7	72
TAP	78	216	4
BRK	78	288	0
BRK	78	288	7
BRK	78	336	1
BRK	78	336	6
STR	79	0	0
SI_	79	0	0	96	48	5
STR	79	0	5
SI_	79	0	5	96	48	0
STR	79	48	0
SI_	79	48	0	96	48	3
TAP	79	48	5
STR	79	192	4
SCL	79	192	4	96	48	1
SCR	79	192	4	96	48	7
TAP	79	240	4
TAP	79	288	4
STR	80	0	2
SI_	80	0	2	96	48	7
STR	80	0	7
SI_	80	0	7	96	48	2
TAP	80	48	2
STR	80	48	7
SI_	80	48	7	96	48	4
STR	80	192	3
SCL	80	192	3	96	48	0
SCR	80	192	3	96	48	6
TAP	80	240	3
TAP	80	288	3
STR	81	0	0
SI_	81	0	0	96	48	5
STR	81	0	5
SI_	81	0	5	96	48	0
STR	81	48	0
SI_	81	48	0	96	48	3
TAP	81	48	5
STR	81	192	4
SCL	81	192	4	96	48	1
SCR	81	192	4	96	48	7
TAP	81	240	4
TAP	81	288	4
TAP	82	0	2
TAP	82	0	7
TAP	82	48	1
TAP	82	48	6
TAP	82	96	0
TAP	82	96	5
TAP	82	144	3
TAP	82	168	4
TAP	82	192	3
BRK	82	264	1
BRK	82	264	6
STR	83	0	2
SI_	83	0	2	96	48	7
STR	83	0	7
SI_	83	0	7	96	48	2
TAP	83	48	2
STR	83	48	7
SI_	83	48	7	96	48	4
STR	83	192	3
SCL	83	192	3	96	48	0
SCR	83	192	3	96	48	6
TAP	83	240	3
TAP	83	288	3
TAP	84	0	0
TAP	84	0	5
TAP	84	48	0
TAP	84	48	5
TAP	84	96	2
TAP	84	96	7
TAP	84	144	2
TAP	84	144	7
TAP	84	168	1
TAP	84	168	6
TAP	84	192	0
TAP	84	192	5
TAP	84	264	3
TAP	84	264	6
TAP	84	336	0
TAP	84	336	4
TAP	85	0	4
HLD	85	0	6	48
HLD	85	72	1	48
TAP	85	72	3
TAP	85	144	5
HLD	85	144	7	48
HLD	85	216	0	48
TAP	85	216	2
TAP	85	288	0
TAP	85	288	7
TAP	85	336	0
HLD	85	336	2	48
HLD	86	24	5	48
TAP	86	24	7
TAP	86	96	1
HLD	86	96	3	48
HLD	86	168	4	48
TAP	86	168	6
TAP	86	240	1
TAP	86	240	6
TAP	86	288	3
TAP	86	288	4
BRK	87	0	1
HLD	87	0	6	1152
BRK	88	96	0
TAP	88	240	3
TAP	88	312	4
TAP	89	0	3
TAP	89	72	5
TAP	89	144	2
STR	90	0	0
SI_	90	0	0	96	48	3
STR	90	48	4
SI_	90	48	4	96	48	7
TAP	90	288	3
TAP	90	288	4
TAP	91	0	3
TAP	91	0	4
HLD	91	48	4	48
TAP	91	48	6
TAP	91	120	1
HLD	91	120	3	48
HLD	91	192	5	48
TAP	91	192	7
TAP	91	264	0
HLD	91	264	2	48
TAP	91	336	0
TAP	91	336	7
TAP	92	0	0
TAP	92	0	7
HLD	92	48	0	48
TAP	92	48	2
TAP	92	120	5
HLD	92	120	7	48
HLD	92	192	1	48
TAP	92	192	3
TAP	92	264	4
HLD	92	264	6	48
TAP	92	336	1
TAP	92	336	6
TAP	93	0	3
TAP	93	0	7
TAP	93	48	3
TAP	93	48	7
TAP	93	96	2
TAP	93	96	6
TAP	93	144	2
TAP	93	144	6
TAP	93	192	1
TAP	93	192	5
TAP	93	240	1
TAP	93	240	5
TAP	93	288	0
TAP	93	288	4
TAP	93	336	0
TAP	93	336	4
TAP	94	0	0
TAP	94	24	4
TAP	94	48	1
TAP	94	72	5
TAP	94	96	2
TAP	94	120	6
TAP	94	144	3
TAP	94	168	7
BRK	94	192	4
TAP	94	204	3
TAP	94	216	2
TAP	94	228	1
TAP	94	240	0
TAP	94	252	7
TAP	94	264	6
TAP	94	276	5
TAP	94	288	4
TAP	94	300	3
TAP	94	312	2
TAP	94	324	1
TAP	94	336	0
TAP	94	348	7
TAP	94	360	6
TAP	94	372	5
BST	95	0	4
SV_	95	0	4	96	48	1
SV_	95	0	4	96	48	7
BRK	95	96	4
STR	95	192	0
SV_	95	192	0	96	48	3
SV_	95	192	0	96	48	5
TAP	95	240	1
TAP	95	240	7
TAP	95	288	0
STR	96	0	3
SI_	96	0	3	96	48	7
STR	96	0	7
SI_	96	0	7	96	48	3
STR	96	48	3
SCL	96	48	3	96	48	0
TAP	96	48	7
STR	96	192	7
SI_	96	192	7	96	48	3
TAP	96	240	0
TAP	96	240	6
TAP	96	288	2
TAP	96	288	7
TAP	96	336	1
STR	97	0	0
SI_	97	0	0	96	48	4
STR	97	0	4
SI_	97	0	4	96	48	0
TAP	97	48	0
STR	97	48	4
SCR	97	48	4	96	48	7
STR	97	192	0
SI_	97	192	0	96	48	4
TAP	97	240	1
TAP	97	240	7
TAP	97	288	0
TAP	97	288	5
TAP	97	336	6
TAP	98	0	0
TAP	98	0	7
TAP	98	48	1
STR	98	48	6
SI_	98	48	6	96	48	3
TAP	98	96	2
TAP	98	96	5
BRK	98	144	1
BRK	98	144	6
TAP	98	192	2
TAP	98	264	2
TAP	98	264	5
TAP	98	288	2
TAP	98	288	5
STR	99	0	0
SV_	99	0	0	96	48	3
STR	99	48	3
SCL	99	48	3	96	48	0
TAP	99	96	5
TAP	99	144	6
STR	99	192	7
SV_	99	192	7	96	48	4
STR	99	240	4
SCR	99	240	4	96	48	7
TAP	99	288	1
TAP	99	336	2
STR	100	0	3
SCL	100	0	3	96	24	0
TAP	100	48	3
TAP	100	96	7
TAP	100	108	6
TAP	100	120	5
TAP	100	132	4
TAP	100	144	7
TAP	100	156	6
TAP	100	168	5
TAP	100	180	4
BRK	100	192	3
HLD	100	192	7	48
HLD	100	264	0	48
TAP	100	264	4
TAP	100	336	2
TAP	100	336	5
HLD	101	0	4	48
TAP	101	0	6
TAP	101	72	5
HLD	101	72	7	48
TAP	101	144	1
HLD	101	144	3	48
HLD	101	216	0	48
TAP	101	216	2
TAP	101	288	1
TAP	101	288	6
TAP	101	336	3
TAP	101	336	4
HLD	102	0	1	48
TAP	102	0	3
TAP	102	72	0
HLD	102	72	2	48
TAP	102	144	4
HLD	102	144	6	48
TAP	102	192	4
TAP	102	204	3
TAP	102	216	2
TAP	102	228	1
TAP	102	240	0
TAP	102	252	7
TAP	102	264	6
TAP	102	276	5
BST	102	288	4
SV_	102	288	4	96	48	1
SV_	102	288	4	96	48	7
BRK	103	0	4

T_REC_TAP	729
T_REC_BRK	34
T_REC_XTP	0
T_REC_HLD	65
T_REC_XHO	0
T_REC_STR	145
T_REC_BST	4
T_REC_XST	0
T_REC_TTP	0
T_REC_THO	0
T_REC_SLD	162
T_REC_ALL	1139
T_NUM_TAP	874
T_NUM_BRK	38
T_NUM_HLD	65
T_NUM_SLD	162
T_NUM_ALL	1139
T_JUDGE_TAP	912
T_JUDGE_HLD	128
T_JUDGE_SLD	162
T_JUDGE_ALL	1202
TTM_EACHPAIRS	253
TTM_SCR_TAP	437000
TTM_SCR_BRK	98800
TTM_SCR_HLD	65000
TTM_SCR_SLD	243000
TTM_SCR_ALL	843800
TTM_SCR_S	814800
TTM_SCR_SS	840000
TTM_RAT_ACV	10045

