VERSION	0.00.00	1.03.00
FES_MODE	0
BPM_DEF	185.000	185.000	185.000	185.000
MET_DEF	4	4
RESOLUTION	384
CLK_DEF	384
COMPATIBLE_CODE	MA2

BPM	0	0	185.000
MET	0	0	4	4

STR	3	0	0
SI_	3	0	0	96	48	5
STR	3	96	0
SI_	3	96	0	96	48	3
STR	3	192	6
SI_	3	192	6	96	48	2
TAP	3	288	0
STR	4	0	5
SI_	4	0	5	96	48	7
STR	4	96	7
SV_	4	96	7	96	72	0
STR	4	192	0
SI_	4	192	0	96	48	2
TAP	4	288	2
STR	5	0	1
SV_	5	0	1	96	48	4
STR	5	0	7
SV_	5	0	7	96	48	4
TAP	5	96	1
TAP	5	96	7
STR	5	192	0
SV_	5	192	0	96	48	3
STR	5	192	6
SV_	5	192	6	96	48	3
TAP	5	288	0
TAP	5	288	6
STR	6	0	1
SV_	6	0	1	96	48	4
STR	6	0	7
SV_	6	0	7	96	48	4
TAP	6	96	1
TAP	6	96	7
STR	6	192	0
SV_	6	192	0	96	48	3
STR	6	192	6
SV_	6	192	6	96	48	3
TAP	6	288	0
TAP	6	288	6
TAP	7	0	1
HLD	7	0	4	48
TAP	7	48	2
HLD	7	96	3	48
TAP	7	96	7
TAP	7	144	6
TAP	7	192	0
HLD	7	192	5	48
TAP	7	240	1
HLD	7	288	2	48
TAP	7	288	4
TAP	7	336	5
TAP	8	0	3
HLD	8	0	6	48
TAP	8	48	2
HLD	8	96	1	48
TAP	8	96	5
TAP	8	144	6
TAP	8	192	2
HLD	8	192	7	48
TAP	8	240	1
HLD	8	288	0	48
TAP	8	288	5
TAP	8	336	4
TAP	9	0	2
TAP	9	0	3
TAP	9	48	4
TAP	9	48	5
TAP	9	96	6
TAP	9	96	7
TAP	9	144	0
TAP	9	144	1
TAP	9	192	2
TAP	9	216	3
TAP	9	240	1
TAP	9	264	4
TAP	9	288	0
TAP	9	312	5
TAP	9	336	7
TAP	9	360	6
TAP	10	0	7
TAP	10	24	7
TAP	10	48	7
TAP	10	72	7
TAP	10	96	7
TAP	10	120	7
TAP	10	144	7
TAP	10	168	7
STR	10	192	7
SF_	10	192	7	96	48	3
BRK	10	288	7
TAP	11	0	0
TAP	11	0	6
TAP	11	96	2
TAP	11	96	4
TAP	11	144	3
TAP	11	192	6
TAP	11	216	7
TAP	11	264	0
TAP	11	264	4
TAP	11	312	2
TAP	11	336	3
TAP	12	0	5
TAP	12	24	5
TAP	12	24	7
TAP	12	96	3
TAP	12	96	5
TAP	12	144	4
TAP	12	192	1
TAP	12	216	0
TAP	12	264	3
TAP	12	264	7
TAP	12	312	5
TAP	12	336	4
TAP	13	0	1
TAP	13	0	3
TAP	13	96	0
TAP	13	96	6
TAP	13	144	7
TAP	13	192	2
TAP	13	216	3
TAP	13	264	0
TAP	13	264	4
TAP	13	312	6
TAP	13	336	7
TAP	14	0	1
TAP	14	24	1
TAP	14	24	3
TAP	14	96	2
TAP	14	96	4
TAP	14	144	3
TAP	14	144	5
TAP	14	192	4
TAP	14	192	6
TAP	14	240	0
TAP	14	264	1
TAP	14	264	7
TAP	14	312	4
TAP	14	336	3
TAP	14	336	5
TAP	15	0	1
TAP	15	0	7
TAP	15	96	3
TAP	15	96	5
TAP	15	144	4
TAP	15	192	1
TAP	15	216	0
TAP	15	264	3
TAP	15	264	7
TAP	15	312	5
TAP	15	336	4
TAP	16	0	2
TAP	16	24	0
TAP	16	24	2
TAP	16	96	2
TAP	16	96	4
TAP	16	144	3
TAP	16	192	6
TAP	16	216	7
TAP	16	264	0
TAP	16	264	4
TAP	16	312	2
TAP	16	336	3
HLD	17	0	4	48
HLD	17	0	5	48
HLD	17	96	1	48
HLD	17	96	2	48
HLD	17	192	6	48
HLD	17	192	7	48
HLD	17	288	2	48
HLD	17	288	4	48
HLD	18	0	0	48
HLD	18	0	6	48
TAP	18	96	1
TAP	18	96	7
TAP	18	144	3
TAP	18	144	5
TAP	18	192	6
TAP	18	216	7
TAP	18	264	0
TAP	18	264	4
TAP	18	312	2
TAP	18	336	3
TAP	19	0	1
TAP	19	0	7
TAP	19	96	3
TAP	19	96	5
TAP	19	144	4
TAP	19	192	1
TAP	19	216	0
TAP	19	264	6
TAP	19	264	7
TAP	19	312	5
TAP	19	336	4
TAP	20	0	2
TAP	20	24	0
TAP	20	24	2
TAP	20	96	2
TAP	20	96	4
TAP	20	144	3
TAP	20	192	6
TAP	20	216	7
TAP	20	264	0
TAP	20	264	1
TAP	20	312	2
TAP	20	336	3
TAP	21	0	4
TAP	21	0	6
TAP	21	96	1
TAP	21	96	7
TAP	21	144	0
TAP	21	192	5
TAP	21	216	4
TAP	21	264	2
TAP	21	264	3
TAP	21	312	1
TAP	21	336	0
TAP	22	0	6
TAP	22	24	4
TAP	22	24	6
TAP	22	96	3
TAP	22	96	5
TAP	22	144	2
TAP	22	144	4
TAP	22	192	1
TAP	22	192	3
TAP	22	240	7
TAP	22	264	0
TAP	22	264	6
TAP	22	312	3
TAP	22	336	2
TAP	22	336	4
HLD	23	0	0	48
TAP	23	0	5
TAP	23	48	6
TAP	23	96	3
HLD	23	96	7	48
TAP	23	144	2
HLD	23	192	1	48
TAP	23	192	4
TAP	23	240	5
TAP	23	288	0
HLD	23	288	6	48
TAP	23	336	1
HLD	24	0	2	48
TAP	24	0	7
TAP	24	48	6
TAP	24	96	1
HLD	24	96	5	48
TAP	24	144	2
HLD	24	192	3	48
TAP	24	192	6
TAP	24	240	5
STR	24	288	4
SI_	24	288	4	96	48	0
TAP	24	336	4
STR	25	0	1
SI_	25	0	1	96	48	5
TAP	25	0	4
TAP	25	48	1
TAP	25	96	1
STR	25	96	6
SI_	25	96	6	96	48	2
TAP	25	144	6
STR	25	192	3
SI_	25	192	3	96	48	7
TAP	25	192	6
TAP	25	240	3
TAP	25	288	3
STR	25	288	4
SF_	25	288	4	96	48	0
TAP	25	336	4
BRK	26	0	4
TAP	26	96	2
TAP	26	96	6
TAP	26	144	1
TAP	26	144	7
STR	26	192	0
SF_	26	192	0	96	48	4
TAP	26	204	1
TAP	26	216	2
TAP	26	228	3
TAP	26	240	4
TAP	26	252	5
TAP	26	264	6
TAP	26	276	7
TAP	26	288	0
TAP	27	0	1
TAP	27	0	7
TAP	27	48	0
TAP	27	72	0
STR	27	96	0
SI_	27	96	0	96	48	4
STR	27	192	3
SI_	27	192	3	96	48	7
TAP	27	240	3
TAP	27	288	0
TAP	27	336	0
TAP	28	0	3
TAP	28	24	4
TAP	28	48	5
TAP	28	72	6
STR	28	96	7
SI_	28	96	7	96	48	3
TAP	28	144	7
STR	28	192	4
SI_	28	192	4	96	48	0
TAP	28	240	4
TAP	28	288	7
TAP	28	336	7
TAP	29	48	0
TAP	29	48	4
STR	29	96	2
SI_	29	96	2	96	48	6
TAP	29	96	6
STR	29	192	3
SI_	29	192	3	96	48	7
TAP	29	240	3
TAP	29	288	2
TAP	29	336	2
TAP	30	48	3
TAP	30	48	7
TAP	30	96	1
STR	30	96	5
SI_	30	96	5	96	48	1
TAP	30	144	5
STR	30	192	4
SI_	30	192	4	96	48	0
TAP	30	240	4
TAP	30	288	5
TAP	30	336	5
TAP	31	48	6
TAP	31	72	7
STR	31	96	6
SI_	31	96	6	96	48	2
STR	31	192	0
SI_	31	192	0	96	48	4
TAP	31	192	6
TAP	31	240	1
TAP	31	288	0
TAP	31	288	2
TAP	32	0	5
TAP	32	24	4
TAP	32	48	3
TAP	32	72	2
TAP	32	120	0
TAP	32	120	7
TAP	32	144	1
TAP	32	144	6
TAP	32	168	2
TAP	32	168	5
STR	32	192	3
SXL	32	192	3	96	72	5
STR	32	192	4
SXR	32	192	4	96	72	2
TAP	32	240	1
TAP	32	240	6
TAP	32	288	3
TAP	32	288	4
TAP	33	48	1
TAP	33	72	0
STR	33	96	1
SI_	33	96	1	96	48	5
TAP	33	192	1
STR	33	192	7
SI_	33	192	7	96	48	3
TAP	33	240	6
TAP	33	288	5
TAP	33	288	7
STR	34	0	0
SI_	34	0	0	96	48	4
TAP	34	48	2
TAP	34	96	0
STR	34	96	7
SI_	34	96	7	96	48	3
TAP	34	144	5
STR	34	192	0
SF_	34	192	0	96	48	4
TAP	34	192	7
BRK	34	288	0
TAP	35	0	6
TAP	35	0	7
TAP	35	48	3
TAP	35	96	0
TAP	35	96	1
TAP	35	144	4
STR	35	192	6
SI_	35	192	6	96	48	3
STR	35	192	7
SI_	35	192	7	96	48	3
TAP	35	216	6
TAP	35	216	7
TAP	35	240	6
TAP	35	240	7
BRK	35	288	6
BRK	35	288	7
TAP	36	0	1
TAP	36	0	5
TAP	36	48	6
TAP	36	72	7
TAP	36	120	1
TAP	36	144	0
STR	36	192	2
SI_	36	192	2	96	48	6
TAP	36	216	1
TAP	36	216	3
TAP	36	240	0
TAP	36	240	4
TAP	36	288	2
TAP	37	0	4
TAP	37	0	5
TAP	37	48	2
TAP	37	96	6
TAP	37	96	7
TAP	37	144	1
TAP	37	192	3
TAP	37	192	7
TAP	37	216	2
TAP	37	216	6
TAP	37	240	1
TAP	37	240	5
TAP	37	264	0
TAP	37	264	4
STR	37	288	3
SUR	37	288	3	96	48	7
STR	37	288	7
SUR	37	288	7	96	48	3
STR	38	0	3
SCL	38	0	3	96	48	0
STR	38	0	7
SCL	38	0	7	96	48	4
TAP	38	96	3
TAP	38	96	7
BRK	38	192	0
HLD	38	192	2	72
HLD	38	264	5	72
TAP	38	336	7
TAP	39	0	0
TAP	39	0	1
TAP	39	48	4
TAP	39	96	6
TAP	39	96	7
TAP	39	144	3
STR	39	192	0
SI_	39	192	0	96	48	4
STR	39	192	1
SI_	39	192	1	96	48	4
TAP	39	216	0
TAP	39	216	1
TAP	39	240	0
TAP	39	240	1
BRK	39	288	0
BRK	39	288	1
TAP	40	0	2
TAP	40	0	6
TAP	40	48	1
TAP	40	72	0
TAP	40	120	6
TAP	40	144	7
STR	40	192	5
SI_	40	192	5	96	48	1
TAP	40	216	4
TAP	40	216	6
TAP	40	240	3
TAP	40	240	7
TAP	40	288	5
TAP	41	0	2
TAP	41	0	3
TAP	41	48	5
TAP	41	96	0
TAP	41	96	1
TAP	41	144	6
TAP	41	192	2
TAP	41	216	2
TAP	41	240	5
TAP	41	264	5
TAP	41	288	0
TAP	41	312	0
TAP	41	336	7
TAP	41	360	7
TAP	42	0	1
TAP	42	24	6
TAP	42	48	1
TAP	42	72	6
TAP	42	96	2
TAP	42	120	5
TAP	42	144	2
TAP	42	168	5
TAP	42	192	3
TAP	42	192	4
TAP	42	240	3
TAP	42	240	4
TAP	42	256	2
TAP	42	256	5
TAP	42	272	1
TAP	42	272	6
STR	42	288	0
SSL	42	288	0	96	48	4
STR	42	288	7
SSR	42	288	7	96	48	3
BRK	43	0	0
BRK	43	0	7
HLD	47	0	1	288
TAP	47	96	0
TAP	47	168	0
TAP	47	240	7
HLD	47	288	7	384
TAP	48	0	5
TAP	48	72	5
TAP	48	144	4
TAP	48	216	4
HLD	48	288	3	384
TAP	49	0	7
TAP	49	96	6
TAP	49	168	6
TAP	49	240	5
HLD	49	288	5	288
TAP	50	0	7
TAP	50	72	7
TAP	50	144	2
HLD	50	192	2	192
TAP	50	264	0
TAP	50	336	0
BRK	51	0	6
TAP	51	48	5
TAP	51	96	4
TAP	51	144	5
TAP	51	192	6
STR	51	240	5
SCL	51	240	5	96	48	3
SCR	51	240	5	96	48	7
TAP	52	48	2
TAP	52	96	3
TAP	52	144	2
TAP	52	192	1
STR	52	240	2
SCL	52	240	2	96	48	0
SCR	52	240	2	96	48	4
TAP	53	48	5
TAP	53	96	4
TAP	53	144	3
STR	53	192	2
SCR	53	192	2	96	48	5
TAP	53	288	0
HLD	53	336	0	96
TAP	54	48	7
TAP	54	96	6
TAP	54	144	5
TAP	54	192	4
STR	54	240	3
SCL	54	240	3	96	48	1
SCR	54	240	3	96	48	6
TAP	55	48	7
TAP	55	96	0
TAP	55	144	1
STR	55	192	2
SCL	55	192	2	96	48	7
TAP	55	288	6
TAP	55	336	6
TAP	56	48	7
STR	56	96	5
SCR	56	96	5	96	48	0
TAP	56	144	3
TAP	56	192	1
TAP	56	240	1
STR	57	48	1
SCL	57	48	1	96	48	6
TAP	57	48	5
TAP	57	96	4
TAP	57	144	3
TAP	57	192	2
TAP	57	288	7
TAP	57	336	0
HLD	58	0	6	144
TAP	58	48	4
TAP	58	96	2
HLD	58	144	0	144
TAP	58	192	6
TAP	58	240	4
BST	58	288	2
SI_	58	288	2	96	48	6
STR	59	0	0
SI_	59	0	0	96	24	4
TAP	59	0	2
STR	59	72	7
SI_	59	72	7	96	24	3
TAP	59	144	2
BST	59	192	1
SI_	59	192	1	96	48	5
TAP	59	288	1
STR	59	288	6
SI_	59	288	6	96	24	3
STR	59	360	4
SI_	59	360	4	96	24	0
STR	60	48	2
SI_	60	48	2	96	24	6
TAP	60	120	7
HLD	60	192	0	96
HLD	60	288	4	96
STR	61	0	2
SI_	61	0	2	96	24	7
STR	61	72	6
SI_	61	72	6	96	24	3
TAP	61	144	1
BST	61	192	0
SI_	61	192	0	96	48	4
TAP	61	288	0
STR	61	288	7
SI_	61	288	7	96	24	2
STR	61	360	5
SI_	61	360	5	96	24	0
STR	62	48	3
SI_	62	48	3	96	24	6
STR	62	120	1
SI_	62	120	1	96	24	4
STR	62	192	7
SI_	62	192	7	96	24	3
STR	62	264	5
SI_	62	264	5	96	24	1
TAP	62	336	0
TAP	63	0	7
BRK	63	96	1
BRK	63	96	5
TAP	63	144	3
TAP	63	144	7
TAP	63	168	2
TAP	63	168	6
STR	63	192	1
SI_	63	192	1	96	24	5
TAP	63	192	5
STR	63	264	7
SI_	63	264	7	96	24	3
TAP	63	336	0
STR	64	48	2
SI_	64	48	2	96	24	7
STR	64	120	6
SI_	64	120	6	96	24	3
STR	64	192	0
SI_	64	192	0	96	24	4
TAP	64	264	7
TAP	64	336	5
TAP	65	0	1
TAP	65	24	0
TAP	65	48	2
TAP	65	72	7
TAP	65	96	3
TAP	65	120	6
TAP	65	144	4
TAP	65	168	5
TAP	65	192	2
TAP	65	216	3
TAP	65	240	1
TAP	65	264	4
TAP	65	288	0
TAP	65	312	5
TAP	65	336	7
TAP	65	360	6
TAP	66	0	1
TAP	66	24	0
TAP	66	48	2
TAP	66	72	0
TAP	66	96	3
TAP	66	120	0
TAP	66	144	4
TAP	66	168	0
TAP	66	192	4
TAP	66	216	5
TAP	66	240	4
TAP	66	264	6
TAP	66	288	4
TAP	66	312	7
TAP	66	336	4
TAP	66	360	0
TAP	67	0	4
BRK	67	96	0
TAP	67	108	1
TAP	67	120	2
TAP	67	132	3
TAP	67	144	4
TAP	67	156	5
TAP	67	168	6
TAP	67	180	7
TAP	67	192	0
BRK	67	288	7
TAP	67	300	6
TAP	67	312	5
TAP	67	324	4
TAP	67	336	3
TAP	67	348	2
TAP	67	360	1
TAP	67	372	0
TAP	68	0	7
TAP	68	48	0
TAP	68	60	1
TAP	68	72	2
TAP	68	84	3
TAP	68	96	4
TAP	68	144	6
TAP	68	156	5
TAP	68	168	4
TAP	68	180	3
TAP	68	192	2
TAP	68	240	1
TAP	68	252	2
TAP	68	264	3
TAP	68	276	4
TAP	68	288	5
TAP	68	336	7
TAP	68	348	6
TAP	68	360	5
TAP	68	372	4
TAP	69	0	1
TAP	69	0	3
TAP	69	48	4
TAP	69	48	6
TAP	69	96	2
TAP	69	120	5
TAP	69	144	2
TAP	69	168	5
TAP	69	192	3
TAP	69	192	4
TAP	69	240	3
TAP	69	240	4
TAP	69	256	2
TAP	69	256	5
TAP	69	272	1
TAP	69	272	6
TAP	69	288	0
TAP	69	288	7
TAP	69	336	0
TAP	69	336	7
TAP	69	352	1
TAP	69	352	6
TAP	69	368	2
TAP	69	368	5
BST	70	0	3
SI_	70	0	3	96	24	0
BST	70	0	4
SI_	70	0	4	96	24	7
TAP	70	96	3
TAP	70	96	4
STR	70	192	2
SI_	70	192	2	96	48	5
STR	70	192	6
SI_	70	192	6	96	48	1
TAP	70	240	0
TAP	70	240	4
BRK	70	288	2
BRK	70	288	6
TAP	71	0	3
TAP	71	0	7
TAP	71	48	0
TAP	71	48	1
TAP	71	96	5
HLD	71	120	7	48
TAP	71	168	6
HLD	71	192	0	48
TAP	71	240	7
HLD	71	264	1	48
TAP	71	312	0
HLD	71	336	2	48
TAP	72	0	5
HLD	72	24	7	48
TAP	72	72	4
HLD	72	96	0	48
TAP	72	144	3
HLD	72	168	1	48
TAP	72	216	3
TAP	72	240	2
TAP	72	264	5
TAP	72	288	4
TAP	72	336	2
TAP	72	336	7
TAP	73	0	0
TAP	73	0	4
TAP	73	48	6
TAP	73	48	7
TAP	73	96	2
HLD	73	120	0	48
TAP	73	168	1
HLD	73	192	7	48
TAP	73	240	0
HLD	73	264	6	48
TAP	73	312	7
HLD	73	336	5	48
TAP	74	0	2
HLD	74	24	0	48
TAP	74	72	3
HLD	74	96	7	48
TAP	74	144	4
HLD	74	168	6	48
TAP	74	216	4
TAP	74	240	5
TAP	74	264	2
TAP	74	288	3
TAP	74	336	1
TAP	74	336	7
TAP	75	0	3
TAP	75	0	5
HLD	75	48	0	48
TAP	75	96	4
HLD	75	120	1	48
TAP	75	168	4
HLD	75	192	2	48
TAP	75	240	4
HLD	75	264	3	48
TAP	75	312	4
TAP	75	336	3
TAP	75	360	5
TAP	76	0	2
HLD	76	24	6	48
TAP	76	72	3
HLD	76	96	5	48
TAP	76	144	3
HLD	76	168	4	48
TAP	76	216	3
TAP	76	240	4
TAP	76	264	2
HLD	76	288	6	48
HLD	76	336	0	48
STR	77	0	7
SI_	77	0	7	96	24	3
BRK	77	72	7
STR	77	144	0
SI_	77	144	0	96	24	4
BRK	77	216	0
TAP	77	288	2
TAP	77	288	3
TAP	77	336	4
TAP	77	336	5
STR	78	0	6
SI_	78	0	6	96	24	1
STR	78	72	2
SI_	78	72	2	96	24	5
TAP	78	72	6
TAP	78	144	2
STR	78	144	7
SI_	78	144	7	96	24	4
STR	78	216	3
SI_	78	216	3	96	24	0
TAP	78	216	7
TAP	78	288	3
TAP	78	288	5
TAP	78	336	6
BST	79	0	7
SCL	79	0	7	96	48	4
TAP	79	48	3
STR	79	96	7
SCR	79	96	7	96	48	2
TAP	79	144	3
STR	79	192	7
SI_	79	192	7	96	48	3
TAP	79	240	3
TAP	79	288	7
TAP	79	336	1
STR	80	0	0
SCR	80	0	0	96	48	3
TAP	80	48	4
STR	80	96	0
SCL	80	96	0	96	48	5
TAP	80	144	4
STR	80	192	0
SI_	80	192	0	96	48	4
TAP	80	240	4
TAP	80	288	0
TAP	80	336	6
STR	81	0	7
SCL	81	0	7	96	48	4
TAP	81	48	3
TAP	81	96	7
TAP	81	144	2
STR	81	192	0
SCR	81	192	0	96	48	3
TAP	81	240	4
TAP	81	288	0
TAP	81	336	5
STR	82	0	7
SCL	82	0	7	96	48	4
TAP	82	48	3
TAP	82	96	7
TAP	82	144	2
TAP	82	168	1
STR	82	192	0
SXL	82	192	0	96	24	2
STR	82	192	4
SXL	82	192	4	96	24	6
BRK	82	264	0
BRK	82	264	4
STR	83	0	1
SUR	83	0	1	96	48	5
TAP	83	48	1
STR	83	96	0
SI_	83	96	0	96	48	4
TAP	83	144	0
STR	83	192	7
SI_	83	192	7	96	48	3
TAP	83	240	7
STR	83	288	6
SUL	83	288	6	96	48	2
TAP	83	336	6
STR	84	0	7
SI_	84	0	7	96	48	3
TAP	84	48	7
STR	84	96	0
SI_	84	96	0	96	48	4
TAP	84	144	0
HLD	84	192	1	72
HLD	84	264	6	72
TAP	84	336	3
STR	85	0	4
SI_	85	0	4	96	24	0
BST	85	72	1
SI_	85	72	1	96	24	4
STR	85	144	5
SI_	85	144	5	96	24	1
BST	85	216	0
SI_	85	216	0	96	24	5
TAP	85	288	6
TAP	85	336	6
HLD	86	0	0	144
TAP	86	24	7
TAP	86	48	6
TAP	86	72	5
TAP	86	96	4
TAP	86	120	3
TAP	86	144	2
TAP	86	168	1
STR	86	192	0
SI_	86	192	0	96	48	4
STR	86	192	7
SI_	86	192	7	96	48	3
TAP	86	240	2
TAP	86	240	5
BRK	86	288	0
BRK	86	288	7
TAP	87	0	0
HLD	87	0	6	576
TAP	87	48	0
TAP	87	144	1
TAP	87	240	2
TAP	87	336	3
TAP	88	48	4
TAP	88	144	5
HLD	88	192	7	96
TAP	88	240	6
HLD	88	288	5	96
TAP	88	336	7
HLD	89	0	1	384
TAP	89	48	7
TAP	89	144	6
TAP	89	240	5
TAP	89	336	4
HLD	90	0	3	144
TAP	90	48	2
TAP	90	96	2
HLD	90	144	4	144
TAP	90	192	5
TAP	90	240	5
TAP	90	288	3
TAP	91	0	5
STR	91	48	6
SI_	91	48	6	96	24	2
TAP	91	48	7
STR	91	120	7
SI_	91	120	7	96	24	3
STR	91	192	0
SI_	91	192	0	96	24	4
STR	91	264	1
SI_	91	264	1	96	24	5
TAP	91	336	3
TAP	92	0	2
TAP	92	48	0
STR	92	48	1
SI_	92	48	1	96	24	5
STR	92	120	0
SI_	92	120	0	96	24	4
STR	92	192	7
SI_	92	192	7	96	24	3
STR	92	264	6
SI_	92	264	6	96	24	2
TAP	92	336	4
TAP	93	0	5
TAP	93	48	6
TAP	93	48	7
TAP	93	96	0
TAP	93	96	1
TAP	93	144	0
TAP	93	144	1
TAP	93	192	2
TAP	93	192	3
TAP	93	240	2
TAP	93	240	3
TAP	93	288	4
TAP	93	288	5
TAP	93	336	4
TAP	93	336	5
TAP	94	0	3
TAP	94	24	4
TAP	94	48	2
TAP	94	72	5
TAP	94	96	1
TAP	94	120	6
TAP	94	144	0
TAP	94	168	7
TAP	94	192	0
TAP	94	216	0
TAP	94	240	0
TAP	94	264	0
TAP	94	288	0
TAP	94	312	0
TAP	94	336	0
TAP	94	360	0
TAP	95	0	0
STR	95	12	1
SV_	95	12	1	96	36	4
STR	95	12	7
SV_	95	12	7	96	36	4
TAP	95	24	2
TAP	95	24	6
TAP	95	36	3
TAP	95	36	5
TAP	95	48	4
BRK	95	96	1
BRK	95	96	7
STR	95	192	5
SUR	95	192	5	96	48	1
TAP	95	240	5
STR	95	288	4
SI_	95	288	4	96	48	0
TAP	95	336	4
STR	96	0	3
SI_	96	0	3	96	48	7
TAP	96	48	3
STR	96	96	2
SUL	96	96	2	96	48	6
TAP	96	144	2
STR	96	192	3
SI_	96	192	3	96	48	7
TAP	96	240	3
STR	96	288	4
SI_	96	288	4	96	48	0
TAP	96	336	4
STR	97	0	5
SCR	97	0	5	96	48	0
TAP	97	48	5
STR	97	96	4
SI_	97	96	4	96	48	0
TAP	97	144	4
STR	97	192	3
SI_	97	192	3	96	48	7
TAP	97	240	3
STR	97	288	2
SCL	97	288	2	96	48	7
TAP	97	336	2
TAP	98	0	3
TAP	98	48	4
TAP	98	96	0
TAP	98	96	5
TAP	98	144	2
TAP	98	144	7
STR	98	192	0
SI_	98	192	0	96	24	4
TAP	98	216	4
TAP	98	240	2
TAP	98	264	6
BRK	98	288	0
STR	99	0	0
SI_	99	0	0	96	24	4
STR	99	48	7
SI_	99	48	7	96	24	5
STR	99	96	0
SI_	99	96	0	96	24	2
STR	99	144	7
SI_	99	144	7	96	24	3
STR	99	192	0
SI_	99	192	0	96	48	5
STR	99	240	7
SI_	99	240	7	96	24	2
STR	99	288	0
SCR	99	288	0	96	24	3
STR	99	336	7
SCL	99	336	7	96	24	4
TAP	100	0	0
TAP	100	48	7
BRK	100	96	0
TAP	100	108	1
TAP	100	120	2
TAP	100	132	3
TAP	100	144	4
TAP	100	156	5
TAP	100	168	6
TAP	100	180	7
STR	100	192	0
SI_	100	192	0	96	24	4
STR	100	264	5
SI_	100	264	5	96	24	1
BRK	100	336	5
STR	101	0	3
SI_	101	0	3	96	24	7
BST	101	72	6
SI_	101	72	6	96	24	3
STR	101	144	2
SI_	101	144	2	96	24	6
BST	101	216	7
SI_	101	216	7	96	24	2
TAP	101	288	0
TAP	101	336	0
TAP	102	0	1
TAP	102	24	1
TAP	102	48	3
TAP	102	72	3
TAP	102	96	5
TAP	102	120	5
TAP	102	144	7
TAP	102	168	7
TAP	102	192	0
TAP	102	204	1
TAP	102	216	2
TAP	102	228	3
TAP	102	240	4
TAP	102	252	5
TAP	102	264	6
TAP	102	276	7
BRK	102	288	0
BST	102	288	4
SV_	102	288	4	96	36	1
SV_	102	288	4	96	36	7
BRK	103	0	4

T_REC_TAP	729
T_REC_BRK	30
T_REC_XTP	0
T_REC_HLD	69
T_REC_XHO	0
T_REC_STR	136
T_REC_BST	11
T_REC_XST	0
T_REC_TTP	0
T_REC_THO	0
T_REC_SLD	151
T_REC_ALL	1126
T_NUM_TAP	865
T_NUM_BRK	41
T_NUM_HLD	69
T_NUM_SLD	151
T_NUM_ALL	1126
T_JUDGE_TAP	906
T_JUDGE_HLD	133
T_JUDGE_SLD	151
T_JUDGE_ALL	1190
TTM_EACHPAIRS	188
TTM_SCR_TAP	432500
TTM_SCR_BRK	106600
TTM_SCR_HLD	69000
TTM_SCR_SLD	226500
TTM_SCR_ALL	834600
TTM_SCR_S	805600
TTM_SCR_SS	830500
TTM_RAT_ACV	10049

