VERSION	0.00.00	1.03.00
FES_MODE	0
BPM_DEF	185.000	185.000	185.000	185.000
MET_DEF	4	4
RESOLUTION	384
CLK_DEF	384
COMPATIBLE_CODE	MA2

BPM	0	0	185.000
MET	0	0	4	4

TAP	3	0	3
TAP	3	96	3
TAP	3	192	4
TAP	3	288	4
TAP	4	0	3
TAP	4	96	3
TAP	4	192	4
TAP	4	288	4
TAP	5	0	2
TAP	5	96	2
TAP	5	192	5
TAP	5	288	5
TAP	6	0	2
TAP	6	96	2
TAP	6	192	5
TAP	6	288	5
TAP	7	0	2
TAP	7	96	1
TAP	7	96	3
TAP	7	192	5
TAP	7	288	4
TAP	7	288	6
TAP	8	0	1
TAP	8	96	0
TAP	8	96	2
TAP	8	192	6
TAP	8	288	5
TAP	8	288	7
TAP	9	0	0
TAP	9	48	0
TAP	9	96	7
TAP	9	144	7
TAP	9	192	0
TAP	9	216	7
TAP	9	240	0
TAP	9	264	7
TAP	9	288	0
TAP	9	312	7
TAP	9	336	0
TAP	9	360	7
HLD	10	0	0	288
BRK	10	288	7
TAP	11	0	1
TAP	11	0	3
TAP	11	96	4
STR	11	96	6
SI_	11	96	6	96	48	0
TAP	11	144	6
STR	11	192	1
SI_	11	192	1	96	48	5
TAP	11	288	4
TAP	12	0	4
TAP	12	0	6
STR	12	96	1
SI_	12	96	1	96	48	7
TAP	12	96	3
TAP	12	144	1
STR	12	192	6
SI_	12	192	6	96	48	2
TAP	12	288	3
TAP	13	0	1
TAP	13	0	3
TAP	13	96	4
STR	13	96	6
SI_	13	96	6	96	48	0
TAP	13	144	6
STR	13	192	1
SI_	13	192	1	96	48	5
TAP	13	288	4
TAP	14	0	4
STR	14	0	6
SI_	14	0	6	96	48	0
STR	14	96	1
SI_	14	96	1	96	48	5
STR	14	192	7
SI_	14	192	7	96	48	3
TAP	14	288	0
TAP	15	0	4
TAP	15	0	6
STR	15	96	1
SI_	15	96	1	96	48	7
TAP	15	96	3
TAP	15	144	1
STR	15	192	6
SI_	15	192	6	96	48	2
TAP	15	288	3
TAP	16	0	1
TAP	16	0	3
TAP	16	96	4
STR	16	96	6
SI_	16	96	6	96	48	0
TAP	16	144	6
STR	16	192	1
SI_	16	192	1	96	48	5
TAP	16	288	4
TAP	17	0	4
TAP	17	0	6
STR	17	96	1
SI_	17	96	1	96	48	7
TAP	17	96	3
STR	17	192	6
SI_	17	192	6	96	48	2
TAP	17	288	3
STR	18	0	1
SI_	18	0	1	96	48	7
TAP	18	0	3
STR	18	96	6
SI_	18	96	6	96	48	2
HLD	18	192	0	96
BRK	18	288	7
TAP	19	0	3
TAP	19	0	6
TAP	19	48	5
TAP	19	96	1
TAP	19	96	4
TAP	19	144	2
TAP	19	192	5
TAP	19	216	4
TAP	19	264	4
TAP	19	288	6
TAP	19	336	6
TAP	20	0	1
TAP	20	0	4
TAP	20	48	2
TAP	20	96	3
TAP	20	96	6
TAP	20	144	5
TAP	20	192	2
TAP	20	216	3
TAP	20	264	3
TAP	20	288	1
TAP	20	336	1
TAP	21	0	3
TAP	21	0	6
TAP	21	48	5
TAP	21	96	1
TAP	21	96	4
TAP	21	144	2
TAP	21	192	5
TAP	21	216	4
TAP	21	264	4
TAP	21	288	6
TAP	21	336	6
TAP	22	0	1
TAP	22	0	4
TAP	22	48	2
TAP	22	96	3
TAP	22	96	6
TAP	22	144	7
TAP	22	192	1
TAP	22	192	3
TAP	22	264	4
TAP	22	264	6
TAP	22	336	0
TAP	22	336	7
TAP	23	0	2
TAP	23	0	7
TAP	23	48	1
TAP	23	96	0
TAP	23	96	5
TAP	23	144	6
TAP	23	192	1
TAP	23	216	0
TAP	23	264	0
TAP	23	288	2
TAP	23	336	2
TAP	24	0	0
TAP	24	0	5
TAP	24	48	6
TAP	24	96	2
TAP	24	96	7
TAP	24	144	1
TAP	24	192	6
TAP	24	216	7
TAP	24	264	7
TAP	24	288	5
TAP	24	336	5
TAP	25	0	1
TAP	25	0	3
TAP	25	48	2
TAP	25	96	4
TAP	25	96	6
TAP	25	144	5
TAP	25	192	1
TAP	25	192	3
TAP	25	240	2
TAP	25	288	4
TAP	25	288	6
TAP	25	336	5
TAP	26	0	1
STR	26	0	3
SV_	26	0	3	96	48	0
SV_	26	0	3	96	48	6
STR	26	192	1
SV_	26	192	1	96	48	4
STR	26	192	7
SV_	26	192	7	96	48	4
TAP	27	0	4
TAP	27	0	6
TAP	27	48	5
TAP	27	96	3
TAP	27	96	7
TAP	27	192	1
TAP	27	192	3
TAP	27	240	2
STR	27	288	0
SI_	27	288	0	96	48	4
TAP	27	288	4
STR	28	0	7
SI_	28	0	7	96	48	3
TAP	28	48	7
STR	28	96	1
SI_	28	96	1	96	48	5
TAP	28	144	1
STR	28	192	6
SI_	28	192	6	96	48	2
TAP	28	240	6
TAP	28	288	0
TAP	29	0	1
TAP	29	0	3
TAP	29	48	2
TAP	29	96	0
TAP	29	96	4
TAP	29	192	4
TAP	29	192	6
TAP	29	240	5
TAP	29	288	3
STR	29	288	7
SI_	29	288	7	96	48	3
STR	30	0	0
SI_	30	0	0	96	48	4
TAP	30	48	0
STR	30	96	6
SI_	30	96	6	96	48	2
TAP	30	144	6
STR	30	192	1
SI_	30	192	1	96	48	5
TAP	30	240	1
TAP	30	288	7
STR	31	0	6
SI_	31	0	6	96	48	3
STR	31	0	7
SI_	31	0	7	96	48	2
STR	31	192	0
SI_	31	192	0	96	48	5
STR	31	192	1
SI_	31	192	1	96	48	4
TAP	31	240	0
TAP	31	240	1
TAP	32	0	5
TAP	32	0	7
TAP	32	48	6
TAP	32	96	0
TAP	32	96	2
TAP	32	144	1
STR	32	192	3
SI_	32	192	3	96	48	0
STR	32	192	4
SI_	32	192	4	96	48	7
STR	33	0	0
SI_	33	0	0	96	48	5
STR	33	0	1
SI_	33	0	1	96	48	4
STR	33	192	6
SI_	33	192	6	96	48	3
STR	33	192	7
SI_	33	192	7	96	48	2
TAP	33	240	6
TAP	33	240	7
TAP	34	0	0
TAP	34	0	2
TAP	34	48	1
TAP	34	96	5
TAP	34	96	7
TAP	34	144	6
STR	34	192	3
SI_	34	192	3	96	48	0
STR	34	192	4
SI_	34	192	4	96	48	7
TAP	35	0	3
TAP	35	0	5
TAP	35	48	3
TAP	35	48	5
TAP	35	96	2
TAP	35	96	4
TAP	35	144	2
TAP	35	144	4
TAP	35	192	3
TAP	35	216	4
TAP	35	240	3
TAP	35	288	1
TAP	35	288	6
TAP	36	0	6
TAP	36	0	7
TAP	36	48	0
TAP	36	48	5
TAP	36	96	0
TAP	36	96	1
TAP	36	144	2
TAP	36	144	7
TAP	36	192	0
TAP	36	192	7
TAP	36	240	1
TAP	36	240	6
TAP	36	288	2
TAP	36	288	5
TAP	37	0	2
TAP	37	0	4
TAP	37	48	2
TAP	37	48	4
TAP	37	96	3
TAP	37	96	5
TAP	37	144	3
TAP	37	144	5
TAP	37	192	3
TAP	37	216	4
TAP	37	240	3
TAP	37	264	4
STR	37	288	3
SI_	37	288	3	96	48	7
STR	38	0	5
SI_	38	0	5	96	48	0
STR	38	96	2
SI_	38	96	2	96	48	7
STR	38	192	4
SI_	38	192	4	96	48	0
BRK	38	288	3
TAP	39	0	2
TAP	39	0	4
TAP	39	48	2
TAP	39	48	4
TAP	39	96	3
TAP	39	96	5
TAP	39	144	3
TAP	39	144	5
TAP	39	192	4
TAP	39	216	3
TAP	39	240	4
TAP	39	288	1
TAP	39	288	6
TAP	40	0	0
TAP	40	0	1
TAP	40	48	2
TAP	40	48	7
TAP	40	96	6
TAP	40	96	7
TAP	40	144	0
TAP	40	144	5
TAP	40	192	0
TAP	40	192	7
TAP	40	240	1
TAP	40	240	6
TAP	40	288	2
TAP	40	288	5
TAP	41	0	0
TAP	41	0	6
TAP	41	48	0
TAP	41	48	6
TAP	41	96	1
TAP	41	96	7
TAP	41	144	1
TAP	41	144	7
TAP	41	192	0
TAP	41	216	7
TAP	41	240	0
TAP	41	264	7
TAP	41	288	0
TAP	41	312	7
TAP	41	336	0
TAP	41	360	7
STR	42	0	0
SI_	42	0	0	96	48	4
TAP	42	48	0
STR	42	96	5
SI_	42	96	5	96	48	7
TAP	42	144	5
STR	42	192	3
SI_	42	192	3	96	48	1
TAP	42	240	3
BST	42	288	4
SCR	42	288	4	96	768	3
HLD	47	0	5	384
HLD	48	0	4	384
HLD	49	0	3	576
HLD	50	0	4	192
TAP	50	288	1
TAP	50	288	6
TAP	51	0	4
TAP	51	0	5
TAP	51	48	4
HLD	51	48	5	768
TAP	51	144	4
TAP	51	240	4
TAP	51	336	4
TAP	52	48	4
TAP	52	144	4
TAP	52	240	6
TAP	52	336	7
HLD	53	48	2	384
TAP	53	144	3
TAP	53	240	3
TAP	53	336	3
HLD	54	48	5	384
TAP	54	144	4
TAP	54	240	4
TAP	54	336	4
HLD	55	48	2	768
TAP	55	144	3
TAP	55	240	3
TAP	55	336	3
TAP	56	48	3
TAP	56	144	3
TAP	56	240	1
TAP	56	336	0
HLD	57	48	5	384
TAP	57	144	4
TAP	57	240	4
TAP	57	336	4
HLD	58	48	2	288
TAP	58	144	3
TAP	58	240	3
TAP	58	336	3
TAP	59	0	2
TAP	59	0	3
TAP	59	72	2
TAP	59	72	3
TAP	59	144	1
TAP	59	144	4
TAP	59	288	4
TAP	59	288	5
TAP	59	360	4
TAP	59	360	5
TAP	60	48	4
TAP	60	48	5
TAP	60	120	3
TAP	60	120	6
TAP	60	240	3
TAP	60	240	4
TAP	60	360	3
TAP	61	0	4
TAP	61	72	1
TAP	61	72	3
TAP	61	144	0
TAP	61	144	2
TAP	61	288	3
TAP	61	288	4
TAP	61	360	4
TAP	61	360	6
TAP	62	48	5
TAP	62	48	7
TAP	62	120	4
TAP	62	120	6
TAP	62	192	3
TAP	62	192	4
TAP	62	264	1
TAP	62	264	3
TAP	62	336	0
TAP	62	336	2
TAP	63	0	0
TAP	63	0	2
TAP	63	144	3
TAP	63	168	4
TAP	63	192	3
TAP	63	264	6
TAP	63	264	7
TAP	63	336	0
TAP	63	336	5
TAP	64	48	3
TAP	64	48	4
TAP	64	120	2
TAP	64	120	5
TAP	64	192	1
TAP	64	192	6
TAP	64	264	0
TAP	64	264	7
TAP	64	336	0
TAP	64	336	7
TAP	65	0	0
TAP	65	24	7
TAP	65	48	0
TAP	65	72	7
TAP	65	96	0
TAP	65	120	7
TAP	65	144	0
TAP	65	168	7
TAP	65	192	1
TAP	65	216	6
TAP	65	240	1
TAP	65	264	6
TAP	65	288	1
TAP	65	312	6
TAP	65	336	1
TAP	65	360	6
TAP	66	0	0
TAP	66	24	7
TAP	66	48	0
TAP	66	72	7
TAP	66	96	1
TAP	66	120	6
TAP	66	144	1
TAP	66	168	6
TAP	66	192	0
TAP	66	216	7
TAP	66	240	0
TAP	66	264	7
TAP	66	288	1
TAP	66	312	6
TAP	66	336	1
TAP	66	360	6
STR	67	0	0
SF_	67	0	0	96	48	4
STR	67	192	1
SV_	67	192	1	96	48	4
STR	67	192	7
SV_	67	192	7	96	48	4
STR	68	0	0
SI_	68	0	0	96	48	4
TAP	68	48	0
STR	68	96	6
SI_	68	96	6	96	48	2
TAP	68	144	6
STR	68	192	1
SI_	68	192	1	96	48	5
TAP	68	240	1
STR	68	288	7
SI_	68	288	7	96	48	3
TAP	68	336	7
STR	69	0	0
SI_	69	0	0	96	48	4
TAP	69	48	0
STR	69	96	7
SI_	69	96	7	96	48	2
TAP	69	144	7
STR	69	192	0
SI_	69	192	0	96	48	5
TAP	69	240	0
TAP	69	288	7
TAP	70	0	0
TAP	70	0	7
STR	70	96	3
SI_	70	96	3	96	48	7
STR	70	96	4
SI_	70	96	4	96	48	0
BRK	70	288	1
BRK	70	288	6
TAP	71	0	0
TAP	71	0	7
TAP	71	48	1
TAP	71	48	6
TAP	71	96	0
TAP	71	120	7
TAP	71	168	7
TAP	71	192	5
TAP	71	240	5
TAP	71	264	7
TAP	71	312	7
TAP	71	336	0
TAP	72	0	0
TAP	72	24	2
TAP	72	72	2
TAP	72	96	0
TAP	72	144	0
TAP	72	168	7
TAP	72	216	7
TAP	72	240	4
TAP	72	288	3
TAP	72	288	5
TAP	72	336	2
TAP	72	336	6
TAP	73	0	0
TAP	73	0	7
TAP	73	48	1
TAP	73	48	6
TAP	73	96	7
TAP	73	120	0
TAP	73	168	0
TAP	73	192	2
TAP	73	240	2
TAP	73	264	0
TAP	73	312	0
TAP	73	336	7
TAP	74	0	7
TAP	74	24	5
TAP	74	72	5
TAP	74	96	7
TAP	74	144	7
TAP	74	168	0
TAP	74	216	0
TAP	74	240	3
TAP	74	288	2
TAP	74	288	4
TAP	74	336	1
TAP	74	336	5
TAP	75	0	0
TAP	75	0	7
TAP	75	48	1
TAP	75	48	6
TAP	75	96	0
TAP	75	120	7
TAP	75	168	7
TAP	75	192	5
TAP	75	240	5
TAP	75	264	7
TAP	75	312	7
TAP	75	336	0
TAP	76	0	0
TAP	76	24	2
TAP	76	72	2
TAP	76	96	0
TAP	76	144	0
TAP	76	168	7
TAP	76	216	7
TAP	76	240	4
TAP	76	288	3
TAP	76	288	5
TAP	76	336	2
TAP	76	336	6
HLD	77	0	0	48
HLD	77	0	1	48
TAP	77	72	2
TAP	77	72	7
HLD	77	144	6	48
HLD	77	144	7	48
TAP	77	216	0
TAP	77	216	5
TAP	77	288	2
TAP	77	288	3
TAP	77	336	1
TAP	77	336	4
HLD	78	0	4	48
HLD	78	0	5	48
TAP	78	72	3
TAP	78	72	6
HLD	78	144	2	48
HLD	78	144	3	48
TAP	78	216	1
TAP	78	216	4
TAP	78	288	6
TAP	78	288	7
TAP	78	336	0
TAP	78	336	5
TAP	79	0	3
TAP	79	0	4
TAP	79	48	2
TAP	79	48	5
TAP	79	96	4
TAP	79	120	3
TAP	79	168	3
TAP	79	192	1
TAP	79	240	1
TAP	79	264	3
TAP	79	312	3
TAP	79	336	4
TAP	80	0	4
TAP	80	24	6
TAP	80	72	6
TAP	80	96	4
TAP	80	144	4
TAP	80	168	3
TAP	80	216	3
TAP	80	240	0
TAP	80	288	1
TAP	80	288	7
TAP	80	336	2
TAP	80	336	6
TAP	81	0	3
TAP	81	0	4
TAP	81	48	2
TAP	81	48	5
TAP	81	96	3
TAP	81	120	4
TAP	81	168	4
TAP	81	192	6
TAP	81	240	6
TAP	81	264	4
TAP	81	312	4
TAP	81	336	3
TAP	82	0	3
TAP	82	24	1
TAP	82	72	1
TAP	82	96	3
TAP	82	144	3
TAP	82	168	4
TAP	82	216	4
TAP	82	240	7
TAP	82	288	0
TAP	82	288	6
TAP	82	336	1
TAP	82	336	5
TAP	83	0	3
TAP	83	0	4
TAP	83	48	2
TAP	83	48	5
TAP	83	96	4
TAP	83	120	3
TAP	83	168	3
TAP	83	192	1
TAP	83	240	1
TAP	83	264	3
TAP	83	312	3
TAP	83	336	4
TAP	84	0	4
TAP	84	24	6
TAP	84	72	6
TAP	84	96	4
TAP	84	144	4
TAP	84	168	3
TAP	84	216	3
TAP	84	240	0
TAP	84	288	1
TAP	84	288	7
TAP	84	336	2
TAP	84	336	6
HLD	85	0	6	48
HLD	85	0	7	48
TAP	85	72	0
TAP	85	72	5
HLD	85	144	0	48
HLD	85	144	1	48
TAP	85	216	2
TAP	85	216	7
TAP	85	288	4
TAP	85	288	5
TAP	85	336	3
TAP	85	336	6
HLD	86	0	0	48
HLD	86	0	1	48
TAP	86	72	2
TAP	86	72	7
HLD	86	144	6	48
HLD	86	144	7	48
TAP	86	216	0
TAP	86	216	5
BRK	86	288	1
BRK	86	288	6
TAP	87	0	3
TAP	87	0	5
TAP	87	48	3
TAP	87	48	5
TAP	87	144	2
TAP	87	144	4
TAP	87	240	3
TAP	87	240	5
TAP	87	336	2
TAP	87	336	4
TAP	88	48	3
TAP	88	48	5
STR	88	144	2
SI_	88	144	2	96	48	6
TAP	88	144	4
TAP	88	240	5
TAP	88	288	5
TAP	89	0	2
TAP	89	0	4
TAP	89	48	2
TAP	89	48	4
TAP	89	144	3
TAP	89	144	5
TAP	89	240	2
TAP	89	240	4
TAP	89	336	3
TAP	89	336	5
TAP	90	48	2
TAP	90	48	4
TAP	90	144	3
STR	90	144	5
SI_	90	144	5	96	48	1
TAP	90	240	2
TAP	90	288	2
TAP	91	0	3
TAP	91	0	5
TAP	91	48	3
TAP	91	48	5
TAP	91	144	2
TAP	91	144	4
TAP	91	240	3
TAP	91	240	6
TAP	91	336	1
TAP	91	336	4
TAP	92	48	3
TAP	92	48	7
TAP	92	144	0
STR	92	144	4
SI_	92	144	4	96	48	0
TAP	92	240	3
TAP	92	288	3
TAP	93	0	4
TAP	93	48	4
TAP	93	96	2
TAP	93	144	2
TAP	93	192	6
TAP	93	240	6
TAP	93	288	0
TAP	93	336	0
TAP	94	0	7
TAP	94	24	0
TAP	94	48	7
TAP	94	72	0
TAP	94	96	7
TAP	94	120	0
TAP	94	144	7
TAP	94	168	0
TAP	94	192	7
TAP	94	216	0
TAP	94	240	7
TAP	94	264	0
TAP	94	288	7
BRK	95	0	1
BRK	95	0	6
TAP	95	96	6
TAP	95	120	7
TAP	95	168	7
TAP	95	192	1
TAP	95	240	1
TAP	95	264	7
TAP	95	312	7
TAP	95	336	6
TAP	96	0	6
TAP	96	24	4
TAP	96	72	4
TAP	96	96	6
TAP	96	144	6
TAP	96	168	7
TAP	96	216	7
TAP	96	240	3
TAP	96	288	2
TAP	96	288	4
TAP	96	336	1
TAP	96	336	5
TAP	97	0	0
TAP	97	0	1
TAP	97	48	2
TAP	97	48	7
TAP	97	96	1
TAP	97	120	0
TAP	97	168	0
TAP	97	192	6
TAP	97	240	6
TAP	97	264	0
TAP	97	312	0
TAP	97	336	1
TAP	98	0	1
TAP	98	24	3
TAP	98	72	3
TAP	98	96	1
TAP	98	144	1
TAP	98	168	0
TAP	98	216	0
TAP	98	240	4
TAP	98	288	3
TAP	98	288	5
TAP	98	336	2
TAP	98	336	6
STR	99	0	5
SI_	99	0	5	96	48	0
TAP	99	48	5
STR	99	96	2
SI_	99	96	2	96	48	7
TAP	99	144	2
STR	99	192	4
SI_	99	192	4	96	48	0
TAP	99	240	4
STR	99	288	3
SI_	99	288	3	96	48	7
TAP	99	336	3
STR	100	0	5
SI_	100	0	5	96	48	0
TAP	100	48	5
STR	100	96	2
SI_	100	96	2	96	48	7
TAP	100	144	2
STR	100	192	4
SI_	100	192	4	96	48	0
TAP	100	240	4
TAP	100	288	3
HLD	101	0	1	48
HLD	101	0	3	48
TAP	101	72	0
TAP	101	72	4
HLD	101	144	4	48
HLD	101	144	6	48
TAP	101	216	3
TAP	101	216	7
TAP	101	288	2
TAP	101	336	1
TAP	101	336	3
HLD	102	0	5	48
HLD	102	0	7	48
TAP	102	72	0
TAP	102	72	4
HLD	102	144	0	48
HLD	102	144	2	48
TAP	102	216	3
TAP	102	216	7
TAP	102	288	3
TAP	102	288	4
TAP	102	336	0
TAP	102	336	7
BRK	103	0	1
BRK	103	0	6

T_REC_TAP	712
T_REC_BRK	11
T_REC_XTP	0
T_REC_HLD	36
T_REC_XHO	0
T_REC_STR	69
T_REC_BST	1
T_REC_XST	0
T_REC_TTP	0
T_REC_THO	0
T_REC_SLD	71
T_REC_ALL	900
T_NUM_TAP	781
T_NUM_BRK	12
T_NUM_HLD	36
T_NUM_SLD	71
T_NUM_ALL	900
T_JUDGE_TAP	793
T_JUDGE_HLD	126
T_JUDGE_SLD	71
T_JUDGE_ALL	990
TTM_EACHPAIRS	210
TTM_SCR_TAP	390500
TTM_SCR_BRK	31200
TTM_SCR_HLD	36000
TTM_SCR_SLD	106500
TTM_SCR_ALL	564200
TTM_SCR_S	546150
TTM_SCR_SS	563000
TTM_RAT_ACV	10021

