VERSION	0.00.00	1.03.00
FES_MODE	0
BPM_DEF	185.000	185.000	185.000	185.000
MET_DEF	4	4
RESOLUTION	384
CLK_DEF	384
COMPATIBLE_CODE	MA2

BPM	0	0	185.000
MET	0	0	4	4

TAP	3	0	4
TAP	3	96	4
TAP	3	192	4
TAP	3	288	4
TAP	4	0	3
TAP	4	96	3
TAP	4	192	3
TAP	4	288	3
TAP	5	0	4
TAP	5	96	4
TAP	5	192	4
TAP	5	288	4
TAP	6	0	3
TAP	6	96	3
TAP	6	192	3
TAP	6	288	3
TAP	7	0	4
TAP	7	0	5
TAP	7	96	4
TAP	7	96	5
TAP	7	192	3
TAP	7	192	6
TAP	7	288	3
TAP	7	288	6
TAP	8	0	2
TAP	8	0	3
TAP	8	96	2
TAP	8	96	3
TAP	8	192	1
TAP	8	192	4
TAP	8	288	1
TAP	8	288	4
TAP	9	0	4
TAP	9	0	5
TAP	9	96	4
TAP	9	96	5
TAP	9	192	3
TAP	9	192	6
TAP	9	288	3
TAP	9	288	6
STR	10	0	3
SCL	10	0	3	96	96	0
STR	10	0	4
SCR	10	0	4	96	96	7
BRK	10	288	1
BRK	10	288	6
TAP	11	0	4
TAP	11	0	5
TAP	11	96	2
TAP	11	96	5
TAP	11	192	4
TAP	11	192	5
TAP	11	288	2
TAP	11	288	5
TAP	12	0	2
TAP	12	0	3
TAP	12	96	2
TAP	12	96	5
TAP	12	192	2
TAP	12	192	3
TAP	12	288	2
TAP	12	288	5
TAP	13	0	4
TAP	13	0	5
TAP	13	96	2
TAP	13	96	5
TAP	13	192	4
TAP	13	192	5
TAP	13	288	2
TAP	13	288	5
TAP	14	0	2
TAP	14	0	3
TAP	14	96	1
TAP	14	96	4
TAP	14	192	0
TAP	14	192	5
TAP	14	288	6
TAP	14	288	7
TAP	15	0	2
TAP	15	0	3
TAP	15	96	2
TAP	15	96	5
TAP	15	192	2
TAP	15	192	3
TAP	15	288	2
TAP	15	288	5
TAP	16	0	4
TAP	16	0	5
TAP	16	96	2
TAP	16	96	5
TAP	16	192	4
TAP	16	192	5
TAP	16	288	2
TAP	16	288	5
TAP	17	0	2
TAP	17	0	3
TAP	17	96	1
TAP	17	96	4
TAP	17	192	0
TAP	17	192	5
TAP	17	288	6
TAP	17	288	7
STR	18	0	0
SI_	18	0	0	96	48	5
STR	18	0	1
SI_	18	0	1	96	48	4
STR	18	192	6
SI_	18	192	6	96	48	3
STR	18	192	7
SI_	18	192	7	96	48	2
TAP	19	0	4
TAP	19	0	5
TAP	19	96	2
TAP	19	96	4
TAP	19	192	4
TAP	19	192	5
TAP	19	288	2
TAP	19	288	4
TAP	20	0	2
TAP	20	0	3
TAP	20	96	3
TAP	20	96	5
TAP	20	192	2
TAP	20	192	3
TAP	20	288	3
TAP	20	288	5
TAP	21	0	4
TAP	21	0	5
TAP	21	96	2
TAP	21	96	4
TAP	21	192	4
TAP	21	192	5
TAP	21	288	2
TAP	21	288	4
TAP	22	0	2
TAP	22	0	3
TAP	22	96	1
TAP	22	96	4
TAP	22	192	0
TAP	22	192	5
TAP	22	288	6
TAP	22	288	7
TAP	23	0	2
TAP	23	0	3
TAP	23	96	3
TAP	23	96	5
TAP	23	192	2
TAP	23	192	3
TAP	23	288	3
TAP	23	288	5
TAP	24	0	4
TAP	24	0	5
TAP	24	96	2
TAP	24	96	4
TAP	24	192	4
TAP	24	192	5
TAP	24	288	2
TAP	24	288	4
TAP	25	0	2
TAP	25	0	3
TAP	25	96	1
TAP	25	96	4
TAP	25	192	0
TAP	25	192	5
TAP	25	288	6
TAP	25	288	7
TAP	26	0	4
TAP	26	0	5
TAP	26	96	2
TAP	26	96	3
TAP	26	192	3
TAP	26	192	4
BRK	26	288	1
BRK	26	288	6
HLD	27	0	6	288
TAP	27	96	5
TAP	27	192	2
TAP	27	288	5
HLD	28	0	1	288
TAP	28	96	2
TAP	28	192	5
TAP	28	288	2
HLD	29	0	6	288
TAP	29	96	5
TAP	29	192	2
TAP	29	288	5
HLD	30	0	1	96
TAP	30	96	2
HLD	30	192	6	96
TAP	30	288	5
HLD	31	0	1	288
TAP	31	96	2
TAP	31	192	5
TAP	31	288	2
HLD	32	0	6	288
TAP	32	96	5
TAP	32	192	2
TAP	32	288	5
HLD	33	0	1	288
TAP	33	96	2
TAP	33	192	5
TAP	33	288	2
HLD	34	0	6	96
TAP	34	96	5
HLD	34	192	1	96
TAP	34	288	2
HLD	35	0	5	288
TAP	35	96	4
TAP	35	192	0
TAP	35	288	3
HLD	36	0	2	288
TAP	36	96	3
TAP	36	192	7
TAP	36	288	4
HLD	37	0	5	288
TAP	37	96	4
TAP	37	192	0
TAP	37	288	3
HLD	38	0	2	96
TAP	38	96	3
HLD	38	192	6	96
TAP	38	288	7
HLD	39	0	2	288
TAP	39	96	3
TAP	39	192	7
TAP	39	288	4
HLD	40	0	5	288
TAP	40	96	4
TAP	40	192	0
TAP	40	288	3
HLD	41	0	2	288
TAP	41	96	3
TAP	41	192	7
TAP	41	288	4
HLD	42	0	7	96
TAP	42	96	6
HLD	42	192	0	96
TAP	42	288	1
STR	43	0	7
SCL	43	0	7	96	1056	0
STR	47	0	4
SCR	47	0	4	96	1056	3
HLD	51	0	3	96
HLD	51	96	2	96
HLD	51	192	1	96
HLD	51	288	0	96
HLD	52	0	7	96
HLD	52	96	6	96
HLD	52	192	5	96
TAP	52	288	4
HLD	53	0	4	96
HLD	53	96	5	96
HLD	53	192	6	96
HLD	53	288	7	96
HLD	54	0	0	96
HLD	54	96	1	96
HLD	54	192	2	96
TAP	54	288	3
HLD	55	0	3	96
HLD	55	96	2	96
HLD	55	192	1	96
HLD	55	288	0	96
HLD	56	0	7	96
HLD	56	96	6	96
HLD	56	192	5	96
TAP	56	288	4
HLD	57	0	4	96
HLD	57	96	5	96
HLD	57	192	6	96
HLD	57	288	7	96
HLD	58	0	0	96
HLD	58	96	1	96
HLD	58	192	2	96
TAP	58	288	3
HLD	59	0	5	96
TAP	59	96	4
HLD	59	192	2	96
TAP	59	288	3
HLD	60	0	5	96
TAP	60	96	4
TAP	60	192	6
TAP	60	192	7
TAP	60	288	0
TAP	60	288	5
HLD	61	0	2	96
TAP	61	96	3
HLD	61	192	5	96
TAP	61	288	4
HLD	62	0	2	96
TAP	62	96	3
TAP	62	192	0
TAP	62	192	1
TAP	62	288	2
TAP	62	288	7
HLD	63	0	6	96
TAP	63	96	7
HLD	63	192	1	96
TAP	63	288	0
HLD	64	0	6	96
TAP	64	96	7
TAP	64	192	4
TAP	64	192	5
TAP	64	288	3
TAP	64	288	6
HLD	65	0	1	96
TAP	65	96	0
HLD	65	192	6	96
TAP	65	288	7
HLD	66	0	1	96
TAP	66	96	0
TAP	66	192	2
TAP	66	192	3
TAP	66	288	1
TAP	66	288	4
TAP	67	0	4
TAP	67	0	5
TAP	67	96	2
TAP	67	96	7
TAP	67	192	2
TAP	67	192	3
TAP	67	288	0
TAP	67	288	5
TAP	68	0	6
TAP	68	0	7
TAP	68	96	0
TAP	68	96	5
TAP	68	192	1
TAP	68	192	4
TAP	68	288	2
TAP	68	288	3
TAP	69	0	0
TAP	69	0	1
TAP	69	96	2
TAP	69	96	7
TAP	69	192	3
TAP	69	192	6
TAP	69	288	4
TAP	69	288	5
STR	70	0	0
SI_	70	0	0	96	96	3
STR	70	0	7
SI_	70	0	7	96	96	4
BRK	70	288	0
BRK	70	288	7
TAP	71	0	4
TAP	71	0	6
TAP	71	96	1
TAP	71	96	6
TAP	71	192	4
TAP	71	192	6
TAP	71	288	1
TAP	71	288	6
TAP	72	0	1
TAP	72	0	3
TAP	72	96	1
TAP	72	96	6
TAP	72	192	1
TAP	72	192	3
TAP	72	288	1
TAP	72	288	6
TAP	73	0	4
TAP	73	0	6
TAP	73	96	1
TAP	73	96	6
TAP	73	192	4
TAP	73	192	6
TAP	73	288	1
TAP	73	288	6
TAP	74	0	1
TAP	74	0	3
TAP	74	96	4
TAP	74	96	6
TAP	74	192	3
TAP	74	192	4
TAP	74	288	0
TAP	74	288	7
TAP	75	0	1
TAP	75	0	3
TAP	75	96	1
TAP	75	96	6
TAP	75	192	1
TAP	75	192	3
TAP	75	288	1
TAP	75	288	6
TAP	76	0	4
TAP	76	0	6
TAP	76	96	1
TAP	76	96	6
TAP	76	192	4
TAP	76	192	6
TAP	76	288	1
TAP	76	288	6
TAP	77	0	1
TAP	77	0	3
TAP	77	96	1
TAP	77	96	6
TAP	77	192	1
TAP	77	192	3
TAP	77	288	1
TAP	77	288	6
TAP	78	0	3
TAP	78	0	4
TAP	78	96	2
TAP	78	96	5
TAP	78	192	1
TAP	78	192	6
TAP	78	288	0
TAP	78	288	7
TAP	79	0	4
TAP	79	0	6
TAP	79	96	1
TAP	79	96	4
TAP	79	192	4
TAP	79	192	6
TAP	79	288	1
TAP	79	288	4
TAP	80	0	1
TAP	80	0	3
TAP	80	96	3
TAP	80	96	6
TAP	80	192	1
TAP	80	192	3
TAP	80	288	3
TAP	80	288	6
TAP	81	0	4
TAP	81	0	6
TAP	81	96	1
TAP	81	96	4
TAP	81	192	4
TAP	81	192	6
TAP	81	288	1
TAP	81	288	4
TAP	82	0	1
TAP	82	0	3
TAP	82	96	3
TAP	82	96	6
TAP	82	192	4
TAP	82	192	6
TAP	82	288	1
TAP	82	288	4
TAP	83	0	1
TAP	83	0	3
TAP	83	96	3
TAP	83	96	6
TAP	83	192	1
TAP	83	192	3
TAP	83	288	3
TAP	83	288	6
TAP	84	0	4
TAP	84	0	6
TAP	84	96	1
TAP	84	96	4
TAP	84	192	4
TAP	84	192	6
TAP	84	288	1
TAP	84	288	4
TAP	85	0	2
TAP	85	0	3
TAP	85	96	1
TAP	85	96	4
TAP	85	192	0
TAP	85	192	5
TAP	85	288	6
TAP	85	288	7
TAP	86	0	4
TAP	86	0	5
TAP	86	96	3
TAP	86	96	6
TAP	86	192	2
TAP	86	192	7
TAP	86	288	0
TAP	86	288	1
TAP	87	0	7
TAP	87	96	7
TAP	87	192	0
TAP	87	288	0
TAP	88	0	7
TAP	88	96	7
TAP	88	192	0
TAP	88	288	0
TAP	89	0	6
TAP	89	96	6
TAP	89	192	1
TAP	89	288	1
TAP	90	0	6
TAP	90	96	6
TAP	90	192	1
TAP	90	288	1
TAP	91	0	5
TAP	91	96	4
TAP	91	96	5
TAP	91	192	2
TAP	91	288	2
TAP	91	288	3
TAP	92	0	5
TAP	92	96	4
TAP	92	96	5
TAP	92	192	2
TAP	92	288	2
TAP	92	288	3
TAP	93	0	4
TAP	93	96	3
TAP	93	96	4
TAP	93	192	3
TAP	93	288	3
TAP	93	288	4
TAP	94	0	4
TAP	94	96	3
TAP	94	96	4
TAP	94	192	3
TAP	94	288	3
TAP	94	288	4
TAP	95	0	5
TAP	95	0	7
TAP	95	96	2
TAP	95	96	5
TAP	95	192	5
TAP	95	192	7
TAP	95	288	2
TAP	95	288	5
TAP	96	0	0
TAP	96	0	2
TAP	96	96	2
TAP	96	96	5
TAP	96	192	0
TAP	96	192	2
TAP	96	288	2
TAP	96	288	5
TAP	97	0	5
TAP	97	0	7
TAP	97	96	2
TAP	97	96	5
TAP	97	192	5
TAP	97	192	7
TAP	97	288	2
TAP	97	288	5
TAP	98	0	0
TAP	98	0	2
TAP	98	96	2
TAP	98	96	5
TAP	98	192	5
TAP	98	192	7
TAP	98	288	2
TAP	98	288	5
TAP	99	0	0
TAP	99	0	2
TAP	99	96	0
TAP	99	96	5
TAP	99	192	0
TAP	99	192	2
TAP	99	288	0
TAP	99	288	5
TAP	100	0	5
TAP	100	0	7
TAP	100	96	2
TAP	100	96	7
TAP	100	192	5
TAP	100	192	7
TAP	100	288	2
TAP	100	288	7
TAP	101	0	0
TAP	101	0	2
TAP	101	96	0
TAP	101	96	5
TAP	101	192	0
TAP	101	192	2
TAP	101	288	0
TAP	101	288	5
TAP	102	0	5
TAP	102	0	7
STR	102	96	3
SCL	102	96	3	96	96	0
STR	102	96	4
SCR	102	96	4	96	96	7
BRK	103	0	1
BRK	103	0	6

T_REC_TAP	484
T_REC_BRK	8
T_REC_XTP	0
T_REC_HLD	60
T_REC_XHO	0
T_REC_STR	12
T_REC_BST	0
T_REC_XST	0
T_REC_TTP	0
T_REC_THO	0
T_REC_SLD	12
T_REC_ALL	576
T_NUM_TAP	496
T_NUM_BRK	8
T_NUM_HLD	60
T_NUM_SLD	12
T_NUM_ALL	576
T_JUDGE_TAP	504
T_JUDGE_HLD	168
T_JUDGE_SLD	12
T_JUDGE_ALL	684
TTM_EACHPAIRS	201
TTM_SCR_TAP	248000
TTM_SCR_BRK	20800
TTM_SCR_HLD	60000
TTM_SCR_SLD	18000
TTM_SCR_ALL	346800
TTM_SCR_S	335650
TTM_SCR_SS	346000
TTM_RAT_ACV	10023

