VERSION	0.00.00	1.03.00
FES_MODE	0
BPM_DEF	185.000	185.000	185.000	185.000
MET_DEF	4	4
RESOLUTION	384
CLK_DEF	384
COMPATIBLE_CODE	MA2

BPM	0	0	185.000
MET	0	0	4	4

TAP	3	0	3
TAP	3	192	3
TAP	4	0	3
TAP	4	192	3
TAP	5	0	4
TAP	5	192	4
TAP	6	0	4
TAP	6	192	4
TAP	7	0	3
TAP	7	96	3
TAP	7	192	2
TAP	7	288	2
TAP	8	0	1
TAP	8	96	1
TAP	8	192	0
TAP	8	288	0
TAP	9	0	7
TAP	9	96	7
TAP	9	192	6
TAP	9	288	6
BRK	10	0	4
BRK	10	0	5
BRK	10	288	0
TAP	11	0	4
TAP	11	96	4
TAP	11	192	4
TAP	11	192	5
TAP	12	0	3
TAP	12	96	3
TAP	12	192	2
TAP	12	192	3
TAP	13	0	4
TAP	13	96	4
TAP	13	192	4
TAP	13	192	5
TAP	14	0	3
TAP	14	96	3
TAP	14	192	2
TAP	14	288	2
TAP	15	0	1
TAP	15	96	1
TAP	15	192	0
TAP	15	192	1
TAP	16	0	6
TAP	16	96	6
TAP	16	192	6
TAP	16	192	7
TAP	17	0	1
TAP	17	96	1
TAP	17	192	0
TAP	17	192	1
HLD	18	0	6	192
HLD	18	0	7	192
TAP	19	0	5
TAP	19	96	5
TAP	19	192	4
TAP	19	192	5
TAP	20	0	2
TAP	20	96	2
TAP	20	192	2
TAP	20	192	3
TAP	21	0	5
TAP	21	96	5
TAP	21	192	4
TAP	21	192	5
TAP	22	0	2
TAP	22	96	2
TAP	22	192	1
TAP	22	288	1
TAP	23	0	0
TAP	23	96	0
TAP	23	192	0
TAP	23	192	1
TAP	24	0	7
TAP	24	96	7
TAP	24	192	6
TAP	24	192	7
TAP	25	0	0
TAP	25	96	0
TAP	25	192	0
TAP	25	192	1
HLD	26	0	0	192
HLD	26	0	7	192
TAP	26	288	0
TAP	26	288	7
TAP	27	0	6
TAP	27	96	6
TAP	27	192	5
TAP	27	288	5
TAP	28	0	4
TAP	28	96	4
TAP	28	192	3
TAP	28	288	3
TAP	29	0	2
TAP	29	96	2
TAP	29	192	1
TAP	29	288	1
HLD	30	0	0	192
TAP	30	288	1
TAP	30	288	7
TAP	31	0	1
TAP	31	96	1
TAP	31	192	2
TAP	31	288	2
TAP	32	0	3
TAP	32	96	3
TAP	32	192	4
TAP	32	288	4
TAP	33	0	5
TAP	33	96	5
TAP	33	192	6
TAP	33	288	6
HLD	34	0	7	192
TAP	34	288	0
TAP	34	288	6
TAP	35	0	6
TAP	35	96	6
TAP	35	192	5
TAP	35	240	5
TAP	35	288	5
TAP	36	0	4
TAP	36	96	4
TAP	36	192	3
TAP	36	240	3
TAP	36	288	3
TAP	37	0	2
TAP	37	96	2
TAP	37	192	1
TAP	37	240	1
TAP	37	288	1
HLD	38	0	0	192
HLD	38	0	7	192
TAP	38	288	0
TAP	38	288	7
TAP	39	0	1
TAP	39	96	1
TAP	39	192	2
TAP	39	240	2
TAP	39	288	2
TAP	40	0	3
TAP	40	96	3
TAP	40	192	4
TAP	40	240	4
TAP	40	288	4
TAP	41	0	5
TAP	41	96	5
TAP	41	192	6
TAP	41	240	6
TAP	41	288	6
HLD	42	0	0	192
HLD	42	0	7	192
TAP	42	288	0
TAP	42	288	7
BRK	43	0	1
BRK	43	0	6
TAP	51	0	1
TAP	51	96	1
TAP	51	192	1
TAP	51	288	1
TAP	52	0	2
TAP	52	96	2
TAP	52	192	2
TAP	52	288	2
TAP	53	0	3
TAP	53	96	3
TAP	53	192	3
TAP	53	288	3
TAP	54	0	4
TAP	54	96	4
TAP	54	192	3
TAP	54	288	3
TAP	55	0	4
TAP	55	96	4
TAP	55	192	4
TAP	55	288	4
TAP	56	0	5
TAP	56	96	5
TAP	56	192	5
TAP	56	288	5
TAP	57	0	6
TAP	57	96	6
TAP	57	192	6
TAP	57	288	6
TAP	58	0	7
TAP	58	96	7
TAP	58	192	0
TAP	58	288	0
STR	59	0	1
SI_	59	0	1	96	480	5
STR	61	0	6
SI_	61	0	6	96	480	2
STR	63	0	0
SI_	63	0	0	96	480	3
STR	65	0	4
SI_	65	0	4	96	480	7
TAP	67	0	0
TAP	67	0	1
TAP	67	192	6
TAP	67	192	7
TAP	68	0	0
TAP	68	0	1
TAP	68	96	0
TAP	68	96	7
TAP	68	192	6
TAP	68	192	7
TAP	69	0	5
TAP	69	48	5
TAP	69	96	5
TAP	69	192	4
TAP	69	240	4
TAP	69	288	4
TAP	70	0	3
TAP	70	0	4
TAP	70	96	3
TAP	70	144	4
TAP	70	192	3
TAP	70	288	2
TAP	70	288	5
TAP	71	0	3
TAP	71	96	3
TAP	71	192	2
TAP	71	288	2
TAP	71	288	3
TAP	72	0	1
TAP	72	96	1
TAP	72	192	0
TAP	72	288	0
TAP	72	288	7
TAP	73	0	7
TAP	73	96	7
TAP	73	192	6
TAP	73	288	6
TAP	73	288	7
TAP	74	0	5
TAP	74	48	5
TAP	74	96	5
TAP	74	192	2
TAP	74	240	2
TAP	74	288	2
TAP	75	0	4
TAP	75	96	4
TAP	75	192	5
TAP	75	288	4
TAP	75	288	5
TAP	76	0	6
TAP	76	96	6
TAP	76	192	7
TAP	76	288	0
TAP	76	288	7
TAP	77	0	0
TAP	77	96	0
TAP	77	192	1
TAP	77	288	0
TAP	77	288	1
TAP	78	0	2
TAP	78	48	2
TAP	78	96	2
TAP	78	192	5
TAP	78	240	5
TAP	78	288	5
TAP	79	0	3
TAP	79	48	3
TAP	79	96	3
TAP	79	192	2
TAP	79	192	3
TAP	79	288	1
TAP	79	288	4
TAP	80	0	1
TAP	80	48	1
TAP	80	96	1
TAP	80	192	0
TAP	80	192	1
TAP	80	288	2
TAP	80	288	7
TAP	81	0	7
TAP	81	48	7
TAP	81	96	7
TAP	81	192	6
TAP	81	192	7
TAP	81	288	0
TAP	81	288	5
TAP	82	0	5
TAP	82	48	4
TAP	82	96	5
TAP	82	192	2
TAP	82	240	3
TAP	82	288	2
TAP	83	0	4
TAP	83	48	4
TAP	83	96	4
TAP	83	192	4
TAP	83	192	5
TAP	83	288	3
TAP	83	288	6
TAP	84	0	6
TAP	84	48	6
TAP	84	96	6
TAP	84	192	6
TAP	84	192	7
TAP	84	288	0
TAP	84	288	5
TAP	85	0	0
TAP	85	48	0
TAP	85	96	0
TAP	85	192	0
TAP	85	192	1
TAP	85	288	2
TAP	85	288	7
TAP	86	0	2
TAP	86	48	3
TAP	86	96	2
TAP	86	192	5
TAP	86	240	4
TAP	86	288	5
STR	87	0	3
SI_	87	0	3	96	480	7
STR	89	0	4
SI_	89	0	4	96	480	0
STR	91	0	2
SI_	91	0	2	96	480	7
STR	93	0	5
SI_	93	0	5	96	480	0
BRK	95	0	0
BRK	95	0	1
TAP	95	96	1
TAP	95	192	2
TAP	95	288	2
TAP	95	288	3
TAP	96	0	3
TAP	96	96	3
TAP	96	192	4
TAP	96	288	3
TAP	96	288	4
TAP	97	0	5
TAP	97	96	5
TAP	97	192	6
TAP	97	288	6
TAP	97	288	7
TAP	98	0	7
TAP	98	48	7
TAP	98	96	7
TAP	98	192	0
TAP	98	240	0
TAP	98	288	0
TAP	99	0	6
TAP	99	48	7
TAP	99	96	6
TAP	99	192	1
TAP	99	240	0
TAP	99	288	1
TAP	100	0	2
TAP	100	48	3
TAP	100	96	2
TAP	100	192	5
TAP	100	240	4
TAP	100	288	5
TAP	101	0	5
TAP	101	48	5
TAP	101	96	4
TAP	101	144	4
TAP	101	192	3
TAP	101	240	3
TAP	101	288	2
TAP	101	336	2
TAP	102	0	1
TAP	102	48	0
TAP	102	96	7
TAP	102	144	6
TAP	102	192	5
TAP	102	240	4
TAP	102	288	3
TAP	102	336	2
BRK	103	0	0
BRK	103	0	1

T_REC_TAP	339
T_REC_BRK	9
T_REC_XTP	0
T_REC_HLD	10
T_REC_XHO	0
T_REC_STR	8
T_REC_BST	0
T_REC_XST	0
T_REC_TTP	0
T_REC_THO	0
T_REC_SLD	8
T_REC_ALL	374
T_NUM_TAP	347
T_NUM_BRK	9
T_NUM_HLD	10
T_NUM_SLD	8
T_NUM_ALL	374
T_JUDGE_TAP	356
T_JUDGE_HLD	40
T_JUDGE_SLD	8
T_JUDGE_ALL	404
TTM_EACHPAIRS	53
TTM_SCR_TAP	173500
TTM_SCR_BRK	23400
TTM_SCR_HLD	10000
TTM_SCR_SLD	12000
TTM_SCR_ALL	218900
TTM_SCR_S	211500
TTM_SCR_SS	218000
TTM_RAT_ACV	10041

