VERSION	0.00.00	1.03.00
FES_MODE	0
BPM_DEF	160.000	160.000	160.000	160.000
MET_DEF	4	4
RESOLUTION	384
CLK_DEF	384
COMPATIBLE_CODE	MA2

BPM	0	0	160.000
MET	0	0	4	4
MET	34	0	4	3
MET	46	0	4	4

TAP	2	0	6
STR	2	0	7
SI_	2	0	7	96	48	3
TAP	2	96	7
TAP	2	120	0
TAP	2	168	0
TAP	2	240	5
TAP	2	240	7
TAP	2	288	1
TAP	2	312	0
TAP	2	336	2
TAP	2	360	7
TAP	3	0	3
TAP	3	48	4
TAP	3	48	5
TAP	3	96	1
TAP	3	120	3
TAP	3	144	1
STR	3	192	3
SI_	3	192	3	96	48	7
STR	3	192	4
SI_	3	192	4	96	48	6
TAP	3	240	2
TAP	3	240	5
TAP	3	288	3
TAP	3	288	4
STR	4	0	0
SI_	4	0	0	96	48	4
TAP	4	0	1
TAP	4	96	0
TAP	4	120	7
TAP	4	168	7
TAP	4	240	0
TAP	4	240	2
TAP	4	288	6
TAP	4	312	7
TAP	4	336	5
TAP	4	360	0
TAP	5	0	4
TAP	5	48	2
TAP	5	48	3
TAP	5	96	6
TAP	5	120	4
TAP	5	144	6
STR	5	192	3
SI_	5	192	3	96	48	1
STR	5	192	4
SI_	5	192	4	96	48	0
TAP	5	240	2
TAP	5	240	5
TAP	5	288	3
TAP	5	288	4
TAP	6	0	5
HLD	6	0	7	72
HLD	6	72	6	72
HLD	6	144	5	72
HLD	6	216	4	72
HLD	6	288	3	96
HLD	7	0	0	72
HLD	7	72	1	72
STR	7	144	2
SCL	7	144	2	96	96	5
TAP	8	0	0
TAP	8	12	1
TAP	8	24	2
TAP	8	36	3
TAP	8	48	4
TAP	8	60	5
TAP	8	72	6
TAP	8	84	7
TAP	8	96	0
TAP	8	108	1
TAP	8	120	2
TAP	8	132	3
TAP	8	144	4
TAP	8	156	5
TAP	8	168	6
TAP	8	180	7
TAP	8	192	0
TAP	8	204	1
TAP	8	216	2
TAP	8	228	3
TAP	8	240	4
TAP	8	252	5
TAP	8	264	6
TAP	8	276	7
TAP	8	288	0
TAP	8	300	1
TAP	8	312	2
TAP	8	324	3
TAP	8	336	4
TAP	8	348	5
TAP	8	360	6
TAP	8	372	7
BRK	9	0	0
BRK	9	0	4
STR	9	192	2
SI_	9	192	2	96	48	7
STR	9	192	6
SI_	9	192	6	96	48	3
TAP	9	288	2
TAP	9	288	6
TAP	10	0	1
TAP	10	0	5
TAP	10	48	6
TAP	10	72	7
TAP	10	120	5
TAP	10	144	1
TAP	10	192	2
TAP	10	192	6
TAP	10	240	1
TAP	10	264	0
TAP	10	312	2
TAP	10	336	6
TAP	11	0	0
TAP	11	0	5
TAP	11	48	6
TAP	11	72	7
TAP	11	120	4
TAP	11	144	0
TAP	11	192	2
TAP	11	192	7
TAP	11	240	1
TAP	11	264	0
TAP	11	312	3
TAP	11	336	7
STR	12	0	0
SI_	12	0	0	96	36	4
STR	12	0	5
SI_	12	0	5	96	36	7
TAP	12	72	0
TAP	12	72	5
STR	12	192	2
SI_	12	192	2	96	36	0
STR	12	192	7
SI_	12	192	7	96	36	3
TAP	12	264	2
TAP	12	264	7
TAP	13	0	0
TAP	13	0	5
TAP	13	48	6
TAP	13	72	7
TAP	13	120	4
TAP	13	144	0
STR	13	192	2
SF_	13	192	2	96	48	6
BRK	13	288	2
TAP	14	0	0
TAP	14	0	1
TAP	14	48	1
TAP	14	72	2
TAP	14	120	2
TAP	14	144	3
TAP	14	192	3
TAP	14	216	4
TAP	14	264	4
TAP	14	288	5
TAP	14	336	6
TAP	14	336	7
TAP	15	0	6
TAP	15	48	6
TAP	15	72	5
TAP	15	120	5
TAP	15	144	4
TAP	15	192	4
TAP	15	216	3
TAP	15	264	3
TAP	15	288	2
TAP	15	336	0
TAP	15	336	1
STR	16	0	1
SUR	16	0	1	96	48	5
TAP	16	48	1
STR	16	96	6
SUL	16	96	6	96	48	2
TAP	16	144	6
STR	16	192	0
SUR	16	192	0	96	48	4
TAP	16	240	0
STR	16	288	7
SUL	16	288	7	96	48	3
TAP	16	336	7
TAP	17	0	2
TAP	17	48	2
TAP	17	64	1
TAP	17	80	0
TAP	17	96	6
TAP	17	120	0
TAP	17	144	6
TAP	17	168	0
STR	17	192	7
SF_	17	192	7	96	48	3
BRK	17	288	7
TAP	18	0	1
TAP	18	24	0
STR	18	48	1
SI_	18	48	1	96	48	4
HLD	18	72	0	72
TAP	18	192	6
TAP	18	216	7
STR	18	240	6
SI_	18	240	6	96	48	3
HLD	18	264	7	72
TAP	19	0	1
TAP	19	24	7
STR	19	48	1
SI_	19	48	1	96	48	5
HLD	19	72	7	72
TAP	19	192	6
TAP	19	216	0
STR	19	240	6
SI_	19	240	6	96	48	2
HLD	19	264	0	72
TAP	20	0	1
TAP	20	24	7
STR	20	48	0
SI_	20	48	0	96	48	4
HLD	20	72	6	72
TAP	20	192	6
TAP	20	216	0
STR	20	240	7
SI_	20	240	7	96	48	3
HLD	20	264	1	72
TAP	21	0	1
TAP	21	24	7
STR	21	48	0
SI_	21	48	0	96	48	4
HLD	21	72	6	72
TAP	21	192	6
TAP	21	216	0
TAP	21	240	7
TAP	21	264	1
TAP	21	288	5
TAP	21	312	3
TAP	21	336	4
TAP	21	360	2
TAP	22	0	6
TAP	22	24	0
STR	22	48	5
SI_	22	48	5	96	48	1
HLD	22	72	7	72
TAP	22	192	0
TAP	22	216	7
STR	22	240	2
SI_	22	240	2	96	48	6
HLD	22	264	0	72
TAP	23	0	7
TAP	23	24	0
STR	23	48	5
SI_	23	48	5	96	48	0
HLD	23	72	7	72
TAP	23	192	1
TAP	23	216	7
STR	23	240	2
SI_	23	240	2	96	48	7
HLD	23	264	0	72
TAP	24	0	6
TAP	24	24	0
TAP	24	48	6
TAP	24	72	0
BRK	24	96	7
TAP	24	192	2
TAP	24	216	4
TAP	24	240	2
TAP	24	264	4
TAP	24	288	1
TAP	24	288	3
TAP	24	336	1
TAP	24	336	3
TAP	25	0	7
TAP	25	48	0
TAP	25	48	2
TAP	25	72	0
TAP	25	72	2
TAP	25	120	3
TAP	25	120	7
STR	25	168	4
SI_	25	168	4	96	48	0
STR	25	168	6
SI_	25	168	6	96	48	2
STR	26	0	5
SI_	26	0	5	96	48	7
STR	26	48	7
SI_	26	48	7	96	48	3
TAP	26	72	7
TAP	26	144	1
STR	26	192	2
SI_	26	192	2	96	48	0
STR	26	240	0
SI_	26	240	0	96	48	4
TAP	26	264	0
TAP	26	336	6
STR	27	0	5
SI_	27	0	5	96	48	7
STR	27	48	7
SI_	27	48	7	96	48	3
TAP	27	72	7
TAP	27	144	1
STR	27	192	2
SI_	27	192	2	96	48	0
STR	27	240	0
SI_	27	240	0	96	48	4
TAP	27	264	0
TAP	27	336	6
STR	28	0	5
SI_	28	0	5	96	48	0
STR	28	48	0
SI_	28	48	0	96	48	4
TAP	28	72	0
TAP	28	144	3
STR	28	192	2
SI_	28	192	2	96	48	7
STR	28	240	7
SI_	28	240	7	96	48	3
TAP	28	264	7
TAP	28	336	4
STR	29	0	5
SI_	29	0	5	96	48	0
STR	29	48	0
SI_	29	48	0	96	48	4
TAP	29	72	0
TAP	29	144	3
TAP	29	192	1
TAP	29	216	3
TAP	29	240	2
TAP	29	264	4
TAP	29	288	3
TAP	29	312	5
TAP	29	336	4
HLD	29	360	6	72
TAP	30	48	7
TAP	30	64	0
TAP	30	80	1
BRK	30	96	2
BRK	30	96	5
STR	30	192	2
SCL	30	192	2	96	48	7
STR	30	240	7
SI_	30	240	7	96	48	3
TAP	30	264	7
TAP	30	336	4
STR	31	0	5
SCR	31	0	5	96	48	0
STR	31	48	0
SI_	31	48	0	96	48	4
TAP	31	72	0
TAP	31	144	3
STR	31	192	2
SCL	31	192	2	96	48	7
STR	31	240	7
SI_	31	240	7	96	48	3
TAP	31	264	7
TAP	31	336	4
TAP	32	0	6
TAP	32	24	5
TAP	32	48	4
HLD	32	72	3	72
TAP	32	144	1
TAP	32	168	2
TAP	32	192	3
HLD	32	216	4	72
TAP	32	288	6
TAP	32	312	5
TAP	32	336	4
TAP	32	360	3
TAP	33	0	2
TAP	33	24	1
TAP	33	48	0
STR	33	72	7
SCL	33	72	7	96	120	0
BRK	34	0	3
STR	34	0	7
SCL	34	0	7	96	48	4
TAP	34	96	3
TAP	34	112	2
TAP	34	128	1
TAP	34	144	0
TAP	34	240	4
TAP	34	288	1
TAP	34	288	5
TAP	34	336	6
TAP	35	0	7
TAP	35	48	0
TAP	35	48	4
TAP	35	96	1
TAP	35	144	2
STR	35	192	3
SCL	35	192	3	96	48	0
BRK	35	192	7
TAP	35	288	7
TAP	35	304	6
TAP	35	320	5
TAP	35	336	4
TAP	36	48	0
TAP	36	96	3
TAP	36	96	7
TAP	36	144	6
TAP	36	192	5
TAP	36	240	0
TAP	36	240	4
TAP	36	288	3
TAP	36	336	2
STR	37	0	1
SCL	37	0	1	96	48	6
BRK	37	0	5
TAP	37	96	5
TAP	37	112	4
TAP	37	128	3
TAP	37	144	2
TAP	37	240	6
TAP	37	288	3
TAP	37	288	7
TAP	37	336	0
TAP	38	0	1
TAP	38	48	2
TAP	38	48	6
TAP	38	96	3
TAP	38	144	4
BRK	38	192	1
STR	38	192	5
SCL	38	192	5	96	48	2
TAP	38	288	1
TAP	38	304	0
TAP	38	320	7
TAP	38	336	6
TAP	39	48	2
TAP	39	96	1
TAP	39	96	5
TAP	39	144	0
TAP	39	192	7
TAP	39	240	2
TAP	39	240	6
TAP	39	288	5
TAP	39	336	4
TAP	40	0	3
TAP	40	0	5
TAP	40	48	6
TAP	40	72	7
TAP	40	96	6
TAP	40	144	2
TAP	40	144	7
TAP	40	192	1
TAP	40	216	0
TAP	40	240	1
TAP	40	288	0
STR	40	288	5
SCL	40	288	5	96	48	2
TAP	40	336	6
TAP	41	0	7
STR	41	48	0
SCL	41	48	0	96	48	5
TAP	41	96	1
TAP	41	144	2
TAP	41	192	3
TAP	41	240	1
TAP	41	264	0
TAP	41	288	1
TAP	41	336	0
TAP	41	336	5
TAP	42	0	6
TAP	42	24	7
TAP	42	48	6
STR	42	96	2
SCR	42	96	2	96	48	5
TAP	42	96	7
TAP	42	144	1
TAP	42	192	0
STR	42	240	7
SCR	42	240	7	96	48	2
TAP	42	288	6
TAP	42	336	5
TAP	43	0	4
TAP	43	48	6
TAP	43	72	7
TAP	43	96	5
TAP	43	144	2
TAP	43	144	7
TAP	43	192	1
TAP	43	216	0
TAP	43	240	2
STR	43	288	0
SCL	43	288	0	96	48	5
TAP	43	288	5
TAP	43	336	1
TAP	44	0	2
STR	44	48	3
SCL	44	48	3	96	48	0
TAP	44	96	4
TAP	44	144	5
TAP	44	192	6
TAP	44	240	1
TAP	44	264	7
TAP	44	288	3
TAP	44	336	0
TAP	44	336	5
TAP	45	0	6
TAP	45	24	0
TAP	45	48	4
TAP	45	96	2
TAP	45	96	7
TAP	45	144	0
TAP	45	144	5
STR	45	192	2
SI_	45	192	2	96	48	5
STR	45	192	6
SI_	45	192	6	96	48	1
TAP	45	240	2
TAP	45	240	6
BRK	46	0	3
BRK	46	0	7
TAP	46	48	1
TAP	46	72	0
TAP	46	120	0
TAP	46	168	1
TAP	46	168	7
TAP	46	240	6
TAP	46	240	7
TAP	46	288	0
TAP	46	288	5
TAP	46	336	1
TAP	46	360	3
TAP	47	0	1
TAP	47	48	0
TAP	47	48	2
TAP	47	96	1
STR	47	96	7
SI_	47	96	7	96	48	4
STR	47	144	7
SI_	47	144	7	96	48	2
STR	47	192	7
SI_	47	192	7	96	48	3
TAP	48	0	0
TAP	48	0	4
TAP	48	48	6
TAP	48	72	7
TAP	48	120	7
TAP	48	168	0
TAP	48	168	6
TAP	48	240	0
TAP	48	240	1
TAP	48	288	2
TAP	48	288	7
TAP	48	336	6
TAP	48	360	4
TAP	49	0	6
TAP	49	48	5
TAP	49	48	7
STR	49	96	0
SI_	49	96	0	96	48	3
TAP	49	96	6
STR	49	144	0
SI_	49	144	0	96	48	5
STR	49	192	0
SI_	49	192	0	96	48	4
TAP	50	0	2
TAP	50	0	6
TAP	50	48	2
TAP	50	72	3
TAP	50	120	6
TAP	50	120	7
TAP	50	168	0
TAP	50	168	5
TAP	50	240	1
TAP	50	240	3
TAP	50	288	4
TAP	50	288	6
TAP	50	336	2
TAP	50	360	3
TAP	51	0	2
TAP	51	48	4
TAP	51	48	5
TAP	51	96	6
STR	51	96	7
SI_	51	96	7	96	48	3
STR	51	144	0
SI_	51	144	0	96	48	4
STR	51	192	7
SCR	51	192	7	96	48	2
TAP	51	240	0
TAP	51	288	7
TAP	52	0	1
TAP	52	0	5
TAP	52	48	5
TAP	52	72	4
TAP	52	120	0
TAP	52	120	1
TAP	52	168	2
TAP	52	168	7
TAP	52	240	1
TAP	52	240	3
TAP	52	288	4
TAP	52	288	6
TAP	52	336	5
TAP	52	360	4
TAP	53	0	5
TAP	53	48	2
TAP	53	48	3
STR	53	96	0
SI_	53	96	0	96	48	4
TAP	53	96	1
STR	53	144	7
SI_	53	144	7	96	48	3
STR	53	192	0
SCL	53	192	0	96	48	5
TAP	53	240	7
TAP	53	288	0
HLD	54	0	0	72
TAP	54	0	2
HLD	54	72	1	72
HLD	54	144	2	72
HLD	54	216	3	72
HLD	54	288	4	96
HLD	55	0	7	72
HLD	55	72	6	72
HLD	55	144	5	72
HLD	55	216	4	72
HLD	55	288	3	96
HLD	56	0	0	72
HLD	56	72	2	72
HLD	56	144	3	72
HLD	56	216	4	72
HLD	56	288	6	96
HLD	57	0	7	72
HLD	57	72	5	72
HLD	57	144	4	72
HLD	57	216	3	72
TAP	57	288	1
TAP	58	0	0
TAP	58	0	7
TAP	58	48	0
TAP	58	96	0
TAP	58	96	1
TAP	58	144	1
TAP	58	192	1
TAP	58	192	2
TAP	58	240	2
TAP	58	288	2
TAP	58	288	3
TAP	58	336	3
TAP	59	0	3
TAP	59	0	4
TAP	59	48	4
TAP	59	96	4
TAP	59	96	5
TAP	59	144	5
TAP	59	192	5
TAP	59	192	6
TAP	59	240	6
TAP	59	288	6
TAP	59	288	7
TAP	59	336	7
TAP	60	0	0
TAP	60	24	0
TAP	60	48	1
TAP	60	72	1
TAP	60	96	2
TAP	60	120	2
TAP	60	144	3
TAP	60	168	3
TAP	60	192	4
TAP	60	216	4
TAP	60	240	5
TAP	60	264	5
TAP	60	288	6
TAP	60	312	6
TAP	60	336	7
TAP	60	360	7
TAP	61	0	0
TAP	61	12	1
TAP	61	24	2
TAP	61	36	3
TAP	61	48	4
TAP	61	60	5
TAP	61	72	6
TAP	61	84	7
TAP	61	96	0
TAP	61	108	1
TAP	61	120	2
TAP	61	132	3
TAP	61	144	4
TAP	61	156	5
TAP	61	168	6
TAP	61	180	7
TAP	61	192	0
TAP	61	204	1
TAP	61	216	2
TAP	61	228	3
TAP	61	240	4
TAP	61	252	5
TAP	61	264	6
TAP	61	276	7
TAP	61	288	0
TAP	61	300	1
TAP	61	312	2
TAP	61	324	3
TAP	61	336	4
TAP	61	348	5
TAP	61	360	6
TAP	61	372	7
BST	62	0	0
SUR	62	0	0	96	240	2
BST	62	0	4
SUR	62	0	4	96	240	6
TAP	63	0	0
TAP	63	48	3
TAP	63	72	5
TAP	63	96	2
TAP	63	120	6
TAP	63	144	1
TAP	63	168	7
STR	63	192	0
SF_	63	192	0	96	48	4
TAP	63	204	1
TAP	63	216	2
TAP	63	228	3
TAP	63	240	4
TAP	63	252	5
TAP	63	264	6
TAP	63	276	7
BRK	63	288	0
TAP	64	0	1
TAP	64	0	7
TAP	64	48	0
TAP	64	72	6
TAP	64	96	1
TAP	64	120	5
TAP	64	144	2
TAP	64	168	4
STR	64	192	3
SI_	64	192	3	96	48	7
TAP	64	240	5
TAP	64	264	5
TAP	64	312	6
TAP	64	336	6
TAP	65	0	0
TAP	65	0	6
TAP	65	48	7
TAP	65	72	1
TAP	65	96	6
TAP	65	120	2
TAP	65	144	5
TAP	65	168	3
STR	65	192	4
SI_	65	192	4	96	48	0
TAP	65	240	2
TAP	65	264	2
TAP	65	312	1
TAP	65	336	1
TAP	66	0	4
TAP	66	0	5
TAP	66	48	4
TAP	66	72	6
TAP	66	96	3
TAP	66	120	5
TAP	66	144	2
TAP	66	168	4
STR	66	192	1
SI_	66	192	1	96	48	5
TAP	66	240	5
TAP	66	264	5
TAP	66	312	6
TAP	66	336	6
TAP	67	0	2
TAP	67	0	3
TAP	67	48	3
TAP	67	72	1
TAP	67	96	4
TAP	67	120	2
TAP	67	144	5
TAP	67	168	3
STR	67	192	6
SI_	67	192	6	96	48	2
TAP	67	240	2
TAP	67	264	2
TAP	67	312	1
TAP	67	336	1
TAP	68	0	0
TAP	68	0	1
TAP	68	48	3
TAP	68	72	5
TAP	68	96	2
TAP	68	120	6
TAP	68	144	1
TAP	68	168	7
STR	68	192	0
SI_	68	192	0	96	48	4
TAP	68	240	6
TAP	68	264	6
TAP	68	312	5
TAP	68	336	5
TAP	69	0	3
TAP	69	0	5
TAP	69	48	4
TAP	69	72	2
TAP	69	96	5
TAP	69	120	1
TAP	69	144	6
TAP	69	168	0
STR	69	192	7
SI_	69	192	7	96	48	3
TAP	69	240	1
TAP	69	264	1
TAP	69	312	2
TAP	69	336	2
TAP	70	0	6
TAP	70	0	7
TAP	70	48	7
TAP	70	72	5
TAP	70	96	0
TAP	70	120	6
TAP	70	144	1
TAP	70	168	7
STR	70	192	2
SI_	70	192	2	96	48	6
TAP	70	240	6
TAP	70	264	6
TAP	70	312	5
TAP	70	336	5
HLD	71	0	5	48
HLD	71	0	7	48
HLD	71	72	0	48
HLD	71	72	2	48
HLD	71	144	3	48
HLD	71	144	4	48
BRK	71	216	1
BRK	71	216	6
TAP	71	264	7
TAP	71	288	0
TAP	71	312	6
TAP	71	336	1
TAP	71	360	5
TAP	72	0	2
TAP	72	0	6
TAP	72	48	7
TAP	72	72	7
TAP	72	96	3
TAP	72	120	3
TAP	72	144	6
TAP	72	168	6
TAP	72	192	2
TAP	72	240	2
TAP	72	240	4
TAP	72	264	2
TAP	72	264	4
TAP	72	312	6
TAP	72	336	7
TAP	72	360	0
TAP	73	0	1
TAP	73	0	5
TAP	73	48	0
TAP	73	72	0
TAP	73	96	4
TAP	73	120	4
TAP	73	144	1
TAP	73	168	1
TAP	73	192	5
TAP	73	240	3
TAP	73	240	5
TAP	73	264	3
TAP	73	264	5
TAP	73	312	1
TAP	73	336	0
TAP	73	360	7
TAP	74	0	2
TAP	74	0	6
TAP	74	48	7
TAP	74	72	7
TAP	74	96	1
TAP	74	120	1
TAP	74	144	2
TAP	74	168	2
STR	74	192	3
SI_	74	192	3	96	48	7
TAP	74	240	0
TAP	74	264	0
TAP	74	312	4
TAP	74	336	4
TAP	75	0	1
TAP	75	0	5
TAP	75	48	0
TAP	75	72	0
TAP	75	96	6
TAP	75	120	6
TAP	75	144	5
TAP	75	168	5
STR	75	192	4
SI_	75	192	4	96	48	0
TAP	75	240	7
TAP	75	264	7
TAP	75	312	3
TAP	75	336	3
TAP	76	0	1
TAP	76	0	7
TAP	76	48	7
TAP	76	72	6
TAP	76	96	5
TAP	76	120	4
TAP	76	144	3
TAP	76	192	0
TAP	76	192	6
TAP	76	240	0
TAP	76	264	1
TAP	76	288	2
TAP	76	312	3
TAP	76	336	4
TAP	77	0	1
TAP	77	0	7
TAP	77	48	0
TAP	77	48	1
TAP	77	72	2
TAP	77	72	7
TAP	77	96	3
TAP	77	96	6
TAP	77	144	0
TAP	77	144	7
TAP	77	168	1
TAP	77	168	6
TAP	77	192	2
TAP	77	192	5
TAP	77	240	6
TAP	77	240	7
TAP	77	264	0
TAP	77	264	5
TAP	77	288	1
TAP	77	288	4
TAP	77	336	0
TAP	77	336	7
TAP	77	360	1
TAP	77	360	6
TAP	78	0	2
TAP	78	0	5
TAP	78	48	2
TAP	78	48	5
TAP	78	96	1
TAP	78	96	6
TAP	78	144	1
TAP	78	144	6
TAP	78	192	0
TAP	78	192	7
TAP	78	240	0
TAP	78	240	7
TAP	78	288	0
TAP	78	312	7
TAP	78	336	0
TAP	78	360	7
STR	79	0	0
SI_	79	0	0	96	24	4
STR	79	72	7
SI_	79	72	7	96	24	3
STR	79	144	1
SI_	79	144	1	96	36	5
STR	79	216	6
SI_	79	216	6	96	24	2
BRK	79	288	0
TAP	80	0	6
TAP	80	24	7
STR	80	48	6
SCL	80	48	6	96	48	3
HLD	80	72	7	72
TAP	80	192	1
TAP	80	216	0
STR	80	240	1
SCR	80	240	1	96	48	4
HLD	80	264	0	72
TAP	81	0	6
TAP	81	24	0
STR	81	48	6
SCL	81	48	6	96	48	3
HLD	81	72	0	72
TAP	81	192	1
TAP	81	216	7
STR	81	240	1
SCR	81	240	1	96	48	4
HLD	81	264	7	72
TAP	82	0	6
TAP	82	24	0
STR	82	48	7
SCL	82	48	7	96	48	4
HLD	82	72	1	72
TAP	82	192	1
TAP	82	216	7
STR	82	240	0
SCR	82	240	0	96	48	3
HLD	82	264	6	72
TAP	83	0	6
TAP	83	24	0
STR	83	48	7
SCL	83	48	7	96	48	4
HLD	83	72	1	72
TAP	83	192	1
TAP	83	216	7
TAP	83	240	0
TAP	83	264	6
TAP	83	288	2
TAP	83	312	4
TAP	83	336	3
TAP	83	360	5
TAP	84	0	1
TAP	84	24	7
STR	84	48	2
SCL	84	48	2	96	48	7
HLD	84	72	0	72
TAP	84	192	6
TAP	84	216	0
STR	84	240	5
SCR	84	240	5	96	48	0
HLD	84	264	7	72
TAP	85	0	1
TAP	85	24	7
STR	85	48	2
SCL	85	48	2	96	48	7
HLD	85	72	0	72
TAP	85	192	6
TAP	85	216	0
STR	85	240	5
SCR	85	240	5	96	48	0
HLD	85	264	7	72
TAP	86	0	1
TAP	86	24	2
TAP	86	48	3
HLD	86	72	4	72
TAP	86	144	6
TAP	86	168	5
TAP	86	192	4
HLD	86	216	3	72
TAP	86	288	1
TAP	86	312	2
TAP	86	336	3
TAP	86	360	4
TAP	87	0	5
TAP	87	24	6
TAP	87	48	7
TAP	87	72	0
BRK	87	96	6
TAP	87	112	5
TAP	87	128	4
BRK	87	144	0
TAP	87	160	1
TAP	87	176	2
STR	87	192	7
SF_	87	192	7	96	48	3
TAP	87	216	7
BRK	87	288	7
HLD	88	0	0	72
TAP	88	0	7
HLD	88	72	6	72
HLD	88	144	4	72
HLD	88	216	3	72
HLD	88	288	1	96
HLD	89	0	0	72
HLD	89	72	2	72
HLD	89	144	4	72
HLD	89	216	6	72
HLD	89	288	7	96
HLD	90	0	0	72
HLD	90	72	6	72
HLD	90	144	5	72
HLD	90	216	3	72
HLD	90	288	2	96
HLD	91	0	0	72
HLD	91	72	1	72
HLD	91	144	3	72
HLD	91	216	5	72
TAP	91	288	7

T_REC_TAP	756
T_REC_BRK	20
T_REC_XTP	0
T_REC_HLD	78
T_REC_XHO	0
T_REC_STR	103
T_REC_BST	2
T_REC_XST	0
T_REC_TTP	0
T_REC_THO	0
T_REC_SLD	105
T_REC_ALL	1064
T_NUM_TAP	859
T_NUM_BRK	22
T_NUM_HLD	78
T_NUM_SLD	105
T_NUM_ALL	1064
T_JUDGE_TAP	881
T_JUDGE_HLD	150
T_JUDGE_SLD	105
T_JUDGE_ALL	1136
TTM_EACHPAIRS	135
TTM_SCR_TAP	429500
TTM_SCR_BRK	57200
TTM_SCR_HLD	78000
TTM_SCR_SLD	157500
TTM_SCR_ALL	722200
TTM_SCR_S	698400
TTM_SCR_SS	720000
TTM_RAT_ACV	10030

