VERSION	0.00.00	1.03.00
FES_MODE	0
BPM_DEF	160.000	160.000	160.000	160.000
MET_DEF	4	4
RESOLUTION	384
CLK_DEF	384
COMPATIBLE_CODE	MA2

BPM	0	0	160.000
MET	0	0	4	4

STR	2	0	1
SI_	2	0	1	96	48	3
STR	2	96	7
SI_	2	96	7	96	48	5
STR	2	192	0
SI_	2	192	0	96	48	4
TAP	2	288	6
TAP	3	0	5
TAP	3	48	5
TAP	3	96	4
TAP	3	96	6
TAP	3	192	2
TAP	3	240	2
TAP	3	288	1
TAP	3	288	3
STR	4	0	6
SI_	4	0	6	96	48	4
STR	4	96	0
SI_	4	96	0	96	48	2
STR	4	192	7
SI_	4	192	7	96	48	3
TAP	4	288	1
TAP	5	0	2
TAP	5	48	2
TAP	5	96	1
TAP	5	96	3
TAP	5	192	5
TAP	5	240	5
TAP	5	288	4
TAP	5	288	6
HLD	6	0	3	72
HLD	6	72	4	72
TAP	6	144	1
HLD	6	192	1	96
TAP	6	288	3
HLD	7	0	4	72
HLD	7	72	3	72
TAP	7	144	6
HLD	7	192	6	96
TAP	7	288	4
TAP	8	0	0
TAP	8	48	0
TAP	8	96	6
TAP	8	144	6
TAP	8	192	2
TAP	8	240	2
TAP	8	288	4
TAP	8	336	4
STR	9	0	3
SUR	9	0	3	96	96	4
BRK	9	288	1
BRK	9	288	6
HLD	10	0	1	72
HLD	10	72	2	72
TAP	10	144	3
HLD	10	192	6	72
HLD	10	264	5	72
TAP	10	336	4
HLD	11	0	0	72
HLD	11	72	1	72
TAP	11	144	2
HLD	11	192	7	72
HLD	11	264	6	72
TAP	11	336	5
STR	12	0	4
SI_	12	0	4	96	48	1
STR	12	0	5
SI_	12	0	5	96	48	0
STR	12	192	2
SI_	12	192	2	96	48	7
STR	12	192	3
SI_	12	192	3	96	48	6
HLD	13	0	5	72
HLD	13	72	4	72
TAP	13	144	3
STR	13	192	3
SF_	13	192	3	96	48	7
HLD	14	0	1	72
HLD	14	72	2	72
HLD	14	144	3	72
HLD	14	216	4	72
TAP	14	288	5
HLD	15	0	6	72
HLD	15	72	5	72
HLD	15	144	4	72
HLD	15	216	3	72
TAP	15	288	2
TAP	15	336	3
STR	16	0	4
SI_	16	0	4	96	48	1
STR	16	96	2
SI_	16	96	2	96	48	6
STR	16	192	5
SI_	16	192	5	96	48	0
STR	16	288	1
SCR	16	288	1	96	144	6
STR	17	192	0
SI_	17	192	0	96	48	3
STR	17	192	7
SI_	17	192	7	96	48	4
TAP	18	0	2
TAP	18	48	3
HLD	18	72	2	72
TAP	18	144	6
TAP	18	192	5
TAP	18	240	4
HLD	18	264	5	72
TAP	18	336	1
TAP	19	0	2
TAP	19	48	3
HLD	19	72	2	72
TAP	19	144	7
TAP	19	192	5
TAP	19	240	4
HLD	19	264	5	72
TAP	19	336	0
TAP	20	0	2
TAP	20	48	3
HLD	20	72	2	72
TAP	20	144	0
TAP	20	192	5
TAP	20	240	4
HLD	20	264	5	72
TAP	20	336	7
TAP	21	0	2
TAP	21	48	3
HLD	21	72	2	72
TAP	21	144	0
TAP	21	192	5
TAP	21	240	4
TAP	21	288	3
TAP	21	336	2
TAP	22	0	1
TAP	22	48	7
HLD	22	72	1	72
TAP	22	144	4
TAP	22	192	6
TAP	22	240	0
HLD	22	264	6	72
TAP	22	336	3
TAP	23	0	1
TAP	23	48	0
HLD	23	72	1	72
TAP	23	144	5
TAP	23	192	6
TAP	23	240	7
HLD	23	264	6	72
TAP	23	336	2
STR	24	0	1
SI_	24	0	1	96	48	5
TAP	24	48	1
TAP	24	96	0
STR	24	192	6
SI_	24	192	6	96	48	3
STR	24	240	7
SI_	24	240	7	96	48	2
HLD	25	0	4	72
TAP	25	72	3
TAP	25	144	2
TAP	25	144	5
TAP	25	192	2
TAP	25	192	5
TAP	25	240	1
TAP	25	240	6
BRK	25	288	0
BRK	25	288	7
TAP	26	0	0
TAP	26	0	1
HLD	26	48	2	72
HLD	26	72	3	48
TAP	26	144	2
TAP	26	144	3
TAP	26	192	4
TAP	26	192	5
HLD	26	240	6	72
HLD	26	264	7	48
TAP	26	336	6
TAP	26	336	7
TAP	27	0	0
TAP	27	0	1
HLD	27	48	2	72
HLD	27	72	3	48
TAP	27	144	2
TAP	27	144	3
TAP	27	192	4
TAP	27	192	5
HLD	27	240	6	72
HLD	27	264	7	48
TAP	27	336	6
TAP	27	336	7
TAP	28	0	0
TAP	28	0	1
HLD	28	48	2	72
HLD	28	72	3	48
TAP	28	144	2
TAP	28	144	3
TAP	28	192	4
TAP	28	192	5
HLD	28	240	6	72
HLD	28	264	7	48
TAP	28	336	6
TAP	28	336	7
TAP	29	0	0
TAP	29	0	1
TAP	29	48	2
TAP	29	96	3
TAP	29	96	4
TAP	29	144	5
TAP	29	192	2
TAP	29	192	6
TAP	29	240	7
STR	29	288	0
SSL	29	288	0	96	96	4
BRK	30	96	7
TAP	30	192	2
TAP	30	192	3
HLD	30	240	1	72
HLD	30	264	0	48
TAP	30	336	0
TAP	30	336	1
TAP	31	0	6
TAP	31	0	7
HLD	31	48	5	72
HLD	31	72	4	48
TAP	31	144	4
TAP	31	144	5
TAP	31	192	2
TAP	31	192	3
HLD	31	240	1	72
HLD	31	264	0	48
TAP	31	336	0
TAP	31	336	1
TAP	32	0	6
TAP	32	0	7
HLD	32	48	5	72
HLD	32	72	4	48
TAP	32	144	4
TAP	32	144	5
TAP	32	192	2
TAP	32	192	3
HLD	32	240	1	72
HLD	32	264	0	48
TAP	32	336	0
TAP	32	336	1
TAP	33	0	6
TAP	33	0	7
TAP	33	72	1
TAP	33	72	2
STR	33	144	4
SUR	33	144	4	96	96	3
STR	33	144	5
SCR	33	144	5	96	96	2
HLD	34	0	3	96
TAP	34	96	2
HLD	34	144	2	96
TAP	34	240	1
TAP	34	288	1
TAP	34	336	0
TAP	35	0	2
TAP	35	48	6
TAP	35	96	7
TAP	35	144	5
HLD	35	192	4	96
TAP	35	288	5
HLD	35	336	5	96
TAP	36	48	6
TAP	36	96	6
TAP	36	144	7
TAP	36	192	5
TAP	36	240	1
TAP	36	288	0
TAP	36	336	2
HLD	37	0	7	96
TAP	37	96	6
HLD	37	144	6	96
TAP	37	240	5
TAP	37	288	5
TAP	37	336	4
TAP	38	0	6
TAP	38	48	2
TAP	38	96	3
TAP	38	144	1
HLD	38	192	0	96
TAP	38	288	1
HLD	38	336	1	96
TAP	39	48	2
TAP	39	96	2
TAP	39	144	3
TAP	39	192	1
TAP	39	240	5
TAP	39	288	4
TAP	39	336	6
TAP	40	0	7
TAP	40	48	0
TAP	40	96	1
HLD	40	96	6	96
TAP	40	192	2
TAP	40	240	3
HLD	40	288	1	144
TAP	40	288	4
STR	41	48	0
SI_	41	48	0	96	48	5
STR	41	144	1
SI_	41	144	1	96	48	4
STR	41	240	0
SI_	41	240	0	96	48	5
TAP	41	336	1
TAP	42	0	0
TAP	42	48	7
HLD	42	96	1	96
TAP	42	96	6
TAP	42	192	5
TAP	42	240	4
TAP	42	288	3
HLD	42	288	6	96
TAP	43	0	2
TAP	43	48	3
HLD	43	96	1	96
TAP	43	96	4
TAP	43	192	0
TAP	43	240	7
TAP	43	288	1
HLD	43	288	6	144
STR	44	48	7
SI_	44	48	7	96	48	2
STR	44	144	6
SI_	44	144	6	96	48	3
STR	44	240	7
SI_	44	240	7	96	48	2
TAP	44	336	6
TAP	45	0	7
TAP	45	48	0
TAP	45	96	1
TAP	45	96	6
STR	45	192	3
SI_	45	192	3	96	48	1
STR	45	192	4
SI_	45	192	4	96	48	6
TAP	45	240	3
TAP	45	240	4
HLD	46	0	0	96
TAP	46	96	2
TAP	46	192	1
TAP	46	240	0
TAP	46	288	1
TAP	46	288	7
HLD	47	0	0	96
STR	47	0	7
SI_	47	0	7	96	48	2
HLD	47	192	0	96
STR	47	192	1
SI_	47	192	1	96	48	4
HLD	48	0	7	96
TAP	48	96	5
TAP	48	192	6
TAP	48	240	7
TAP	48	288	0
TAP	48	288	6
STR	49	0	0
SI_	49	0	0	96	48	5
HLD	49	0	7	96
STR	49	192	6
SI_	49	192	6	96	48	3
HLD	49	192	7	96
HLD	50	0	2	96
TAP	50	96	1
TAP	50	192	2
TAP	50	240	3
TAP	50	288	1
TAP	50	288	4
HLD	51	0	3	96
STR	51	0	4
SI_	51	0	4	96	48	0
STR	51	192	2
SI_	51	192	2	96	48	6
HLD	51	192	3	96
HLD	52	0	5	96
TAP	52	96	6
TAP	52	192	5
TAP	52	240	4
TAP	52	288	3
TAP	52	288	6
STR	53	0	3
SI_	53	0	3	96	48	7
HLD	53	0	4	96
HLD	53	192	4	96
STR	53	192	5
SI_	53	192	5	96	48	1
HLD	54	0	2	384
HLD	55	0	3	384
HLD	56	0	4	384
HLD	57	0	5	192
TAP	57	192	4
TAP	57	288	3
TAP	57	288	4
HLD	58	0	2	144
TAP	58	48	3
TAP	58	96	3
TAP	58	144	3
HLD	58	192	5	144
TAP	58	240	4
TAP	58	288	4
TAP	58	336	4
HLD	59	0	1	144
TAP	59	48	3
TAP	59	96	3
TAP	59	144	3
HLD	59	192	6	144
TAP	59	240	4
TAP	59	288	4
TAP	59	336	4
HLD	60	0	2	48
TAP	60	48	3
HLD	60	96	5	48
TAP	60	144	4
HLD	60	192	1	48
TAP	60	240	3
HLD	60	288	6	48
TAP	60	336	4
HLD	61	0	1	48
TAP	61	48	2
HLD	61	96	6	48
TAP	61	144	5
HLD	61	192	1	48
TAP	61	240	0
HLD	61	288	6	48
TAP	61	336	7
BST	62	0	0
SCR	62	0	0	96	240	7
STR	63	0	0
SI_	63	0	0	96	48	3
STR	63	96	0
SI_	63	96	0	96	48	5
STR	63	192	0
SI_	63	192	0	96	48	4
BRK	63	288	0
HLD	64	0	6	48
TAP	64	48	7
HLD	64	96	1	48
TAP	64	144	0
TAP	64	192	1
TAP	64	192	7
TAP	64	240	6
TAP	64	288	3
TAP	64	288	5
HLD	65	0	1	48
TAP	65	48	0
HLD	65	96	6	48
TAP	65	144	7
TAP	65	192	0
TAP	65	192	6
TAP	65	240	1
TAP	65	288	2
TAP	65	288	4
HLD	66	0	5	48
TAP	66	48	4
HLD	66	96	2	48
TAP	66	144	3
TAP	66	192	2
TAP	66	192	4
TAP	66	240	5
TAP	66	288	0
TAP	66	288	6
HLD	67	0	6	48
TAP	67	48	7
HLD	67	96	1	48
TAP	67	144	0
HLD	67	192	5	48
TAP	67	240	7
HLD	67	288	2	48
TAP	67	336	0
HLD	68	0	5	48
TAP	68	48	4
HLD	68	96	2	48
TAP	68	144	3
TAP	68	192	2
TAP	68	192	4
TAP	68	240	5
TAP	68	288	0
TAP	68	288	6
HLD	69	0	2	48
TAP	69	48	3
HLD	69	96	5	48
TAP	69	144	4
TAP	69	192	3
TAP	69	192	5
TAP	69	240	2
TAP	69	288	1
TAP	69	288	7
HLD	70	0	6	48
TAP	70	48	7
HLD	70	96	1	48
TAP	70	144	0
TAP	70	192	1
TAP	70	192	7
TAP	70	240	6
TAP	70	288	3
TAP	70	288	5
TAP	71	0	0
TAP	71	0	1
TAP	71	72	5
TAP	71	72	6
TAP	71	144	2
TAP	71	144	3
STR	71	192	2
SI_	71	192	2	96	48	7
STR	71	192	3
SI_	71	192	3	96	48	6
HLD	72	0	1	48
TAP	72	48	0
HLD	72	96	6	48
TAP	72	144	7
TAP	72	192	0
TAP	72	192	6
TAP	72	240	0
TAP	72	240	1
TAP	72	288	1
TAP	72	288	3
HLD	73	0	6	48
TAP	73	48	7
HLD	73	96	1	48
TAP	73	144	0
TAP	73	192	1
TAP	73	192	7
TAP	73	240	6
TAP	73	240	7
TAP	73	288	4
TAP	73	288	6
HLD	74	0	2	48
TAP	74	48	3
HLD	74	96	5	48
TAP	74	144	4
TAP	74	192	3
TAP	74	192	5
TAP	74	240	2
TAP	74	240	3
TAP	74	288	0
TAP	74	288	2
HLD	75	0	2	48
TAP	75	48	0
HLD	75	96	5	48
TAP	75	144	7
HLD	75	192	3	48
TAP	75	240	1
HLD	75	288	4	48
TAP	75	336	6
HLD	76	0	2	48
TAP	76	48	3
HLD	76	96	5	48
TAP	76	144	4
TAP	76	192	3
TAP	76	192	5
TAP	76	240	2
TAP	76	240	3
TAP	76	288	0
TAP	76	288	2
HLD	77	0	5	48
TAP	77	48	4
HLD	77	96	2	48
TAP	77	144	3
TAP	77	192	2
TAP	77	192	4
TAP	77	240	4
TAP	77	240	5
TAP	77	288	5
TAP	77	288	7
HLD	78	0	1	48
TAP	78	48	0
HLD	78	96	6	48
TAP	78	144	7
TAP	78	192	0
TAP	78	192	6
TAP	78	240	0
TAP	78	240	1
TAP	78	288	1
TAP	78	288	3
TAP	79	0	6
TAP	79	0	7
TAP	79	72	1
TAP	79	72	2
TAP	79	144	4
TAP	79	144	5
TAP	79	216	2
TAP	79	216	3
BRK	79	288	0
BRK	79	288	7
TAP	80	0	6
TAP	80	0	7
HLD	80	48	5	72
HLD	80	72	4	48
TAP	80	144	3
TAP	80	144	6
TAP	80	192	2
HLD	80	240	1	72
HLD	80	264	0	48
TAP	80	336	2
TAP	80	336	7
TAP	81	0	6
HLD	81	48	5	72
HLD	81	72	4	48
TAP	81	144	3
TAP	81	144	6
TAP	81	192	2
HLD	81	240	1	72
HLD	81	264	0	48
TAP	81	336	2
TAP	81	336	7
TAP	82	0	6
HLD	82	48	5	72
HLD	82	72	4	48
TAP	82	144	3
TAP	82	144	6
TAP	82	192	2
HLD	82	240	1	72
HLD	82	264	0	48
TAP	82	336	2
TAP	82	336	7
TAP	83	0	6
TAP	83	48	5
TAP	83	96	3
TAP	83	96	4
TAP	83	144	2
TAP	83	192	1
TAP	83	192	5
TAP	83	240	0
STR	83	288	7
SSR	83	288	7	96	96	3
BRK	84	96	0
TAP	84	192	4
TAP	84	192	5
HLD	84	240	6	72
HLD	84	264	7	48
TAP	84	336	0
TAP	84	336	5
TAP	85	0	1
HLD	85	48	2	72
HLD	85	72	3	48
TAP	85	144	1
TAP	85	144	4
TAP	85	192	5
HLD	85	240	6	72
HLD	85	264	7	48
TAP	85	336	0
TAP	85	336	5
STR	86	0	1
SI_	86	0	1	96	48	7
STR	86	96	5
SI_	86	96	5	96	48	0
STR	86	192	2
SI_	86	192	2	96	48	6
STR	86	288	4
SI_	86	288	4	96	48	0
STR	87	0	3
SI_	87	0	3	96	48	7
BRK	87	192	0
BST	87	192	5
SI_	87	192	5	96	48	1
BST	87	288	2
SXL	87	288	2	96	768	6
BRK	88	0	7

T_REC_TAP	391
T_REC_BRK	11
T_REC_XTP	0
T_REC_HLD	150
T_REC_XHO	0
T_REC_STR	51
T_REC_BST	3
T_REC_XST	0
T_REC_TTP	0
T_REC_THO	0
T_REC_SLD	54
T_REC_ALL	660
T_NUM_TAP	442
T_NUM_BRK	14
T_NUM_HLD	150
T_NUM_SLD	54
T_NUM_ALL	660
T_JUDGE_TAP	456
T_JUDGE_HLD	266
T_JUDGE_SLD	54
T_JUDGE_ALL	776
TTM_EACHPAIRS	115
TTM_SCR_TAP	221000
TTM_SCR_BRK	36400
TTM_SCR_HLD	150000
TTM_SCR_SLD	81000
TTM_SCR_ALL	488400
TTM_SCR_S	472400
TTM_SCR_SS	487000
TTM_RAT_ACV	10028

