VERSION	0.00.00	1.03.00
FES_MODE	0
BPM_DEF	160.000	160.000	160.000	160.000
MET_DEF	4	4
RESOLUTION	384
CLK_DEF	384
COMPATIBLE_CODE	MA2

BPM	0	0	160.000
MET	0	0	4	4

TAP	2	0	0
TAP	2	96	1
TAP	2	192	2
TAP	2	288	3
TAP	3	0	4
TAP	3	96	5
TAP	3	192	6
TAP	3	288	0
TAP	3	288	7
TAP	4	0	7
TAP	4	96	6
TAP	4	192	5
TAP	4	288	4
TAP	5	0	3
TAP	5	96	2
TAP	5	192	0
TAP	5	192	1
HLD	6	0	6	288
TAP	6	192	7
TAP	6	288	7
HLD	7	0	1	288
TAP	7	192	0
STR	7	288	0
SSL	7	288	0	96	288	4
HLD	9	0	3	96
HLD	9	0	4	96
BRK	9	288	1
BRK	9	288	6
TAP	10	0	1
TAP	10	96	0
TAP	10	192	1
TAP	10	288	0
TAP	10	288	1
TAP	11	0	6
TAP	11	96	7
TAP	11	192	6
TAP	11	288	6
TAP	11	288	7
STR	12	0	0
SI_	12	0	0	96	96	3
STR	12	192	7
SI_	12	192	7	96	96	4
TAP	13	0	0
TAP	13	96	7
TAP	13	192	0
TAP	13	288	1
TAP	13	288	6
TAP	14	0	2
TAP	14	96	3
TAP	14	192	2
TAP	14	288	2
TAP	14	288	3
TAP	15	0	5
TAP	15	96	4
TAP	15	192	5
TAP	15	288	4
TAP	15	288	5
STR	16	0	3
SI_	16	0	3	96	96	0
STR	16	192	4
SI_	16	192	4	96	96	7
TAP	17	0	3
TAP	17	96	4
BRK	17	192	2
BRK	17	192	5
BRK	17	288	2
BRK	17	288	5
TAP	18	0	0
TAP	18	96	1
TAP	18	192	2
TAP	18	192	7
TAP	18	288	2
TAP	18	288	7
TAP	19	0	2
TAP	19	96	3
TAP	19	192	1
TAP	19	192	4
TAP	19	288	1
TAP	19	288	4
TAP	20	0	7
TAP	20	96	6
TAP	20	192	0
TAP	20	192	5
TAP	20	288	0
TAP	20	288	5
TAP	21	0	5
TAP	21	96	4
TAP	21	192	3
TAP	21	192	6
TAP	21	288	3
TAP	21	288	6
TAP	22	0	4
TAP	22	96	5
TAP	22	192	3
TAP	22	192	6
TAP	22	288	3
TAP	22	288	6
TAP	23	0	6
TAP	23	96	7
TAP	23	192	0
TAP	23	192	5
TAP	23	288	0
TAP	23	288	5
TAP	24	0	3
TAP	24	96	2
TAP	24	96	4
TAP	24	192	4
TAP	24	288	3
TAP	24	288	5
TAP	25	0	2
TAP	25	0	3
TAP	25	96	1
TAP	25	96	4
TAP	25	192	6
TAP	25	192	7
TAP	26	0	2
TAP	26	96	2
TAP	26	96	3
TAP	26	192	5
TAP	26	288	4
TAP	26	288	5
TAP	27	0	1
TAP	27	96	2
TAP	27	96	3
TAP	27	192	6
TAP	27	288	4
TAP	27	288	5
TAP	28	0	1
TAP	28	96	3
TAP	28	96	4
TAP	28	192	6
TAP	28	288	3
TAP	28	288	4
STR	29	0	3
SI_	29	0	3	96	96	0
STR	29	0	4
SI_	29	0	4	96	96	7
TAP	29	288	0
TAP	29	288	7
TAP	30	0	6
TAP	30	96	4
TAP	30	96	5
TAP	30	192	1
TAP	30	288	2
TAP	30	288	3
TAP	31	0	6
TAP	31	96	3
TAP	31	96	4
TAP	31	192	1
TAP	31	288	3
TAP	31	288	4
TAP	32	0	2
TAP	32	0	5
TAP	32	96	1
TAP	32	96	6
TAP	32	192	0
TAP	32	192	7
STR	32	288	0
SXL	32	288	0	96	288	3
STR	32	288	7
SXR	32	288	7	96	288	4
HLD	34	0	2	144
HLD	34	144	3	144
HLD	34	288	4	144
TAP	35	48	5
HLD	35	192	5	144
HLD	35	336	4	144
HLD	36	96	3	144
TAP	36	240	2
HLD	37	0	1	144
HLD	37	144	0	144
HLD	37	288	7	144
TAP	38	48	6
HLD	38	192	6	144
HLD	38	336	7	144
HLD	39	96	0	144
TAP	39	240	1
TAP	40	0	2
TAP	40	0	7
TAP	40	96	6
TAP	40	192	5
TAP	40	288	3
TAP	40	288	4
TAP	41	0	2
TAP	41	96	1
TAP	41	192	0
TAP	41	192	5
TAP	41	288	6
TAP	41	288	7
TAP	42	0	0
TAP	42	0	5
TAP	42	96	1
TAP	42	192	2
TAP	42	288	3
TAP	42	288	4
TAP	43	0	5
TAP	43	96	6
TAP	43	192	2
TAP	43	192	7
TAP	43	288	3
TAP	43	288	6
TAP	44	0	4
TAP	44	96	3
TAP	44	96	5
TAP	44	192	3
TAP	44	288	2
TAP	44	288	4
TAP	45	0	3
TAP	45	0	4
TAP	45	96	3
TAP	45	96	4
TAP	45	192	1
TAP	45	192	6
HLD	46	0	1	96
TAP	46	96	0
HLD	46	192	6	96
TAP	46	288	7
HLD	47	0	1	96
TAP	47	96	0
HLD	47	192	6	96
TAP	47	288	7
HLD	48	0	2	96
TAP	48	96	3
HLD	48	192	5	96
TAP	48	288	4
HLD	49	0	2	96
TAP	49	96	3
HLD	49	192	5	96
TAP	49	288	4
HLD	50	0	1	96
TAP	50	96	2
HLD	50	192	6	96
TAP	50	288	5
HLD	51	0	1	96
TAP	51	96	2
HLD	51	192	6	96
TAP	51	288	5
HLD	52	0	2	96
TAP	52	96	1
HLD	52	192	5	96
TAP	52	288	6
HLD	53	0	2	96
TAP	53	96	1
HLD	53	192	5	96
STR	53	288	6
SXL	53	288	6	96	384	1
TAP	55	192	2
TAP	55	192	3
STR	55	288	2
SXL	55	288	2	96	384	5
TAP	55	288	3
TAP	57	192	6
TAP	57	192	7
TAP	57	288	6
TAP	57	288	7
TAP	58	0	0
TAP	58	0	7
TAP	58	96	0
TAP	58	96	7
TAP	58	192	1
TAP	58	192	6
TAP	58	288	1
TAP	58	288	6
TAP	59	0	2
TAP	59	0	5
TAP	59	96	2
TAP	59	96	5
TAP	59	192	3
TAP	59	192	4
TAP	59	288	3
TAP	59	288	4
TAP	60	0	2
TAP	60	0	5
TAP	60	96	2
TAP	60	96	5
TAP	60	192	1
TAP	60	192	6
TAP	60	288	1
TAP	60	288	6
TAP	61	0	0
TAP	61	0	7
TAP	61	96	0
TAP	61	96	7
TAP	61	192	0
TAP	61	240	7
TAP	61	288	0
TAP	61	336	7
STR	62	0	0
SF_	62	0	0	96	480	4
BRK	63	288	1
BRK	63	288	6
TAP	64	0	2
TAP	64	96	2
TAP	64	96	3
TAP	64	192	5
TAP	64	288	4
TAP	64	288	5
TAP	65	0	1
TAP	65	96	2
TAP	65	96	3
TAP	65	192	6
TAP	65	288	4
TAP	65	288	5
TAP	66	0	0
TAP	66	96	2
TAP	66	96	3
TAP	66	192	7
TAP	66	288	4
TAP	66	288	5
TAP	67	0	7
TAP	67	96	2
TAP	67	96	3
TAP	67	192	0
TAP	67	288	4
TAP	67	288	5
TAP	68	0	5
TAP	68	96	4
TAP	68	96	5
TAP	68	192	2
TAP	68	288	2
TAP	68	288	3
TAP	69	0	6
TAP	69	96	4
TAP	69	96	5
TAP	69	192	1
TAP	69	288	2
TAP	69	288	3
TAP	70	0	7
TAP	70	96	4
TAP	70	96	5
TAP	70	192	0
TAP	70	288	2
TAP	70	288	3
TAP	71	0	0
TAP	71	48	7
TAP	71	96	0
TAP	71	192	1
TAP	71	192	6
TAP	72	0	1
TAP	72	96	0
TAP	72	96	2
TAP	72	192	6
TAP	72	288	5
TAP	72	288	7
TAP	73	0	2
TAP	73	96	0
TAP	73	96	2
TAP	73	192	5
TAP	73	288	5
TAP	73	288	7
TAP	74	0	3
TAP	74	96	0
TAP	74	96	2
TAP	74	192	4
TAP	74	288	5
TAP	74	288	7
TAP	75	0	4
TAP	75	96	0
TAP	75	96	2
TAP	75	192	3
TAP	75	288	5
TAP	75	288	7
TAP	76	0	6
TAP	76	96	5
TAP	76	96	7
TAP	76	192	1
TAP	76	288	0
TAP	76	288	2
TAP	77	0	5
TAP	77	96	5
TAP	77	96	7
TAP	77	192	2
TAP	77	288	0
TAP	77	288	2
TAP	78	0	4
TAP	78	96	5
TAP	78	96	7
TAP	78	192	3
TAP	78	288	0
TAP	78	288	2
TAP	79	0	7
TAP	79	48	0
TAP	79	96	7
TAP	79	192	2
TAP	79	192	5
TAP	79	288	2
TAP	79	288	5
TAP	80	0	1
TAP	80	48	0
TAP	80	96	1
TAP	80	192	2
TAP	80	192	7
TAP	80	288	2
TAP	80	288	7
TAP	81	0	6
TAP	81	48	7
TAP	81	96	6
TAP	81	192	0
TAP	81	192	5
TAP	81	288	0
TAP	81	288	5
TAP	82	0	1
TAP	82	48	0
TAP	82	96	1
TAP	82	192	2
TAP	82	192	7
TAP	82	288	2
TAP	82	288	7
TAP	83	0	0
TAP	83	0	7
TAP	83	96	0
TAP	83	96	7
TAP	83	192	2
TAP	83	192	5
TAP	84	0	2
TAP	84	48	3
TAP	84	96	1
TAP	84	96	4
TAP	84	192	5
TAP	84	240	4
TAP	84	288	3
TAP	84	288	6
TAP	85	0	2
TAP	85	48	3
TAP	85	96	1
TAP	85	96	4
TAP	85	192	5
TAP	85	240	4
TAP	85	288	3
TAP	85	288	6
TAP	86	0	2
TAP	86	48	3
TAP	86	96	2
TAP	86	192	5
TAP	86	240	4
TAP	86	288	5
TAP	87	0	3
TAP	87	48	4
TAP	87	96	3
TAP	87	144	4
TAP	87	192	3
TAP	87	240	4
TAP	87	288	3
STR	88	0	3
SCL	88	0	3	96	1440	4

T_REC_TAP	379
T_REC_BRK	8
T_REC_XTP	0
T_REC_HLD	32
T_REC_XHO	0
T_REC_STR	13
T_REC_BST	0
T_REC_XST	0
T_REC_TTP	0
T_REC_THO	0
T_REC_SLD	13
T_REC_ALL	445
T_NUM_TAP	392
T_NUM_BRK	8
T_NUM_HLD	32
T_NUM_SLD	13
T_NUM_ALL	445
T_JUDGE_TAP	400
T_JUDGE_HLD	84
T_JUDGE_SLD	13
T_JUDGE_ALL	497
TTM_EACHPAIRS	120
TTM_SCR_TAP	196000
TTM_SCR_BRK	20800
TTM_SCR_HLD	32000
TTM_SCR_SLD	19500
TTM_SCR_ALL	268300
TTM_SCR_S	259500
TTM_SCR_SS	267500
TTM_RAT_ACV	10029

