VERSION	0.00.00	1.03.00
FES_MODE	0
BPM_DEF	160.000	160.000	160.000	160.000
MET_DEF	4	4
RESOLUTION	384
CLK_DEF	384
COMPATIBLE_CODE	MA2

BPM	0	0	160.000
MET	0	0	4	4

HLD	2	0	0	192
TAP	3	0	1
TAP	3	96	1
TAP	3	192	1
HLD	4	0	2	192
TAP	5	0	3
TAP	5	96	3
TAP	5	192	3
STR	6	0	3
SI_	6	0	3	96	288	0
STR	6	0	4
SI_	6	0	4	96	288	7
HLD	8	0	1	288
HLD	8	0	6	288
TAP	9	0	0
TAP	9	96	7
TAP	9	192	0
BRK	9	288	0
BRK	9	288	7
TAP	10	0	6
TAP	10	0	7
TAP	10	192	6
TAP	10	192	7
TAP	11	0	4
TAP	11	0	5
TAP	11	192	4
TAP	11	192	5
TAP	12	0	2
TAP	12	0	3
TAP	12	192	2
TAP	12	192	3
HLD	13	0	0	192
HLD	13	0	1	192
TAP	13	288	0
TAP	13	288	7
TAP	14	0	1
TAP	14	96	1
TAP	14	192	1
TAP	15	0	3
TAP	15	96	3
TAP	15	192	3
TAP	16	0	5
TAP	16	96	5
TAP	16	192	5
TAP	17	0	7
TAP	17	96	7
TAP	17	192	7
HLD	18	0	6	96
HLD	18	192	6	96
HLD	19	0	5	96
HLD	19	192	5	96
HLD	20	0	4	96
HLD	20	192	4	96
TAP	21	0	3
TAP	21	96	3
TAP	21	192	4
TAP	21	288	4
HLD	22	0	3	96
HLD	22	192	3	96
HLD	23	0	2	96
HLD	23	192	2	96
HLD	24	0	1	96
HLD	24	192	1	96
HLD	25	0	0	288
HLD	25	0	7	288
TAP	26	0	0
TAP	26	96	0
TAP	26	192	1
TAP	26	288	1
TAP	27	0	2
TAP	27	96	2
TAP	27	192	3
TAP	27	192	4
TAP	27	288	3
TAP	27	288	4
TAP	28	0	4
TAP	28	96	4
TAP	28	192	5
TAP	28	288	5
TAP	29	0	6
TAP	29	96	6
TAP	29	192	0
TAP	29	192	7
TAP	30	0	7
TAP	30	96	7
TAP	30	192	6
TAP	30	288	6
TAP	31	0	5
TAP	31	96	5
TAP	31	192	3
TAP	31	192	4
TAP	31	288	3
TAP	31	288	4
TAP	32	0	3
TAP	32	96	3
TAP	32	192	2
TAP	32	288	2
TAP	33	0	1
TAP	33	96	1
TAP	33	192	0
TAP	33	192	7
STR	34	0	0
SI_	34	0	0	96	192	5
STR	35	192	6
SI_	35	192	6	96	192	3
STR	37	0	1
SI_	37	0	1	96	192	4
STR	38	192	7
SI_	38	192	7	96	192	2
TAP	40	0	3
TAP	40	0	4
TAP	40	96	2
TAP	40	288	2
TAP	41	96	1
TAP	41	288	1
TAP	42	96	0
TAP	42	288	0
TAP	43	96	7
TAP	43	288	7
TAP	44	96	6
TAP	44	288	6
TAP	45	96	5
TAP	45	288	5
TAP	46	0	3
TAP	46	96	3
TAP	46	192	3
TAP	46	192	4
TAP	47	0	5
TAP	47	96	5
TAP	47	192	4
TAP	47	192	5
TAP	48	0	2
TAP	48	96	2
TAP	48	192	2
TAP	48	192	3
TAP	49	0	4
TAP	49	96	3
TAP	49	192	2
TAP	49	192	5
TAP	50	0	2
TAP	50	96	2
TAP	50	192	1
TAP	51	0	6
TAP	51	96	6
TAP	51	192	7
TAP	52	0	0
TAP	52	96	0
TAP	52	192	7
TAP	52	288	7
TAP	53	0	0
TAP	53	96	7
TAP	53	192	1
TAP	53	192	6
STR	54	0	0
SI_	54	0	0	96	288	4
STR	56	0	7
SI_	56	0	7	96	288	3
STR	58	0	2
SI_	58	0	2	96	288	7
STR	60	0	5
SI_	60	0	5	96	288	0
HLD	62	0	0	576
HLD	62	0	7	576
BRK	63	288	0
BRK	63	288	7
TAP	64	0	0
TAP	64	96	0
TAP	64	192	1
TAP	64	288	1
TAP	65	0	2
TAP	65	96	2
TAP	65	192	3
TAP	65	288	3
TAP	65	288	4
TAP	66	0	4
TAP	66	96	4
TAP	66	192	5
TAP	66	288	5
TAP	67	0	6
TAP	67	96	6
TAP	67	192	7
TAP	67	288	0
TAP	67	288	7
TAP	68	0	7
TAP	68	96	7
TAP	68	192	6
TAP	68	288	6
TAP	69	0	5
TAP	69	96	5
TAP	69	192	4
TAP	69	288	3
TAP	69	288	4
TAP	70	0	3
TAP	70	96	3
TAP	70	192	2
TAP	70	288	2
HLD	71	0	1	192
BRK	71	288	0
BRK	71	288	1
TAP	72	0	0
TAP	72	96	1
TAP	72	192	2
TAP	72	288	3
TAP	73	0	4
TAP	73	96	5
TAP	73	192	6
TAP	73	288	7
TAP	74	0	0
TAP	74	96	1
TAP	74	192	2
TAP	74	288	3
TAP	75	0	4
TAP	75	96	5
TAP	75	192	6
TAP	75	288	0
TAP	75	288	7
TAP	76	0	7
TAP	76	96	6
TAP	76	192	5
TAP	76	288	4
TAP	77	0	3
TAP	77	96	2
TAP	77	192	1
TAP	77	288	0
TAP	78	0	7
TAP	78	96	6
TAP	78	192	5
TAP	78	288	4
HLD	79	0	3	288
HLD	79	0	4	288
TAP	80	0	3
TAP	80	0	4
TAP	80	96	3
TAP	80	96	4
TAP	80	192	2
TAP	80	192	3
TAP	80	288	2
TAP	80	288	3
TAP	81	0	3
TAP	81	0	4
TAP	81	96	3
TAP	81	96	4
TAP	81	192	4
TAP	81	192	5
TAP	81	288	4
TAP	81	288	5
TAP	82	0	3
TAP	82	0	4
TAP	82	96	3
TAP	82	96	4
TAP	82	192	2
TAP	82	192	4
TAP	82	288	2
TAP	82	288	4
TAP	83	0	3
TAP	83	0	4
TAP	83	96	3
TAP	83	96	4
TAP	83	192	3
TAP	83	192	5
TAP	83	288	3
TAP	83	288	5
TAP	84	0	3
TAP	84	0	4
TAP	84	96	2
TAP	84	96	4
TAP	84	192	3
TAP	84	192	4
TAP	84	288	2
TAP	84	288	4
TAP	85	0	3
TAP	85	0	4
TAP	85	96	3
TAP	85	96	5
TAP	85	192	3
TAP	85	192	4
TAP	85	288	3
TAP	85	288	5
TAP	86	0	4
TAP	86	96	4
TAP	86	96	5
TAP	86	192	3
TAP	86	288	2
TAP	86	288	3
TAP	87	0	3
TAP	87	96	4
TAP	87	96	5
TAP	87	192	4
TAP	87	288	2
TAP	87	288	3
STR	88	0	1
SI_	88	0	1	96	288	5

T_REC_TAP	239
T_REC_BRK	6
T_REC_XTP	0
T_REC_HLD	25
T_REC_XHO	0
T_REC_STR	11
T_REC_BST	0
T_REC_XST	0
T_REC_TTP	0
T_REC_THO	0
T_REC_SLD	11
T_REC_ALL	292
T_NUM_TAP	250
T_NUM_BRK	6
T_NUM_HLD	25
T_NUM_SLD	11
T_NUM_ALL	292
T_JUDGE_TAP	256
T_JUDGE_HLD	104
T_JUDGE_SLD	11
T_JUDGE_ALL	371
TTM_EACHPAIRS	60
TTM_SCR_TAP	125000
TTM_SCR_BRK	15600
TTM_SCR_HLD	25000
TTM_SCR_SLD	16500
TTM_SCR_ALL	182100
TTM_SCR_S	176100
TTM_SCR_SS	181500
TTM_RAT_ACV	10033

