VERSION	0.00.00	1.03.00
FES_MODE	0
BPM_DEF	220.000	220.000	220.000	220.000
MET_DEF	4	4
RESOLUTION	384
CLK_DEF	384
COMPATIBLE_CODE	MA2

BPM	0	0	220.000
MET	0	0	4	4

TAP	3	0	1
TAP	3	0	5
TAP	3	96	3
TAP	3	96	7
TAP	3	192	3
TAP	3	240	4
TAP	3	288	3
TAP	3	336	4
TAP	4	0	2
TAP	4	0	3
STR	4	48	2
SUR	4	48	2	96	96	7
STR	4	48	3
SCR	4	48	3	96	96	6
TAP	4	144	2
TAP	4	144	3
TAP	4	288	0
TAP	5	0	1
TAP	5	0	7
TAP	5	96	2
TAP	5	96	6
TAP	5	192	4
TAP	5	240	3
TAP	5	288	4
TAP	5	336	3
TAP	6	0	6
STR	6	48	6
SXR	6	48	6	96	144	5
TAP	6	144	7
TAP	6	192	0
TAP	6	240	1
TAP	6	288	2
TAP	7	0	2
TAP	7	0	6
TAP	7	96	0
TAP	7	96	4
TAP	7	192	4
TAP	7	240	3
TAP	7	288	4
TAP	7	336	3
TAP	8	0	4
TAP	8	0	5
STR	8	48	4
SCL	8	48	4	96	96	1
STR	8	48	5
SUL	8	48	5	96	96	0
TAP	8	144	4
TAP	8	144	5
TAP	8	288	7
TAP	9	0	1
TAP	9	0	3
TAP	9	96	4
TAP	9	96	6
TAP	9	192	3
TAP	9	240	4
TAP	9	288	3
TAP	9	336	4
TAP	10	0	1
STR	10	48	1
SXL	10	48	1	96	144	2
TAP	10	144	0
TAP	10	192	7
TAP	10	240	6
TAP	10	288	5
STR	11	0	0
SI_	11	0	0	96	48	2
TAP	11	0	6
STR	11	96	0
SI_	11	96	0	96	48	4
TAP	11	96	5
TAP	11	192	0
TAP	11	192	4
TAP	11	288	0
TAP	11	288	7
TAP	11	336	0
TAP	11	336	7
TAP	12	0	1
STR	12	0	7
SI_	12	0	7	96	48	5
TAP	12	96	2
STR	12	96	7
SI_	12	96	7	96	48	3
TAP	12	192	3
TAP	12	192	7
TAP	12	288	2
TAP	12	288	5
STR	13	0	0
SCR	13	0	0	96	48	2
TAP	13	0	6
STR	13	96	0
SI_	13	96	0	96	48	5
TAP	13	96	5
TAP	13	192	0
TAP	13	192	4
TAP	13	288	0
TAP	13	288	7
TAP	13	336	0
TAP	13	336	7
TAP	14	0	1
STR	14	0	7
SCL	14	0	7	96	48	5
TAP	14	96	2
STR	14	96	7
SI_	14	96	7	96	48	2
TAP	14	192	3
TAP	14	192	7
TAP	14	288	3
TAP	14	288	4
TAP	15	0	0
TAP	15	48	7
TAP	15	96	1
TAP	15	144	6
TAP	15	192	2
TAP	15	240	5
TAP	15	288	3
TAP	15	336	4
TAP	16	0	2
TAP	16	24	5
TAP	16	48	2
TAP	16	72	5
TAP	16	96	1
TAP	16	120	6
TAP	16	144	1
TAP	16	168	6
TAP	16	192	0
TAP	16	216	7
TAP	16	240	0
TAP	16	264	7
TAP	16	288	0
TAP	16	300	1
TAP	16	312	2
TAP	16	324	3
TAP	16	336	4
TAP	16	348	5
TAP	16	360	6
TAP	16	372	7
STR	17	0	0
SUR	17	0	0	96	384	3
HLD	17	264	7	1
TAP	18	192	4
TAP	18	216	3
TAP	18	240	4
TAP	18	264	3
BRK	18	288	2
BRK	18	288	6
TAP	19	0	0
TAP	19	0	7
TAP	19	48	0
HLD	19	48	7	96
TAP	19	96	1
TAP	19	120	2
TAP	19	144	3
TAP	19	192	0
TAP	19	192	6
TAP	19	240	0
HLD	19	240	6	96
TAP	19	288	1
TAP	19	312	2
TAP	19	336	3
TAP	20	0	5
TAP	20	48	5
STR	20	96	2
SI_	20	96	2	96	48	7
TAP	20	144	2
STR	20	192	6
SUR	20	192	6	96	48	3
TAP	20	240	6
TAP	21	0	0
TAP	21	0	7
TAP	21	48	0
HLD	21	48	7	96
TAP	21	96	1
TAP	21	120	2
TAP	21	144	3
TAP	21	192	0
TAP	21	192	6
TAP	21	240	0
HLD	21	240	6	96
TAP	21	288	1
TAP	21	312	2
TAP	21	336	3
TAP	22	0	5
TAP	22	48	5
TAP	22	96	2
TAP	22	144	2
TAP	22	192	1
TAP	22	192	3
TAP	22	240	0
TAP	22	240	4
TAP	22	288	5
TAP	22	288	7
TAP	22	336	6
TAP	23	0	0
TAP	23	0	7
HLD	23	48	0	96
TAP	23	48	7
TAP	23	96	6
TAP	23	120	5
TAP	23	144	4
TAP	23	192	1
TAP	23	192	7
HLD	23	240	1	96
TAP	23	240	7
TAP	23	288	6
TAP	23	312	5
TAP	23	336	4
TAP	24	0	2
TAP	24	48	2
TAP	24	96	5
TAP	24	144	5
TAP	24	192	1
TAP	24	192	6
TAP	24	240	1
TAP	24	240	6
TAP	24	288	3
TAP	24	312	4
TAP	24	336	3
TAP	24	360	4
TAP	25	0	0
HLD	25	48	0	96
TAP	25	96	6
TAP	25	120	5
TAP	25	144	4
TAP	25	192	1
TAP	25	192	7
HLD	25	240	1	96
TAP	25	240	7
TAP	25	288	6
TAP	25	312	5
TAP	25	336	4
STR	26	0	2
SI_	26	0	2	96	48	7
TAP	26	48	2
STR	26	96	5
SI_	26	96	5	96	48	0
TAP	26	144	5
TAP	26	192	2
TAP	26	240	2
BRK	26	288	4
BRK	26	288	6
STR	27	0	5
SCR	27	0	5	96	48	0
TAP	27	48	5
TAP	27	96	1
TAP	27	120	2
HLD	27	144	3	48
TAP	27	192	0
TAP	27	216	7
HLD	27	240	6	48
TAP	27	288	1
TAP	27	312	2
HLD	27	336	3	48
TAP	28	0	0
TAP	28	24	7
HLD	28	48	6	48
TAP	28	96	1
TAP	28	120	2
HLD	28	144	3	48
STR	28	192	0
SI_	28	192	0	96	48	4
TAP	28	216	7
TAP	28	240	6
TAP	28	264	5
BRK	28	288	0
TAP	28	288	4
STR	29	0	7
SCL	29	0	7	96	48	4
TAP	29	48	7
TAP	29	96	3
TAP	29	120	2
HLD	29	144	1	48
TAP	29	192	4
TAP	29	216	5
HLD	29	240	6	48
TAP	29	288	3
TAP	29	312	2
HLD	29	336	1	48
TAP	30	0	4
TAP	30	24	5
HLD	30	48	6	48
TAP	30	96	3
TAP	30	120	2
HLD	30	144	1	48
TAP	30	192	0
TAP	30	240	1
TAP	30	240	7
TAP	30	288	2
TAP	30	288	6
TAP	30	336	3
TAP	30	336	5
STR	31	0	2
SCL	31	0	2	96	48	7
TAP	31	48	2
TAP	31	96	6
TAP	31	120	5
HLD	31	144	4	48
TAP	31	192	7
TAP	31	216	0
HLD	31	240	1	48
TAP	31	288	6
TAP	31	312	5
HLD	31	336	4	48
TAP	32	0	7
TAP	32	24	0
HLD	32	48	1	48
TAP	32	96	6
TAP	32	120	5
HLD	32	144	4	48
STR	32	192	7
SI_	32	192	7	96	48	3
TAP	32	216	0
TAP	32	240	1
TAP	32	264	2
TAP	32	288	3
BRK	32	288	7
STR	33	0	4
SI_	33	0	4	96	48	0
STR	33	0	5
SI_	33	0	5	96	48	0
TAP	33	48	4
TAP	33	48	5
STR	33	192	2
SI_	33	192	2	96	48	7
STR	33	192	3
SI_	33	192	3	96	48	7
TAP	33	240	2
TAP	33	240	3
TAP	34	0	6
TAP	34	48	6
STR	34	96	3
SI_	34	96	3	96	48	0
TAP	34	144	3
STR	34	192	7
SI_	34	192	7	96	48	4
HLD	35	0	1	192
TAP	35	96	4
TAP	35	144	5
TAP	35	192	6
STR	35	240	4
SI_	35	240	4	96	48	1
STR	35	240	6
SI_	35	240	6	96	48	3
TAP	35	336	4
TAP	35	336	6
TAP	36	48	2
TAP	36	96	4
TAP	36	144	2
STR	36	192	1
SV_	36	192	1	96	48	7
STR	36	192	3
SI_	36	192	3	96	48	7
HLD	37	0	6	192
TAP	37	96	1
TAP	37	144	2
TAP	37	192	3
STR	37	240	3
SXR	37	240	3	96	48	1
STR	37	240	4
SXL	37	240	4	96	48	6
TAP	37	336	3
TAP	37	336	4
TAP	38	48	2
TAP	38	96	6
STR	38	144	2
SI_	38	144	2	96	48	6
STR	38	192	6
SCR	38	192	6	96	96	2
TAP	38	240	5
TAP	38	288	4
HLD	39	0	6	192
TAP	39	96	3
TAP	39	144	2
TAP	39	192	1
STR	39	240	1
SI_	39	240	1	96	48	4
STR	39	240	3
SI_	39	240	3	96	48	6
TAP	39	336	1
TAP	39	336	3
TAP	40	48	5
TAP	40	96	3
TAP	40	144	5
STR	40	192	4
SI_	40	192	4	96	48	0
STR	40	192	6
SCL	40	192	6	96	48	3
HLD	41	0	1	192
TAP	41	96	6
TAP	41	144	5
TAP	41	192	4
STR	41	240	3
SXR	41	240	3	96	48	1
STR	41	240	4
SXL	41	240	4	96	48	6
TAP	41	336	3
TAP	41	336	4
TAP	42	48	1
TAP	42	96	5
STR	42	144	1
SV_	42	144	1	96	48	4
STR	42	192	4
SCL	42	192	4	96	96	0
TAP	42	240	5
TAP	42	288	6
HLD	43	0	7	144
TAP	43	144	0
STR	43	240	1
SI_	43	240	1	96	48	4
STR	43	240	6
SI_	43	240	6	96	48	3
BRK	43	336	1
BRK	43	336	6
STR	44	48	2
SI_	44	48	2	96	48	6
STR	44	96	6
SCR	44	96	6	96	96	2
TAP	44	144	2
STR	44	192	3
SI_	44	192	3	96	48	7
TAP	45	0	2
TAP	45	0	6
TAP	45	48	5
TAP	45	96	0
TAP	45	96	4
TAP	45	144	1
TAP	45	192	2
STR	45	240	0
SCL	45	240	0	96	48	5
SCR	45	240	0	96	48	3
TAP	45	240	3
TAP	45	336	0
TAP	46	48	4
TAP	46	96	1
STR	46	144	6
SI_	46	144	6	96	48	3
STR	46	192	3
SI_	46	192	3	96	48	7
TAP	46	240	2
TAP	46	288	1
TAP	47	0	1
TAP	47	0	5
TAP	47	48	2
TAP	47	96	3
TAP	47	96	7
TAP	47	144	6
TAP	47	192	5
TAP	47	240	4
STR	47	240	7
SI_	47	240	7	96	48	2
SI_	47	240	7	96	48	4
TAP	47	336	7
STR	48	48	5
SI_	48	48	5	96	48	1
STR	48	96	1
SCL	48	96	1	96	96	5
TAP	48	144	5
STR	48	192	4
SI_	48	192	4	96	48	0
TAP	49	0	2
TAP	49	0	6
TAP	49	48	5
TAP	49	96	0
TAP	49	96	4
TAP	49	144	1
TAP	49	192	2
TAP	49	240	0
TAP	49	240	3
TAP	49	336	1
STR	49	336	6
SXR	49	336	6	96	240	3
TAP	50	48	4
TAP	50	96	3
TAP	50	144	2
TAP	50	192	1
TAP	50	240	0
TAP	50	288	7
BST	51	0	0
SUR	51	0	0	96	672	2
BST	51	0	4
SUR	51	0	4	96	672	6
HLD	55	0	4	96
HLD	55	96	3	96
TAP	55	192	5
TAP	55	240	5
TAP	55	336	4
TAP	55	336	6
TAP	56	48	3
HLD	56	96	4	96
TAP	56	192	2
TAP	56	240	2
TAP	56	336	1
TAP	56	336	3
TAP	57	48	4
HLD	57	96	3	96
TAP	57	192	5
TAP	57	240	5
TAP	57	336	4
TAP	57	336	6
TAP	58	48	3
STR	58	96	4
SSL	58	96	4	96	96	0
BRK	59	0	0
BRK	59	0	7
TAP	59	96	3
HLD	59	96	4	144
TAP	59	192	5
TAP	59	240	5
TAP	59	336	3
TAP	59	336	6
TAP	60	48	3
TAP	60	48	4
HLD	60	96	3	144
TAP	60	96	4
TAP	60	192	2
TAP	60	240	2
TAP	60	336	1
TAP	60	336	4
TAP	61	48	3
TAP	61	48	4
TAP	61	96	3
HLD	61	96	4	144
TAP	61	192	5
TAP	61	240	5
TAP	61	336	3
TAP	61	336	6
TAP	62	48	3
TAP	62	48	4
HLD	62	96	3	192
TAP	62	96	4
TAP	62	192	2
TAP	62	240	2
TAP	62	288	2
TAP	63	0	3
TAP	63	0	5
TAP	63	96	2
HLD	63	96	4	144
TAP	63	192	5
TAP	63	240	5
TAP	63	336	2
TAP	63	336	6
TAP	64	48	3
TAP	64	48	5
HLD	64	96	3	144
TAP	64	96	5
TAP	64	192	2
TAP	64	240	2
TAP	64	336	1
TAP	64	336	5
TAP	65	48	2
TAP	65	48	4
TAP	65	96	2
HLD	65	96	4	144
TAP	65	192	5
TAP	65	240	5
TAP	65	336	2
TAP	65	336	6
TAP	66	48	3
TAP	66	48	5
HLD	66	96	3	192
STR	66	96	5
SLL	66	96	5	96	96	7
BST	67	0	1
SI_	67	0	1	96	48	5
STR	67	96	7
SI_	67	96	7	96	48	3
TAP	67	192	0
TAP	67	288	2
TAP	67	288	5
TAP	68	0	4
TAP	68	48	3
STR	68	96	4
SUR	68	96	4	96	96	3
TAP	68	192	2
TAP	68	288	7
STR	69	0	6
SI_	69	0	6	96	48	2
STR	69	96	0
SI_	69	96	0	96	48	4
STR	69	192	7
SUL	69	192	7	96	96	2
STR	69	288	2
SCL	69	288	2	96	96	7
STR	70	0	7
SUL	70	0	7	96	96	2
TAP	70	96	2
TAP	70	192	7
TAP	70	288	1
TAP	70	288	6
STR	71	0	6
SI_	71	0	6	96	48	3
STR	71	96	0
SI_	71	96	0	96	48	4
TAP	71	192	7
TAP	71	288	1
TAP	71	288	6
TAP	72	0	0
TAP	72	48	7
STR	72	96	0
SUR	72	96	0	96	96	7
TAP	72	192	6
TAP	72	288	3
STR	73	0	1
SI_	73	0	1	96	48	4
STR	73	96	5
SI_	73	96	5	96	48	0
STR	73	192	3
SUL	73	192	3	96	96	6
STR	73	288	6
SCL	73	288	6	96	96	3
STR	74	0	3
SUL	74	0	3	96	96	6
TAP	74	96	6
TAP	74	192	3
BRK	74	288	0
BRK	74	288	7
TAP	75	0	3
TAP	75	48	4
TAP	75	96	3
TAP	75	144	4
TAP	75	192	2
TAP	75	240	5
TAP	75	288	2
TAP	75	336	5
TAP	76	0	1
TAP	76	48	6
TAP	76	96	1
TAP	76	144	6
TAP	76	192	0
TAP	76	240	7
TAP	76	288	0
TAP	76	336	7
TAP	77	0	0
TAP	77	48	0
TAP	77	96	7
TAP	77	144	7
TAP	77	192	1
TAP	77	240	1
TAP	77	288	6
TAP	77	336	6
TAP	78	0	2
TAP	78	48	2
TAP	78	96	5
TAP	78	144	5
TAP	78	192	3
TAP	78	240	3
TAP	78	288	4
TAP	78	336	4
TAP	79	0	2
TAP	79	24	5
TAP	79	48	2
TAP	79	72	5
TAP	79	96	2
TAP	79	120	5
TAP	79	144	2
TAP	79	168	5
TAP	79	192	1
TAP	79	216	6
TAP	79	240	1
TAP	79	264	6
TAP	79	288	1
TAP	79	312	6
TAP	79	336	1
TAP	79	360	6
TAP	80	0	0
TAP	80	24	7
TAP	80	48	0
TAP	80	72	7
TAP	80	96	0
TAP	80	120	7
TAP	80	144	0
TAP	80	168	7
TAP	80	192	0
TAP	80	204	1
TAP	80	216	2
TAP	80	228	3
TAP	80	240	4
TAP	80	252	5
TAP	80	264	6
TAP	80	276	7
STR	80	288	0
SF_	80	288	0	96	288	4
TAP	80	300	1
TAP	80	312	2
TAP	80	324	3
TAP	80	336	4
TAP	80	348	5
TAP	80	360	6
TAP	80	372	7
TAP	81	0	0
TAP	82	0	5
TAP	82	24	4
TAP	82	48	5
TAP	82	96	2
TAP	82	120	3
TAP	82	144	2
STR	82	192	3
SI_	82	192	3	96	48	0
STR	82	192	4
SI_	82	192	4	96	48	7
TAP	82	240	3
TAP	82	240	4
BRK	82	288	3
BRK	82	288	4
TAP	83	0	6
TAP	83	0	7
TAP	83	48	1
TAP	83	72	0
TAP	83	96	1
TAP	83	144	3
TAP	83	168	2
TAP	83	192	3
TAP	83	240	2
TAP	83	240	4
TAP	83	288	1
TAP	83	288	5
TAP	83	336	0
STR	83	336	6
SUR	83	336	6	96	48	3
TAP	84	48	7
TAP	84	72	0
HLD	84	96	1	96
TAP	84	144	4
TAP	84	168	5
TAP	84	192	6
TAP	84	240	0
TAP	84	240	1
TAP	84	288	2
TAP	84	288	7
STR	84	336	3
SUL	84	336	3	96	48	6
TAP	84	336	6
TAP	85	48	6
TAP	85	72	5
HLD	85	96	4	96
TAP	85	144	7
TAP	85	168	0
TAP	85	192	1
TAP	85	240	2
TAP	85	240	3
TAP	85	288	1
TAP	85	288	4
TAP	85	336	0
STR	85	336	5
SUL	85	336	5	96	48	0
TAP	86	48	0
TAP	86	72	1
HLD	86	96	2	48
TAP	86	144	7
TAP	86	168	6
TAP	86	192	5
TAP	86	240	3
TAP	86	240	4
TAP	86	288	2
TAP	86	288	5
TAP	86	336	1
TAP	86	336	6
TAP	87	0	0
TAP	87	0	7
TAP	87	48	6
TAP	87	72	7
TAP	87	96	6
TAP	87	144	4
TAP	87	168	5
TAP	87	192	4
TAP	87	240	3
TAP	87	240	5
TAP	87	288	2
TAP	87	288	6
STR	87	336	1
SUL	87	336	1	96	48	4
TAP	87	336	7
TAP	88	48	0
TAP	88	72	7
HLD	88	96	6	96
TAP	88	144	3
TAP	88	168	2
TAP	88	192	1
TAP	88	240	6
TAP	88	240	7
TAP	88	288	0
TAP	88	288	5
TAP	88	336	1
STR	88	336	4
SUR	88	336	4	96	48	1
TAP	89	48	1
TAP	89	72	2
HLD	89	96	3	96
TAP	89	144	0
TAP	89	168	7
TAP	89	192	6
TAP	89	240	4
TAP	89	240	5
TAP	89	288	3
TAP	89	288	6
STR	89	336	2
SSL	89	336	2	96	144	6
TAP	89	336	7
TAP	90	96	3
TAP	90	192	7
BRK	90	288	0
BRK	90	288	7
TAP	91	0	2
STR	91	48	7
SI_	91	48	7	96	48	5
TAP	91	96	2
STR	91	144	7
SI_	91	144	7	96	48	1
TAP	91	192	4
STR	91	240	7
SI_	91	240	7	96	48	5
TAP	91	288	4
TAP	91	336	7
TAP	92	0	2
TAP	92	48	7
TAP	92	72	0
TAP	92	96	1
TAP	92	96	4
TAP	92	144	7
TAP	92	168	6
TAP	92	192	2
TAP	92	192	5
TAP	92	240	3
TAP	92	240	4
BRK	92	288	0
BRK	92	288	7
TAP	93	0	5
STR	93	48	0
SI_	93	48	0	96	48	2
TAP	93	96	5
STR	93	144	0
SI_	93	144	0	96	48	6
TAP	93	192	3
STR	93	240	0
SI_	93	240	0	96	48	2
TAP	93	288	3
TAP	93	336	0
TAP	94	0	5
BRK	94	48	0
TAP	94	72	7
TAP	94	96	3
TAP	94	96	6
BRK	94	144	0
TAP	94	168	1
TAP	94	192	2
TAP	94	192	5
BRK	94	240	3
BRK	94	240	4
BRK	94	288	0
BRK	94	288	7
TAP	95	0	2
STR	95	48	7
SI_	95	48	7	96	48	5
TAP	95	96	2
STR	95	144	7
SI_	95	144	7	96	48	1
TAP	95	192	4
STR	95	240	7
SI_	95	240	7	96	48	5
TAP	95	288	4
TAP	95	336	7
TAP	96	0	2
TAP	96	48	7
TAP	96	72	0
TAP	96	96	1
TAP	96	96	4
TAP	96	144	7
TAP	96	168	6
TAP	96	192	2
TAP	96	192	5
TAP	96	240	3
TAP	96	240	4
BRK	96	288	0
BRK	96	288	7
TAP	97	0	5
STR	97	48	0
SI_	97	48	0	96	48	2
TAP	97	96	5
STR	97	144	0
SI_	97	144	0	96	48	6
TAP	97	192	3
STR	97	240	0
SI_	97	240	0	96	48	2
TAP	97	288	3
TAP	97	336	0
BRK	98	0	4
BRK	98	96	0
BRK	98	96	7
BRK	98	192	6
TAP	98	224	4
TAP	98	256	6
BRK	98	288	1
TAP	98	320	3
TAP	98	352	1
BST	99	0	7
SI_	99	0	7	96	48	3
TAP	99	48	7
STR	99	96	1
SI_	99	96	1	96	48	5
TAP	99	144	1
STR	99	192	4
SI_	99	192	4	96	48	7
TAP	99	240	4
STR	99	288	2
SI_	99	288	2	96	48	5
TAP	99	336	2
STR	100	0	6
SI_	100	0	6	96	48	3
TAP	100	48	6
TAP	100	96	1
TAP	100	144	1
TAP	100	192	0
STR	100	192	7
SI_	100	192	7	96	48	3
TAP	100	264	1
BRK	100	288	7
TAP	100	336	2
STR	101	0	0
SI_	101	0	0	96	48	4
TAP	101	48	0
STR	101	96	6
SI_	101	96	6	96	48	2
TAP	101	144	6
STR	101	192	3
SI_	101	192	3	96	48	0
TAP	101	240	3
STR	101	288	5
SI_	101	288	5	96	48	2
TAP	101	336	5
STR	102	0	1
SI_	102	0	1	96	48	4
TAP	102	48	1
TAP	102	96	6
TAP	102	144	6
BRK	102	192	0
BRK	102	192	7
TAP	102	264	4
TAP	102	264	6
TAP	102	336	1
TAP	102	336	3
BRK	103	0	0
BRK	103	0	7
TAP	103	48	0
TAP	103	48	7
TAP	103	96	1
TAP	103	96	7
TAP	103	144	1
TAP	103	144	7
TAP	103	192	2
TAP	103	192	7
TAP	103	240	2
TAP	103	240	7
TAP	103	288	3
TAP	103	288	7
TAP	103	336	3
TAP	103	336	7
TAP	104	0	2
TAP	104	0	6
TAP	104	48	2
TAP	104	48	6
TAP	104	96	1
TAP	104	96	5
TAP	104	144	1
TAP	104	144	5
STR	104	192	0
SI_	104	192	0	96	48	4
TAP	104	192	4
TAP	104	264	5
BRK	104	288	0
TAP	104	336	6
TAP	105	0	3
TAP	105	24	7
TAP	105	48	3
TAP	105	72	7
TAP	105	96	2
TAP	105	120	6
TAP	105	144	2
TAP	105	168	6
TAP	105	192	1
TAP	105	216	5
TAP	105	240	1
TAP	105	264	5
STR	105	288	0
SXL	105	288	0	96	192	7
STR	105	312	4
SXL	105	312	4	96	168	3
TAP	105	336	0
TAP	105	360	4
BRK	106	288	1
BRK	106	288	6
HLD	107	0	1	192
TAP	107	0	5
TAP	107	96	4
TAP	107	144	5
TAP	107	192	6
STR	107	240	4
SI_	107	240	4	96	48	1
STR	107	240	6
SI_	107	240	6	96	48	3
TAP	107	336	4
TAP	107	336	6
STR	108	48	2
SI_	108	48	2	96	48	6
STR	108	96	6
SCR	108	96	6	96	96	2
TAP	108	144	2
STR	108	192	4
SI_	108	192	4	96	48	0
TAP	109	0	3
TAP	109	24	7
TAP	109	48	3
TAP	109	72	7
TAP	109	96	3
TAP	109	120	6
TAP	109	144	3
TAP	109	168	6
TAP	109	192	3
TAP	109	216	5
TAP	109	240	3
TAP	109	264	5
TAP	109	288	3
TAP	109	312	4
TAP	109	336	3
HLD	109	360	4	312
TAP	110	48	6
TAP	110	96	7
TAP	110	144	0
TAP	110	192	1
TAP	110	240	2
STR	110	288	3
SCL	110	288	3	96	672	4
BRK	111	0	3
BRK	111	0	7

T_REC_TAP	701
T_REC_BRK	41
T_REC_XTP	0
T_REC_HLD	48
T_REC_XHO	0
T_REC_STR	116
T_REC_BST	4
T_REC_XST	0
T_REC_TTP	0
T_REC_THO	0
T_REC_SLD	122
T_REC_ALL	1032
T_NUM_TAP	817
T_NUM_BRK	45
T_NUM_HLD	48
T_NUM_SLD	122
T_NUM_ALL	1032
T_JUDGE_TAP	862
T_JUDGE_HLD	105
T_JUDGE_SLD	122
T_JUDGE_ALL	1089
TTM_EACHPAIRS	176
TTM_SCR_TAP	408500
TTM_SCR_BRK	117000
TTM_SCR_HLD	48000
TTM_SCR_SLD	183000
TTM_SCR_ALL	756500
TTM_SCR_S	729450
TTM_SCR_SS	752000
TTM_RAT_ACV	10059

