VERSION	0.00.00	1.03.00
FES_MODE	0
BPM_DEF	220.000	220.000	220.000	220.000
MET_DEF	4	4
RESOLUTION	384
CLK_DEF	384
COMPATIBLE_CODE	MA2

BPM	0	0	220.000
MET	0	0	4	4

BST	3	0	3
SI_	3	0	3	96	48	0
BST	3	0	4
SI_	3	0	4	96	48	7
TAP	3	288	1
TAP	3	288	6
HLD	4	0	0	96
HLD	4	144	1	144
HLD	4	144	7	144
STR	5	0	6
SCL	5	0	6	96	72	3
STR	5	0	7
SCR	5	0	7	96	72	2
TAP	5	288	0
TAP	5	288	5
HLD	6	0	2	96
HLD	6	0	3	96
TAP	6	192	6
TAP	6	240	7
TAP	6	288	6
BST	7	0	3
SI_	7	0	3	96	48	0
BST	7	0	4
SI_	7	0	4	96	48	7
TAP	7	288	1
TAP	7	288	6
HLD	8	0	7	96
HLD	8	144	0	144
HLD	8	144	6	144
STR	9	0	0
SCL	9	0	0	96	72	5
STR	9	0	1
SCR	9	0	1	96	72	4
TAP	9	288	2
TAP	9	288	7
HLD	10	0	4	96
HLD	10	0	5	96
TAP	10	192	1
TAP	10	240	0
TAP	10	288	1
TAP	11	0	4
TAP	11	96	4
TAP	11	192	1
TAP	11	192	7
TAP	11	288	1
TAP	11	288	7
TAP	12	0	3
TAP	12	96	3
TAP	12	192	0
TAP	12	192	6
TAP	12	288	0
TAP	12	288	6
TAP	13	0	5
TAP	13	96	5
TAP	13	192	0
TAP	13	192	3
TAP	13	288	0
TAP	13	288	3
TAP	14	0	2
TAP	14	96	2
TAP	14	192	4
TAP	14	192	7
TAP	14	288	4
TAP	14	288	7
TAP	15	0	5
TAP	15	48	5
TAP	15	96	2
TAP	15	144	2
TAP	15	192	4
TAP	15	240	4
TAP	15	288	3
TAP	15	336	3
TAP	16	0	5
TAP	16	48	5
TAP	16	96	2
TAP	16	144	2
TAP	16	192	6
TAP	16	240	6
TAP	16	288	1
TAP	16	336	1
STR	17	0	7
SCL	17	0	7	96	384	0
BST	18	192	3
SI_	18	192	3	96	48	7
TAP	19	0	1
TAP	19	0	5
TAP	19	96	6
TAP	19	96	7
TAP	19	192	3
TAP	19	288	0
TAP	19	288	6
TAP	20	0	1
TAP	20	48	0
TAP	20	96	1
TAP	20	144	0
STR	20	192	1
SI_	20	192	1	96	48	4
TAP	21	0	5
TAP	21	96	6
TAP	21	96	7
TAP	21	192	3
TAP	21	288	0
TAP	21	288	6
TAP	22	0	1
TAP	22	48	0
TAP	22	96	1
TAP	22	144	0
HLD	22	192	1	96
TAP	22	288	7
TAP	23	0	2
TAP	23	0	6
TAP	23	96	0
TAP	23	96	1
TAP	23	192	4
TAP	23	288	1
TAP	23	288	7
TAP	24	0	6
TAP	24	48	7
TAP	24	96	6
TAP	24	144	7
STR	24	192	6
SI_	24	192	6	96	48	3
TAP	25	0	2
TAP	25	96	0
TAP	25	96	1
TAP	25	192	4
TAP	25	288	1
TAP	25	288	7
TAP	26	0	6
TAP	26	48	7
TAP	26	96	6
TAP	26	144	7
HLD	26	192	6	96
TAP	26	288	0
BRK	27	0	4
TAP	27	48	4
TAP	27	144	0
TAP	27	144	2
TAP	27	240	5
TAP	27	240	7
TAP	27	336	1
TAP	27	336	3
TAP	28	48	4
TAP	28	48	6
TAP	28	144	0
STR	28	192	0
SI_	28	192	0	96	48	4
TAP	29	0	5
TAP	29	48	5
TAP	29	144	0
TAP	29	144	2
TAP	29	240	5
TAP	29	240	7
TAP	29	336	1
TAP	29	336	3
TAP	30	48	4
TAP	30	48	6
TAP	30	144	0
TAP	30	144	2
TAP	30	240	5
TAP	30	288	5
TAP	31	0	3
TAP	31	48	3
TAP	31	144	5
TAP	31	144	7
TAP	31	240	0
TAP	31	240	2
TAP	31	336	4
TAP	31	336	6
TAP	32	48	1
TAP	32	48	3
TAP	32	144	7
HLD	32	192	7	96
BRK	32	288	1
STR	33	0	0
SI_	33	0	0	96	48	3
TAP	33	0	6
TAP	33	192	2
STR	33	192	4
SI_	33	192	4	96	48	7
STR	34	0	0
SSL	34	0	0	96	144	4
TAP	34	0	6
TAP	35	0	1
HLD	35	0	6	192
TAP	35	96	7
HLD	35	192	1	192
TAP	35	288	0
HLD	36	0	7	96
HLD	36	96	6	96
HLD	36	192	5	96
TAP	36	288	4
HLD	37	0	2	192
TAP	37	0	5
TAP	37	96	3
HLD	37	192	5	192
TAP	37	288	4
HLD	38	0	3	96
HLD	38	96	2	96
HLD	38	192	1	96
TAP	38	288	0
HLD	39	0	0	192
TAP	39	0	1
TAP	39	96	3
HLD	39	192	7	192
TAP	39	288	4
HLD	40	0	5	96
HLD	40	96	7	96
HLD	40	192	0	96
TAP	40	288	2
HLD	41	0	4	192
TAP	41	0	5
TAP	41	96	7
HLD	41	192	3	192
TAP	41	288	0
HLD	42	0	1	96
HLD	42	96	3	96
HLD	42	192	4	96
TAP	42	288	6
TAP	43	0	3
TAP	43	0	4
STR	43	48	3
SXR	43	48	3	96	240	0
STR	43	48	4
SXL	43	48	4	96	240	7
TAP	44	96	2
TAP	44	96	5
TAP	44	192	0
TAP	44	192	7
TAP	45	0	3
TAP	45	0	4
TAP	45	48	3
TAP	45	48	4
TAP	45	144	1
TAP	45	144	6
TAP	45	240	2
TAP	45	240	5
TAP	45	336	0
TAP	45	336	7
TAP	46	48	2
TAP	46	48	5
TAP	46	96	2
TAP	46	96	5
HLD	46	192	0	96
HLD	46	192	7	96
TAP	47	0	0
TAP	47	0	7
TAP	47	48	0
TAP	47	48	7
TAP	47	144	2
TAP	47	144	5
TAP	47	240	1
TAP	47	240	6
TAP	47	336	3
TAP	47	336	4
TAP	48	48	1
TAP	48	48	6
TAP	48	96	1
TAP	48	96	6
HLD	48	192	3	96
HLD	48	192	4	96
TAP	49	0	3
TAP	49	0	4
TAP	49	48	3
TAP	49	48	4
TAP	49	144	1
TAP	49	144	6
TAP	49	240	2
TAP	49	240	5
TAP	49	336	0
TAP	49	336	7
TAP	50	48	7
TAP	50	96	0
TAP	50	144	6
TAP	50	192	1
TAP	50	240	5
TAP	50	288	2
BST	51	0	3
SUR	51	0	3	96	672	4
BST	51	0	4
SCR	51	0	4	96	672	3
HLD	55	0	1	576
HLD	56	0	0	576
HLD	57	0	7	576
HLD	58	0	6	192
BRK	59	0	2
BRK	59	0	3
TAP	59	96	4
TAP	59	96	5
TAP	59	192	0
TAP	59	192	7
STR	59	240	0
SUL	59	240	0	96	96	3
STR	59	240	7
SCL	59	240	7	96	96	4
TAP	60	96	2
TAP	60	192	0
TAP	60	192	7
STR	60	240	0
SCR	60	240	0	96	96	3
STR	60	240	7
SUR	60	240	7	96	96	4
TAP	61	96	5
TAP	61	192	0
TAP	61	192	7
STR	61	240	0
SUL	61	240	0	96	96	3
STR	61	240	7
SCL	61	240	7	96	96	4
HLD	62	96	2	96
HLD	62	192	1	96
TAP	62	288	0
TAP	63	0	6
TAP	63	0	7
TAP	63	96	0
TAP	63	96	1
TAP	63	192	3
TAP	63	192	4
STR	63	240	3
SCL	63	240	3	96	96	0
STR	63	240	4
SUL	63	240	4	96	96	7
TAP	64	96	6
TAP	64	192	3
TAP	64	192	4
STR	64	240	3
SUR	64	240	3	96	96	0
STR	64	240	4
SCR	64	240	4	96	96	7
TAP	65	96	1
TAP	65	192	3
TAP	65	192	4
STR	65	240	3
SCL	65	240	3	96	96	0
STR	65	240	4
SUL	65	240	4	96	96	7
HLD	66	96	6	96
HLD	66	192	5	96
TAP	66	288	4
TAP	67	0	2
TAP	67	0	3
TAP	67	96	1
TAP	67	96	4
TAP	67	192	0
TAP	67	192	5
TAP	67	288	6
TAP	67	288	7
HLD	68	0	0	96
HLD	68	96	7	96
HLD	68	192	6	96
TAP	68	288	5
TAP	69	0	4
TAP	69	0	5
TAP	69	96	3
TAP	69	96	6
TAP	69	192	2
TAP	69	192	7
TAP	69	288	0
TAP	69	288	1
HLD	70	0	7	96
HLD	70	96	0	96
HLD	70	192	1	96
TAP	70	288	2
TAP	71	0	2
TAP	71	0	3
TAP	71	96	6
TAP	71	96	7
TAP	71	192	4
TAP	71	192	5
TAP	71	288	0
TAP	71	288	1
TAP	72	0	2
TAP	72	0	4
TAP	72	96	6
TAP	72	96	7
TAP	72	192	3
TAP	72	192	5
TAP	72	288	0
TAP	72	288	1
TAP	73	0	4
TAP	73	96	1
TAP	73	96	5
TAP	73	192	2
TAP	73	192	6
TAP	73	288	3
TAP	73	288	7
TAP	74	0	2
TAP	74	0	6
TAP	74	96	1
TAP	74	96	5
TAP	74	192	0
BST	74	192	4
SI_	74	192	4	96	48	7
HLD	75	0	0	96
HLD	75	96	1	96
HLD	75	192	2	96
HLD	75	288	3	96
HLD	76	0	4	96
HLD	76	96	5	96
HLD	76	192	6	96
HLD	76	288	7	96
HLD	77	0	0	96
HLD	77	96	1	96
HLD	77	192	2	96
HLD	77	288	3	96
HLD	78	0	4	96
HLD	78	96	5	96
HLD	78	192	6	96
HLD	78	288	7	96
TAP	79	0	0
TAP	79	48	0
TAP	79	96	1
TAP	79	144	1
TAP	79	192	2
TAP	79	240	2
TAP	79	288	3
TAP	79	336	3
TAP	80	0	4
TAP	80	48	4
TAP	80	96	5
TAP	80	144	5
TAP	80	192	6
TAP	80	240	6
TAP	80	288	7
TAP	80	336	7
STR	81	0	0
SCR	81	0	0	96	192	7
TAP	82	0	1
TAP	82	0	6
TAP	82	96	2
TAP	82	96	5
STR	82	192	3
SI_	82	192	3	96	48	0
STR	82	192	4
SI_	82	192	4	96	48	7
BRK	83	0	1
BRK	83	0	6
TAP	83	96	2
TAP	83	96	3
TAP	83	192	1
TAP	83	192	4
STR	83	240	1
SCR	83	240	1	96	72	4
TAP	83	240	4
HLD	83	336	6	144
TAP	84	96	7
TAP	84	192	0
TAP	84	192	5
TAP	84	240	0
STR	84	240	5
SCR	84	240	5	96	72	0
HLD	84	336	2	144
TAP	85	96	3
TAP	85	192	1
TAP	85	192	4
STR	85	240	1
SCR	85	240	1	96	72	4
TAP	85	240	4
HLD	85	336	6	144
TAP	86	96	7
TAP	86	192	0
TAP	86	240	5
TAP	86	288	1
TAP	87	0	2
TAP	87	0	3
TAP	87	96	4
TAP	87	96	5
TAP	87	192	3
TAP	87	192	6
TAP	87	240	3
STR	87	240	6
SCL	87	240	6	96	72	3
HLD	87	336	1	144
TAP	88	96	0
TAP	88	192	2
TAP	88	192	7
STR	88	240	2
SCL	88	240	2	96	72	7
TAP	88	240	7
HLD	88	336	5	144
TAP	89	96	4
TAP	89	192	3
TAP	89	192	6
TAP	89	240	3
STR	89	240	6
SCL	89	240	6	96	72	3
HLD	89	336	1	144
STR	90	96	0
SSL	90	96	0	96	144	4
TAP	91	0	1
TAP	91	48	1
TAP	91	144	1
TAP	91	144	7
TAP	91	240	1
TAP	91	240	2
TAP	91	336	1
TAP	91	336	6
TAP	92	48	1
TAP	92	48	3
TAP	92	144	1
TAP	92	144	5
STR	92	192	1
SI_	92	192	1	96	48	5
TAP	92	192	5
TAP	93	0	6
TAP	93	48	6
TAP	93	144	0
TAP	93	144	6
TAP	93	240	5
TAP	93	240	6
TAP	93	336	1
TAP	93	336	6
TAP	94	48	4
TAP	94	48	6
TAP	94	144	2
TAP	94	144	6
TAP	94	192	2
STR	94	192	6
SI_	94	192	6	96	48	2
TAP	95	0	1
TAP	95	48	1
TAP	95	144	1
TAP	95	144	7
TAP	95	240	1
TAP	95	240	2
TAP	95	336	1
TAP	95	336	6
TAP	96	48	1
TAP	96	48	3
TAP	96	144	1
TAP	96	144	5
STR	96	192	1
SI_	96	192	1	96	48	5
TAP	96	192	5
TAP	97	0	6
TAP	97	48	6
TAP	97	144	0
TAP	97	144	6
TAP	97	240	5
TAP	97	240	6
TAP	97	336	1
STR	97	336	6
SCL	97	336	6	96	144	1
BRK	98	288	0
BRK	98	288	7
TAP	99	0	1
TAP	99	48	1
TAP	99	96	1
TAP	99	144	1
TAP	99	192	1
TAP	99	240	1
TAP	99	288	1
TAP	99	336	1
TAP	100	0	0
TAP	100	0	1
TAP	100	48	0
TAP	100	48	1
TAP	100	96	0
TAP	100	96	1
TAP	100	144	0
TAP	100	144	1
TAP	100	192	0
STR	100	192	1
SI_	100	192	1	96	48	4
BRK	100	288	7
TAP	101	0	6
TAP	101	48	6
TAP	101	96	6
TAP	101	144	6
TAP	101	192	6
TAP	101	240	6
TAP	101	288	6
TAP	101	336	6
TAP	102	0	6
TAP	102	0	7
TAP	102	48	6
TAP	102	48	7
TAP	102	96	6
TAP	102	96	7
TAP	102	144	6
TAP	102	144	7
STR	102	192	6
SI_	102	192	6	96	48	3
TAP	102	192	7
BRK	102	288	0
TAP	103	0	0
TAP	103	48	0
TAP	103	96	0
BRK	103	144	0
TAP	103	192	7
TAP	103	240	7
TAP	103	288	7
BRK	103	336	7
TAP	104	0	1
TAP	104	48	1
TAP	104	96	1
BRK	104	144	1
TAP	104	192	6
TAP	104	240	6
TAP	104	288	6
BRK	104	336	6
TAP	105	0	0
TAP	105	24	7
TAP	105	48	0
TAP	105	72	7
TAP	105	96	0
TAP	105	120	7
TAP	105	144	0
TAP	105	168	7
TAP	105	192	0
TAP	105	216	7
TAP	105	240	0
TAP	105	264	7
TAP	105	288	0
TAP	105	312	7
TAP	105	336	0
TAP	105	360	7
BST	106	0	0
SCR	106	0	0	96	192	7
TAP	107	0	6
TAP	107	48	6
TAP	107	144	2
TAP	107	144	3
TAP	107	240	4
TAP	107	240	5
TAP	107	336	2
TAP	107	336	3
TAP	108	48	7
TAP	108	96	1
TAP	108	144	5
STR	108	192	3
SI_	108	192	3	96	48	7
TAP	109	0	5
TAP	109	48	5
TAP	109	144	6
TAP	109	144	7
TAP	109	240	0
TAP	109	240	1
TAP	109	336	6
TAP	109	336	7
TAP	110	48	2
TAP	110	96	4
TAP	110	144	0
TAP	110	192	6
TAP	110	240	3
TAP	110	288	7
BST	111	0	7
SF_	111	0	7	96	672	3

T_REC_TAP	457
T_REC_BRK	14
T_REC_XTP	0
T_REC_HLD	73
T_REC_XHO	0
T_REC_STR	42
T_REC_BST	10
T_REC_XST	0
T_REC_TTP	0
T_REC_THO	0
T_REC_SLD	52
T_REC_ALL	648
T_NUM_TAP	499
T_NUM_BRK	24
T_NUM_HLD	73
T_NUM_SLD	52
T_NUM_ALL	648
T_JUDGE_TAP	523
T_JUDGE_HLD	204
T_JUDGE_SLD	52
T_JUDGE_ALL	779
TTM_EACHPAIRS	171
TTM_SCR_TAP	249500
TTM_SCR_BRK	62400
TTM_SCR_HLD	73000
TTM_SCR_SLD	78000
TTM_SCR_ALL	462900
TTM_SCR_S	446700
TTM_SCR_SS	460500
TTM_RAT_ACV	10052

