VERSION	0.00.00	1.03.00
FES_MODE	0
BPM_DEF	220.000	220.000	220.000	220.000
MET_DEF	4	4
RESOLUTION	384
CLK_DEF	384
COMPATIBLE_CODE	MA2

BPM	0	0	220.000
MET	0	0	4	4

HLD	3	0	5	576
TAP	4	0	4
TAP	4	192	4
HLD	5	0	2	576
TAP	6	0	3
TAP	6	192	3
HLD	7	0	6	576
TAP	8	0	5
TAP	8	192	5
HLD	9	0	1	576
TAP	10	0	2
TAP	10	192	2
TAP	11	0	7
TAP	11	96	7
TAP	11	192	6
TAP	11	288	6
TAP	12	0	5
TAP	12	96	5
TAP	12	192	4
TAP	12	192	5
TAP	13	0	0
TAP	13	96	0
TAP	13	192	1
TAP	13	288	1
TAP	14	0	2
TAP	14	96	2
TAP	14	192	2
TAP	14	192	3
TAP	15	0	4
TAP	15	96	4
TAP	15	192	5
TAP	15	288	5
TAP	16	0	6
TAP	16	96	6
TAP	16	192	7
TAP	16	288	7
STR	17	0	0
SCR	17	0	0	96	480	7
TAP	19	0	7
TAP	19	96	7
TAP	19	192	6
TAP	19	288	6
TAP	20	0	6
TAP	20	0	7
TAP	20	96	0
TAP	20	96	5
TAP	20	192	1
TAP	20	192	4
TAP	21	0	0
TAP	21	96	0
TAP	21	192	1
TAP	21	288	1
TAP	22	0	0
TAP	22	0	1
TAP	22	96	2
TAP	22	96	7
TAP	22	192	3
TAP	22	192	6
TAP	23	0	4
TAP	23	96	4
TAP	23	192	5
TAP	23	288	5
TAP	24	0	4
TAP	24	0	5
TAP	24	96	3
TAP	24	96	6
TAP	24	192	2
TAP	24	192	7
TAP	25	0	3
TAP	25	96	3
TAP	25	192	2
TAP	25	288	2
TAP	26	0	2
TAP	26	0	3
TAP	26	96	1
TAP	26	96	4
TAP	26	192	0
TAP	26	192	5
TAP	27	0	5
TAP	27	96	4
TAP	27	96	5
TAP	27	192	2
TAP	27	288	2
TAP	27	288	3
TAP	28	0	0
TAP	28	0	1
TAP	28	96	2
TAP	28	96	7
TAP	28	192	3
TAP	28	192	6
TAP	28	288	4
TAP	28	288	5
TAP	29	0	2
TAP	29	96	2
TAP	29	96	3
TAP	29	192	5
TAP	29	288	4
TAP	29	288	5
TAP	30	0	6
TAP	30	0	7
TAP	30	96	0
TAP	30	96	5
TAP	30	192	1
TAP	30	192	4
TAP	30	288	2
TAP	30	288	3
TAP	31	0	5
TAP	31	96	4
TAP	31	96	5
TAP	31	192	2
TAP	31	288	2
TAP	31	288	3
TAP	32	0	0
TAP	32	0	1
TAP	32	96	2
TAP	32	96	7
TAP	32	192	3
TAP	32	192	6
TAP	32	288	4
TAP	32	288	5
TAP	33	0	2
TAP	33	0	3
TAP	33	96	2
TAP	33	96	3
TAP	33	192	4
TAP	33	192	5
TAP	33	288	4
TAP	33	288	5
STR	34	0	0
SI_	34	0	0	96	144	3
STR	34	0	7
SI_	34	0	7	96	144	4
HLD	35	0	2	384
TAP	35	192	3
TAP	35	288	3
TAP	36	0	3
TAP	36	192	1
TAP	36	192	4
HLD	37	0	5	384
TAP	37	192	4
TAP	37	288	4
TAP	38	0	4
TAP	38	192	3
TAP	38	192	6
HLD	39	0	1	384
TAP	39	192	0
TAP	39	288	0
TAP	40	0	0
TAP	40	192	2
TAP	40	192	7
HLD	41	0	6	384
TAP	41	192	7
TAP	41	288	7
TAP	42	0	7
TAP	42	192	0
TAP	42	192	5
STR	43	0	3
SXR	43	0	3	96	480	0
STR	43	0	4
SXL	43	0	4	96	480	7
HLD	45	0	6	384
TAP	45	192	5
TAP	45	288	5
TAP	46	0	5
TAP	46	192	0
TAP	46	192	6
HLD	47	0	1	384
TAP	47	192	2
TAP	47	288	2
TAP	48	0	2
TAP	48	192	1
TAP	48	192	7
HLD	49	0	7	384
TAP	49	192	0
TAP	49	288	0
TAP	50	0	0
TAP	50	192	3
TAP	50	192	4
BRK	51	0	1
BRK	51	0	6
HLD	55	0	5	384
HLD	56	0	4	384
HLD	57	0	3	384
TAP	58	0	2
TAP	58	192	2
HLD	59	0	2	384
HLD	60	0	3	384
HLD	61	0	4	384
TAP	62	0	5
TAP	62	192	5
HLD	63	0	6	384
HLD	64	0	7	384
HLD	65	0	0	384
TAP	66	0	1
TAP	66	192	1
TAP	67	0	0
TAP	67	96	0
TAP	67	192	1
TAP	67	288	1
TAP	68	0	2
TAP	68	96	2
TAP	68	192	3
TAP	68	288	3
TAP	69	0	4
TAP	69	96	4
TAP	69	192	5
TAP	69	288	5
TAP	70	0	6
TAP	70	96	6
TAP	70	192	6
TAP	70	192	7
TAP	71	0	7
TAP	71	96	7
TAP	71	192	6
TAP	71	288	6
TAP	72	0	5
TAP	72	96	5
TAP	72	192	4
TAP	72	288	4
TAP	73	0	3
TAP	73	96	3
TAP	73	192	2
TAP	73	288	2
TAP	74	0	1
TAP	74	96	1
TAP	74	192	0
TAP	74	192	1
TAP	75	0	0
TAP	75	96	1
TAP	75	192	2
TAP	75	288	3
TAP	76	0	4
TAP	76	96	5
TAP	76	192	6
TAP	76	288	7
TAP	77	0	7
TAP	77	96	6
TAP	77	192	5
TAP	77	288	4
TAP	78	0	3
TAP	78	96	2
TAP	78	192	1
TAP	78	288	0
TAP	79	0	0
TAP	79	0	1
TAP	79	96	0
TAP	79	96	1
TAP	79	192	2
TAP	79	192	3
TAP	79	288	2
TAP	79	288	3
TAP	80	0	4
TAP	80	0	5
TAP	80	96	4
TAP	80	96	5
TAP	80	192	6
TAP	80	192	7
TAP	80	288	6
TAP	80	288	7
STR	81	0	0
SI_	81	0	0	96	144	5
STR	81	0	1
SI_	81	0	1	96	144	4
TAP	82	0	3
TAP	82	0	4
TAP	82	96	3
TAP	82	96	4
TAP	82	192	3
TAP	82	192	4
BRK	82	288	2
BRK	82	288	5
TAP	83	0	6
TAP	83	96	6
TAP	83	192	5
TAP	83	192	7
TAP	83	288	5
TAP	83	288	7
TAP	84	0	1
TAP	84	96	1
TAP	84	192	0
TAP	84	192	2
TAP	84	288	0
TAP	84	288	2
TAP	85	0	5
TAP	85	96	4
TAP	85	96	5
TAP	85	192	2
TAP	85	288	2
TAP	85	288	3
TAP	86	0	0
TAP	86	0	1
TAP	86	96	2
TAP	86	96	7
TAP	86	192	3
TAP	86	192	6
TAP	86	288	4
TAP	86	288	5
TAP	87	0	1
TAP	87	96	1
TAP	87	192	0
TAP	87	192	2
TAP	87	288	0
TAP	87	288	2
TAP	88	0	6
TAP	88	96	6
TAP	88	192	5
TAP	88	192	7
TAP	88	288	5
TAP	88	288	7
TAP	89	0	2
TAP	89	96	2
TAP	89	96	3
TAP	89	192	5
TAP	89	288	4
TAP	89	288	5
TAP	90	0	6
TAP	90	0	7
TAP	90	96	0
TAP	90	96	5
TAP	90	192	1
TAP	90	192	4
TAP	90	288	2
TAP	90	288	3
TAP	91	0	6
TAP	91	96	4
TAP	91	96	5
TAP	91	192	1
TAP	91	288	2
TAP	91	288	3
TAP	92	0	6
TAP	92	96	4
TAP	92	96	5
TAP	92	192	3
TAP	92	288	2
TAP	92	288	4
TAP	93	0	1
TAP	93	96	2
TAP	93	96	3
TAP	93	192	6
TAP	93	288	4
TAP	93	288	5
TAP	94	0	1
TAP	94	96	2
TAP	94	96	3
TAP	94	192	4
TAP	94	288	3
TAP	94	288	5
TAP	95	0	2
TAP	95	96	0
TAP	95	96	1
TAP	95	192	5
TAP	95	288	6
TAP	95	288	7
TAP	96	0	2
TAP	96	96	0
TAP	96	96	1
TAP	96	192	7
TAP	96	288	0
TAP	96	288	6
TAP	97	0	5
TAP	97	96	6
TAP	97	96	7
TAP	97	192	2
TAP	97	288	0
TAP	97	288	1
TAP	98	0	6
TAP	98	0	7
TAP	98	96	6
TAP	98	96	7
TAP	98	192	0
TAP	98	192	1
TAP	98	288	0
TAP	98	288	1
TAP	99	0	7
TAP	99	96	4
TAP	99	96	6
TAP	99	192	0
TAP	99	288	1
TAP	99	288	3
TAP	100	0	7
TAP	100	96	4
TAP	100	96	6
TAP	100	192	2
TAP	100	192	3
TAP	100	288	1
TAP	100	288	4
TAP	101	0	0
TAP	101	96	1
TAP	101	96	3
TAP	101	192	7
TAP	101	288	4
TAP	101	288	6
TAP	102	0	0
TAP	102	96	1
TAP	102	96	3
TAP	102	192	6
TAP	102	192	7
TAP	102	288	0
TAP	102	288	5
TAP	103	0	3
TAP	103	96	0
TAP	103	96	2
TAP	103	192	4
TAP	103	288	5
TAP	103	288	7
TAP	104	0	3
TAP	104	96	0
TAP	104	96	2
TAP	104	192	6
TAP	104	192	7
TAP	104	288	0
TAP	104	288	5
TAP	105	0	4
TAP	105	96	5
TAP	105	96	7
TAP	105	192	3
TAP	105	288	0
TAP	105	288	2
STR	106	0	6
SI_	106	0	6	96	144	3
STR	106	0	7
SI_	106	0	7	96	144	2
HLD	107	0	5	192
TAP	107	192	4
HLD	108	0	2	192
TAP	108	192	3
HLD	109	0	1	192
HLD	109	192	0	192
HLD	110	0	7	192
TAP	110	192	6
TAP	111	0	2
TAP	111	0	5

T_REC_TAP	385
T_REC_BRK	4
T_REC_XTP	0
T_REC_HLD	25
T_REC_XHO	0
T_REC_STR	9
T_REC_BST	0
T_REC_XST	0
T_REC_TTP	0
T_REC_THO	0
T_REC_SLD	9
T_REC_ALL	432
T_NUM_TAP	394
T_NUM_BRK	4
T_NUM_HLD	25
T_NUM_SLD	9
T_NUM_ALL	432
T_JUDGE_TAP	398
T_JUDGE_HLD	196
T_JUDGE_SLD	9
T_JUDGE_ALL	603
TTM_EACHPAIRS	118
TTM_SCR_TAP	197000
TTM_SCR_BRK	10400
TTM_SCR_HLD	25000
TTM_SCR_SLD	13500
TTM_SCR_ALL	245900
TTM_SCR_S	238150
TTM_SCR_SS	245500
TTM_RAT_ACV	10016

