VERSION	0.00.00	1.03.00
FES_MODE	0
BPM_DEF	220.000	220.000	220.000	220.000
MET_DEF	4	4
RESOLUTION	384
CLK_DEF	384
COMPATIBLE_CODE	MA2

BPM	0	0	220.000
MET	0	0	4	4

TAP	3	0	0
TAP	4	0	1
TAP	5	0	2
TAP	6	0	3
TAP	7	0	4
TAP	8	0	5
TAP	9	0	6
TAP	10	0	7
TAP	11	0	7
TAP	11	192	7
HLD	12	0	6	192
HLD	12	0	7	192
TAP	13	0	0
TAP	13	192	0
HLD	14	0	0	192
HLD	14	0	1	192
TAP	15	0	7
TAP	15	96	7
TAP	15	192	0
TAP	15	288	0
TAP	16	0	7
TAP	16	96	7
TAP	16	192	0
TAP	16	288	0
TAP	17	0	0
TAP	17	0	7
TAP	19	0	0
TAP	19	96	0
TAP	19	192	0
TAP	20	0	1
TAP	20	96	1
TAP	20	192	0
TAP	20	192	1
TAP	21	0	2
TAP	21	96	2
TAP	21	192	2
TAP	22	0	3
TAP	22	96	3
TAP	22	192	3
TAP	23	0	4
TAP	23	96	4
TAP	23	192	4
TAP	24	0	5
TAP	24	96	5
TAP	24	192	4
TAP	24	192	5
TAP	25	0	6
TAP	25	96	6
TAP	25	192	6
TAP	26	0	7
TAP	26	96	0
TAP	26	192	7
TAP	26	288	0
TAP	27	0	7
TAP	27	96	7
TAP	27	192	7
TAP	28	0	6
TAP	28	96	6
TAP	28	192	6
TAP	28	192	7
TAP	29	0	5
TAP	29	96	5
TAP	29	192	5
TAP	30	0	4
TAP	30	96	4
TAP	30	192	4
TAP	31	0	3
TAP	31	96	3
TAP	31	192	3
TAP	32	0	2
TAP	32	96	2
TAP	32	192	2
TAP	32	192	3
TAP	33	0	0
TAP	33	0	1
TAP	33	192	0
TAP	33	192	1
TAP	34	0	0
TAP	34	96	7
TAP	34	192	0
TAP	34	288	7
HLD	35	0	0	192
TAP	36	0	1
TAP	36	96	0
TAP	36	192	1
HLD	37	0	7	192
TAP	38	0	6
TAP	38	96	7
TAP	38	192	6
HLD	39	0	4	192
TAP	40	0	5
TAP	40	96	4
TAP	40	192	5
HLD	41	0	3	192
TAP	42	0	2
TAP	42	96	3
TAP	42	192	2
BRK	43	0	1
BRK	43	0	6
TAP	43	192	1
TAP	43	192	6
TAP	44	0	1
TAP	44	96	0
TAP	44	192	1
TAP	45	0	2
TAP	45	0	5
TAP	45	192	2
TAP	45	192	5
TAP	46	0	2
TAP	46	96	3
TAP	46	192	2
TAP	47	0	1
TAP	47	0	6
TAP	47	192	1
TAP	47	192	6
TAP	48	0	6
TAP	48	96	7
TAP	48	192	6
TAP	49	0	2
TAP	49	0	5
TAP	49	192	2
TAP	49	192	5
TAP	50	0	5
TAP	50	96	4
TAP	50	192	5
STR	51	0	3
SI_	51	0	3	96	672	0
STR	51	0	4
SI_	51	0	4	96	672	7
HLD	59	0	0	192
HLD	60	0	1	192
HLD	61	0	2	192
HLD	62	0	3	192
HLD	63	0	4	192
HLD	64	0	5	192
HLD	65	0	6	192
HLD	66	0	7	192
TAP	67	0	7
TAP	67	96	7
TAP	67	192	7
TAP	67	288	7
TAP	68	0	6
TAP	68	96	6
TAP	68	192	6
TAP	68	288	6
TAP	69	0	5
TAP	69	96	5
TAP	69	192	5
TAP	69	288	5
TAP	70	0	4
TAP	70	96	4
TAP	70	192	3
TAP	70	192	4
TAP	71	0	3
TAP	71	96	3
TAP	71	192	3
TAP	71	288	3
TAP	72	0	2
TAP	72	96	2
TAP	72	192	2
TAP	72	288	2
TAP	73	0	1
TAP	73	96	1
TAP	73	192	1
TAP	73	288	1
TAP	74	0	0
TAP	74	96	0
TAP	74	192	0
TAP	74	192	7
TAP	75	0	0
TAP	75	96	0
TAP	75	192	1
TAP	75	288	1
TAP	76	0	2
TAP	76	96	2
TAP	76	192	3
TAP	76	288	3
TAP	77	0	4
TAP	77	96	4
TAP	77	192	5
TAP	77	288	5
TAP	78	0	6
TAP	78	96	6
TAP	78	192	7
TAP	78	288	7
TAP	79	0	0
TAP	79	96	1
TAP	79	192	2
TAP	79	288	3
TAP	80	0	4
TAP	80	96	5
TAP	80	192	6
TAP	80	288	7
BRK	81	0	0
TAP	82	0	0
TAP	82	96	0
TAP	82	192	0
BRK	82	288	0
BRK	82	288	7
TAP	83	0	7
TAP	83	96	7
TAP	83	192	0
TAP	83	192	7
TAP	84	0	6
TAP	84	96	6
TAP	84	192	6
TAP	84	192	7
TAP	85	0	5
TAP	85	96	5
TAP	85	192	4
TAP	85	192	5
TAP	86	0	3
TAP	86	96	4
TAP	86	192	3
TAP	86	288	4
TAP	87	0	3
TAP	87	96	3
TAP	87	192	3
TAP	87	192	4
TAP	88	0	2
TAP	88	96	2
TAP	88	192	2
TAP	88	192	3
TAP	89	0	1
TAP	89	96	1
TAP	89	192	0
TAP	89	192	1
TAP	90	0	0
TAP	90	96	7
TAP	90	192	0
TAP	90	288	0
TAP	90	288	7
TAP	91	0	0
TAP	91	96	0
TAP	91	192	0
TAP	92	0	1
TAP	92	96	1
TAP	92	192	0
TAP	92	192	1
TAP	93	0	2
TAP	93	96	2
TAP	93	192	2
TAP	93	192	3
TAP	94	0	4
TAP	94	96	3
TAP	94	192	4
TAP	94	288	3
TAP	95	0	4
TAP	95	96	4
TAP	95	192	3
TAP	95	192	4
TAP	96	0	5
TAP	96	96	5
TAP	96	192	4
TAP	96	192	5
TAP	97	0	6
TAP	97	96	6
TAP	97	192	6
TAP	97	192	7
TAP	98	0	0
TAP	98	96	7
TAP	98	192	0
TAP	98	288	0
TAP	98	288	7
TAP	99	0	0
TAP	99	96	0
TAP	99	192	0
TAP	99	288	0
TAP	100	0	1
TAP	100	96	1
TAP	100	192	1
TAP	100	288	1
TAP	101	0	2
TAP	101	96	2
TAP	101	192	2
TAP	101	288	2
TAP	102	0	3
TAP	102	96	3
TAP	102	192	3
TAP	102	288	3
TAP	102	288	4
TAP	103	0	4
TAP	103	96	4
TAP	103	192	4
TAP	103	288	4
TAP	104	0	5
TAP	104	96	5
TAP	104	192	5
TAP	104	288	5
TAP	105	0	6
TAP	105	96	6
TAP	105	192	6
TAP	105	288	6
TAP	106	0	7
TAP	106	96	7
TAP	106	192	7
TAP	106	288	0
TAP	106	288	7
HLD	107	0	0	384
TAP	108	192	0
TAP	108	192	1
HLD	109	0	7	384
TAP	110	192	6
TAP	110	192	7
STR	111	0	0
SI_	111	0	0	96	672	3
STR	111	0	7
SI_	111	0	7	96	672	4

T_REC_TAP	277
T_REC_BRK	5
T_REC_XTP	0
T_REC_HLD	18
T_REC_XHO	0
T_REC_STR	4
T_REC_BST	0
T_REC_XST	0
T_REC_TTP	0
T_REC_THO	0
T_REC_SLD	4
T_REC_ALL	308
T_NUM_TAP	281
T_NUM_BRK	5
T_NUM_HLD	18
T_NUM_SLD	4
T_NUM_ALL	308
T_JUDGE_TAP	286
T_JUDGE_HLD	80
T_JUDGE_SLD	4
T_JUDGE_ALL	370
TTM_EACHPAIRS	39
TTM_SCR_TAP	140500
TTM_SCR_BRK	13000
TTM_SCR_HLD	18000
TTM_SCR_SLD	6000
TTM_SCR_ALL	177500
TTM_SCR_S	171700
TTM_SCR_SS	177000
TTM_RAT_ACV	10028

