VERSION	0.00.00	1.03.00
FES_MODE	0
BPM_DEF	145.000	145.000	145.000	145.000
MET_DEF	4	4
RESOLUTION	384
CLK_DEF	384
COMPATIBLE_CODE	MA2

BPM	0	0	145.000

STR	1	0	1
SI_	1	0	1	96	48	6
TAP	1	0	5
TAP	1	96	1
TAP	1	96	7
TAP	1	192	1
STR	1	192	5
SI_	1	192	5	96	48	2
TAP	1	288	3
TAP	1	288	5
STR	2	0	1
SI_	2	0	1	96	48	6
TAP	2	0	5
TAP	2	96	1
TAP	2	96	7
TAP	2	192	1
STR	2	192	5
SI_	2	192	5	96	48	2
TAP	2	288	3
TAP	2	288	5
TAP	3	0	0
STR	3	0	7
SI_	3	0	7	96	48	2
TAP	3	96	6
TAP	3	96	7
STR	3	192	0
SI_	3	192	0	96	48	5
TAP	3	192	7
TAP	3	288	0
TAP	3	288	1
TAP	4	0	0
STR	4	0	7
SI_	4	0	7	96	48	2
TAP	4	96	6
TAP	4	96	7
TAP	4	192	0
TAP	4	192	7
TAP	4	240	1
TAP	4	288	0
TAP	4	288	1
STR	5	0	2
SI_	5	0	2	96	48	5
TAP	5	0	6
TAP	5	96	2
TAP	5	96	4
TAP	5	192	2
STR	5	192	6
SI_	5	192	6	96	48	1
TAP	5	288	0
TAP	5	288	6
STR	6	0	2
SI_	6	0	2	96	48	5
TAP	6	0	6
TAP	6	96	2
TAP	6	96	4
TAP	6	192	2
STR	6	192	6
SI_	6	192	6	96	48	1
TAP	6	288	0
TAP	6	288	6
TAP	7	0	2
TAP	7	48	2
TAP	7	48	3
TAP	7	96	5
TAP	7	144	4
TAP	7	144	5
TAP	7	192	2
TAP	7	240	1
TAP	7	240	2
TAP	7	288	5
TAP	7	336	5
TAP	7	336	6
TAP	8	0	2
TAP	8	48	0
TAP	8	48	2
TAP	8	96	5
TAP	8	144	5
TAP	8	144	7
TAP	8	192	0
TAP	8	204	1
TAP	8	216	2
TAP	8	228	3
TAP	8	240	4
TAP	8	252	5
TAP	8	264	6
TAP	8	276	7
BRK	8	288	0
STR	9	0	6
SCL	9	0	6	96	48	3
TAP	9	0	7
TAP	9	72	0
TAP	9	144	1
TAP	9	192	0
STR	9	192	1
SCR	9	192	1	96	48	4
TAP	9	264	7
TAP	9	336	6
STR	10	0	6
SCL	10	0	6	96	48	3
TAP	10	0	7
TAP	10	72	0
TAP	10	144	1
TAP	10	192	0
STR	10	192	1
SCR	10	192	1	96	48	4
TAP	10	264	7
TAP	10	336	6
TAP	11	0	6
STR	11	0	7
SI_	11	0	7	96	48	3
TAP	11	48	6
HLD	11	48	7	96
STR	11	192	0
SI_	11	192	0	96	48	4
TAP	11	192	1
HLD	11	240	0	96
TAP	11	240	1
TAP	12	0	0
STR	12	0	7
SCL	12	0	7	96	48	4
TAP	12	48	0
HLD	12	48	7	96
STR	12	192	0
SCR	12	192	0	96	48	3
TAP	12	192	7
HLD	12	240	0	96
TAP	12	240	7
STR	13	0	6
SCL	13	0	6	96	48	3
TAP	13	0	7
TAP	13	72	0
TAP	13	144	1
TAP	13	192	0
STR	13	192	1
SCR	13	192	1	96	48	4
TAP	13	264	7
TAP	13	336	6
STR	14	0	6
SCL	14	0	6	96	48	3
TAP	14	0	7
TAP	14	72	0
TAP	14	144	1
TAP	14	192	0
STR	14	192	1
SCR	14	192	1	96	48	4
TAP	14	264	7
TAP	14	336	6
TAP	15	0	6
STR	15	0	7
SI_	15	0	7	96	48	3
TAP	15	48	6
HLD	15	48	7	96
STR	15	192	0
SI_	15	192	0	96	48	4
TAP	15	192	1
HLD	15	240	0	96
TAP	15	240	1
TAP	16	0	0
STR	16	0	7
SCL	16	0	7	96	48	4
TAP	16	48	0
HLD	16	48	7	96
TAP	16	192	0
TAP	16	192	7
TAP	16	240	0
TAP	16	240	7
TAP	16	288	2
TAP	16	312	5
TAP	16	336	2
STR	17	0	0
SCL	17	0	0	96	48	5
TAP	17	0	1
TAP	17	72	2
TAP	17	144	3
TAP	17	192	2
STR	17	192	3
SCR	17	192	3	96	48	6
TAP	17	264	1
TAP	17	336	0
STR	18	0	0
SCL	18	0	0	96	48	5
TAP	18	0	1
TAP	18	72	2
TAP	18	144	3
TAP	18	192	2
STR	18	192	3
SCR	18	192	3	96	48	6
TAP	18	264	1
TAP	18	336	0
TAP	19	0	0
STR	19	0	1
SI_	19	0	1	96	48	5
TAP	19	48	0
HLD	19	48	1	96
STR	19	192	2
SI_	19	192	2	96	48	6
TAP	19	192	3
HLD	19	240	2	96
TAP	19	240	3
TAP	20	0	0
STR	20	0	1
SI_	20	0	1	96	48	4
TAP	20	48	0
HLD	20	48	1	96
STR	20	192	2
SI_	20	192	2	96	48	7
TAP	20	192	3
HLD	20	240	2	96
TAP	20	240	3
STR	21	0	4
SCL	21	0	4	96	48	1
TAP	21	0	5
TAP	21	72	6
TAP	21	144	7
TAP	21	192	6
STR	21	192	7
SCR	21	192	7	96	48	2
TAP	21	264	5
TAP	21	336	4
STR	22	0	4
SCL	22	0	4	96	48	1
TAP	22	0	5
TAP	22	72	6
TAP	22	144	7
TAP	22	192	6
STR	22	192	7
SCR	22	192	7	96	48	2
TAP	22	264	5
TAP	22	336	4
TAP	23	0	4
STR	23	0	5
SI_	23	0	5	96	48	1
TAP	23	48	4
HLD	23	48	5	96
STR	23	192	6
SI_	23	192	6	96	48	2
TAP	23	192	7
HLD	23	240	6	96
TAP	23	240	7
TAP	24	0	4
STR	24	0	5
SI_	24	0	5	96	48	0
TAP	24	48	4
HLD	24	48	5	96
STR	24	192	6
SI_	24	192	6	96	48	3
TAP	24	192	7
HLD	24	240	6	96
TAP	24	240	7
TAP	25	0	1
TAP	25	0	2
TAP	25	72	5
TAP	25	72	6
TAP	25	120	0
TAP	25	120	4
TAP	25	168	3
STR	25	168	7
SI_	25	168	7	96	60	3
TAP	25	240	0
TAP	25	240	6
BRK	25	288	7
HLD	26	0	2	96
TAP	26	48	0
HLD	26	96	3	96
TAP	26	144	0
HLD	26	192	2	96
TAP	26	240	0
TAP	26	288	3
TAP	26	336	0
TAP	27	0	5
TAP	27	0	6
TAP	27	72	1
TAP	27	72	2
TAP	27	120	3
TAP	27	120	7
STR	27	168	0
SI_	27	168	0	96	60	4
TAP	27	168	4
TAP	27	240	1
TAP	27	240	7
BRK	27	288	0
HLD	28	0	5	96
TAP	28	48	7
HLD	28	96	4	96
TAP	28	144	7
HLD	28	192	5	96
TAP	28	240	7
TAP	28	288	4
TAP	28	336	7
TAP	29	0	1
TAP	29	0	2
TAP	29	72	5
TAP	29	72	6
TAP	29	120	0
TAP	29	120	4
TAP	29	168	3
STR	29	168	7
SI_	29	168	7	96	60	3
TAP	29	240	0
TAP	29	240	6
BRK	29	288	7
HLD	30	0	1	96
TAP	30	48	3
HLD	30	96	0	96
TAP	30	144	3
HLD	30	192	1	96
TAP	30	240	3
HLD	30	288	0	96
TAP	30	336	3
HLD	31	0	1	72
HLD	31	72	5	72
HLD	31	144	0	72
HLD	31	216	4	72
HLD	31	288	7	72
HLD	31	360	3	72
HLD	32	48	6	72
HLD	32	120	2	72
STR	32	192	5
SI_	32	192	5	96	48	1
TAP	32	240	0
BRK	32	288	7
STR	33	0	7
SUL	33	0	7	96	192	5
STR	34	0	5
SUL	34	0	5	96	192	3
STR	35	0	3
SUL	35	0	3	96	192	1
STR	36	0	1
SUL	36	0	1	96	192	7
STR	37	0	6
SCL	37	0	6	96	192	1
TAP	37	96	7
TAP	37	192	6
TAP	37	288	5
STR	38	0	4
SCL	38	0	4	96	192	7
TAP	38	96	5
TAP	38	192	4
TAP	38	288	3
STR	39	0	2
SCL	39	0	2	96	192	5
TAP	39	96	3
TAP	39	192	2
TAP	39	288	1
TAP	40	0	0
TAP	40	96	7
TAP	40	192	1
TAP	40	192	6
TAP	40	240	1
TAP	40	240	6
TAP	40	288	2
TAP	40	312	5
TAP	40	336	2
STR	41	0	6
SI_	41	0	6	96	48	2
STR	41	96	2
SI_	41	96	2	96	48	6
STR	41	192	6
SI_	41	192	6	96	48	2
TAP	41	240	0
TAP	41	288	0
HLD	42	0	1	72
HLD	42	72	2	72
HLD	42	144	3	144
TAP	42	240	7
TAP	42	288	7
STR	43	0	1
SI_	43	0	1	96	48	5
STR	43	96	5
SI_	43	96	5	96	48	1
STR	43	192	1
SI_	43	192	1	96	48	5
TAP	43	240	7
TAP	43	288	7
HLD	44	0	6	72
HLD	44	72	5	72
HLD	44	144	4	144
TAP	44	240	0
TAP	44	288	0
STR	45	0	6
SCL	45	0	6	96	48	2
STR	45	96	2
SCR	45	96	2	96	48	6
STR	45	192	6
SCL	45	192	6	96	48	2
TAP	45	240	0
TAP	45	288	0
HLD	46	0	1	72
HLD	46	72	2	72
HLD	46	144	3	144
TAP	46	240	7
TAP	46	288	7
STR	47	0	1
SCR	47	0	1	96	48	5
STR	47	96	5
SCL	47	96	5	96	48	1
STR	47	192	1
SCR	47	192	1	96	48	5
TAP	47	240	7
TAP	47	288	7
HLD	48	0	6	72
HLD	48	72	5	72
TAP	48	144	4
BRK	48	288	0
STR	49	0	7
SI_	49	0	7	96	48	3
TAP	49	16	6
TAP	49	32	5
TAP	49	48	4
TAP	49	64	3
STR	49	192	0
SI_	49	192	0	96	48	4
TAP	49	208	1
TAP	49	224	2
TAP	49	240	3
TAP	49	256	4
TAP	50	0	5
TAP	50	24	4
TAP	50	48	6
TAP	50	72	3
TAP	50	96	7
TAP	50	144	0
TAP	50	144	7
TAP	50	192	2
TAP	50	216	3
TAP	50	240	1
TAP	50	264	4
TAP	50	288	0
TAP	50	336	0
TAP	50	336	7
STR	51	0	0
SI_	51	0	0	96	48	4
TAP	51	16	1
TAP	51	32	2
TAP	51	48	3
TAP	51	64	4
STR	51	192	7
SI_	51	192	7	96	48	3
TAP	51	208	6
TAP	51	224	5
TAP	51	240	4
TAP	51	256	3
TAP	52	0	2
TAP	52	0	4
TAP	52	96	0
TAP	52	96	7
TAP	52	128	0
TAP	52	128	7
TAP	52	160	0
TAP	52	160	7
TAP	52	192	1
TAP	52	216	6
TAP	52	240	2
TAP	52	264	5
TAP	52	288	3
TAP	52	312	4
TAP	52	336	3
STR	53	0	6
SI_	53	0	6	96	48	2
TAP	53	0	7
TAP	53	16	5
TAP	53	32	4
TAP	53	48	3
TAP	53	64	2
TAP	53	192	0
STR	53	192	1
SI_	53	192	1	96	48	5
TAP	53	208	2
TAP	53	224	3
TAP	53	240	4
TAP	53	256	5
TAP	54	0	6
TAP	54	24	4
TAP	54	48	5
TAP	54	72	3
TAP	54	96	4
TAP	54	144	0
TAP	54	144	2
TAP	54	192	1
TAP	54	216	3
TAP	54	240	2
TAP	54	264	4
TAP	54	288	3
TAP	54	336	5
TAP	54	336	7
TAP	55	0	0
STR	55	0	2
SI_	55	0	2	96	48	6
TAP	55	16	3
TAP	55	32	4
TAP	55	48	5
TAP	55	64	6
STR	55	192	5
SI_	55	192	5	96	48	1
TAP	55	192	7
TAP	55	208	4
TAP	55	224	3
TAP	55	240	2
TAP	55	256	1
TAP	56	0	0
TAP	56	0	2
TAP	56	96	5
TAP	56	96	7
STR	56	192	0
SI_	56	192	0	96	48	5
STR	56	192	7
SI_	56	192	7	96	48	2
TAP	56	240	1
TAP	56	240	6
BRK	56	288	0
BRK	56	288	7
STR	57	0	4
SCL	57	0	4	96	48	1
TAP	57	0	5
TAP	57	72	6
TAP	57	144	7
TAP	57	192	6
STR	57	192	7
SCR	57	192	7	96	48	2
TAP	57	264	5
TAP	57	336	4
STR	58	0	4
SCL	58	0	4	96	48	1
TAP	58	0	5
TAP	58	72	6
TAP	58	144	7
TAP	58	192	6
STR	58	192	7
SCR	58	192	7	96	48	2
TAP	58	264	5
TAP	58	336	4
STR	59	0	3
SI_	59	0	3	96	48	7
TAP	59	0	4
TAP	59	48	2
HLD	59	48	3	96
TAP	59	192	3
STR	59	192	4
SI_	59	192	4	96	48	0
HLD	59	240	4	96
TAP	59	240	5
STR	60	0	3
SI_	60	0	3	96	48	6
TAP	60	0	4
TAP	60	48	2
HLD	60	48	3	96
TAP	60	192	3
STR	60	192	4
SI_	60	192	4	96	48	1
HLD	60	240	4	96
TAP	60	240	5
TAP	61	0	2
STR	61	0	3
SCR	61	0	3	96	48	6
TAP	61	72	1
TAP	61	144	0
STR	61	192	0
SCL	61	192	0	96	48	5
TAP	61	192	1
TAP	61	264	2
TAP	61	336	3
TAP	62	0	2
STR	62	0	3
SCR	62	0	3	96	48	6
TAP	62	72	1
TAP	62	144	0
STR	62	192	0
SCL	62	192	0	96	48	5
TAP	62	192	1
TAP	62	264	2
TAP	62	336	3
STR	63	0	3
SI_	63	0	3	96	48	7
TAP	63	0	4
TAP	63	48	2
HLD	63	48	3	96
TAP	63	192	3
STR	63	192	4
SI_	63	192	4	96	48	0
HLD	63	240	4	96
TAP	63	240	5
STR	64	0	3
SI_	64	0	3	96	48	6
TAP	64	0	4
TAP	64	48	2
HLD	64	48	3	96
TAP	64	192	3
STR	64	192	4
SI_	64	192	4	96	48	1
HLD	64	240	4	96
TAP	64	240	5
HLD	65	0	0	48
HLD	65	0	7	48
TAP	65	72	2
TAP	65	72	5
TAP	65	120	1
TAP	65	120	3
TAP	65	168	4
STR	65	168	6
SI_	65	168	6	96	60	2
TAP	65	240	5
TAP	65	240	7
BRK	65	288	6
HLD	66	0	0	48
HLD	66	0	7	48
TAP	66	72	2
TAP	66	72	5
TAP	66	120	4
TAP	66	120	6
STR	66	168	1
SI_	66	168	1	96	60	5
TAP	66	168	3
TAP	66	240	0
TAP	66	240	2
BRK	66	288	1
HLD	67	0	0	48
HLD	67	0	7	48
TAP	67	72	1
TAP	67	72	6
TAP	67	120	0
TAP	67	120	2
STR	67	168	5
SI_	67	168	5	96	60	1
TAP	67	168	7
TAP	67	240	4
TAP	67	240	6
BRK	67	288	5
HLD	68	0	0	48
HLD	68	0	7	48
STR	68	72	1
SI_	68	72	1	96	48	4
STR	68	72	6
SI_	68	72	6	96	48	3
TAP	68	120	2
TAP	68	120	5
BRK	68	168	1
BRK	68	168	6

T_REC_TAP	372
T_REC_BRK	13
T_REC_XTP	0
T_REC_HLD	60
T_REC_XHO	0
T_REC_STR	96
T_REC_BST	0
T_REC_XST	0
T_REC_TTP	0
T_REC_THO	0
T_REC_SLD	96
T_REC_ALL	637
T_NUM_TAP	468
T_NUM_BRK	13
T_NUM_HLD	60
T_NUM_SLD	96
T_NUM_ALL	637
T_JUDGE_TAP	481
T_JUDGE_HLD	115
T_JUDGE_SLD	96
T_JUDGE_ALL	692
TTM_EACHPAIRS	155
TTM_SCR_TAP	234000
TTM_SCR_BRK	33800
TTM_SCR_HLD	60000
TTM_SCR_SLD	144000
TTM_SCR_ALL	471800
TTM_SCR_S	456400
TTM_SCR_SS	470500
TTM_RAT_ACV	10027

