VERSION	0.00.00	1.03.00
FES_MODE	0
BPM_DEF	145.000	145.000	145.000	145.000
MET_DEF	4	4
RESOLUTION	384
CLK_DEF	384
COMPATIBLE_CODE	MA2

BPM	0	0	145.000

TAP	1	0	2
TAP	1	96	3
TAP	1	192	5
TAP	1	288	4
TAP	2	0	1
TAP	2	96	3
TAP	2	192	6
TAP	2	288	4
TAP	3	0	0
TAP	3	96	3
TAP	3	192	7
TAP	3	288	4
TAP	4	0	1
TAP	4	0	2
TAP	4	96	5
TAP	4	96	6
TAP	4	192	3
TAP	4	192	4
TAP	4	288	0
TAP	4	288	7
TAP	5	0	1
TAP	5	96	2
TAP	5	96	3
TAP	5	192	6
TAP	5	288	4
TAP	5	288	5
TAP	6	0	0
TAP	6	96	2
TAP	6	96	3
TAP	6	192	7
TAP	6	288	4
TAP	6	288	5
TAP	7	0	0
TAP	7	96	2
TAP	7	96	4
TAP	7	192	7
TAP	7	288	3
TAP	7	288	5
STR	8	0	0
SXL	8	0	0	96	192	3
STR	8	0	7
SXR	8	0	7	96	192	4
TAP	9	0	2
TAP	9	0	4
TAP	9	72	3
TAP	9	72	5
TAP	9	144	5
TAP	9	144	6
TAP	9	192	3
TAP	9	192	5
TAP	9	264	2
TAP	9	264	4
TAP	9	336	1
TAP	9	336	2
TAP	10	0	2
TAP	10	0	4
TAP	10	72	3
TAP	10	72	5
TAP	10	144	5
TAP	10	144	6
TAP	10	192	3
TAP	10	192	5
TAP	10	264	2
TAP	10	264	4
TAP	10	336	1
TAP	10	336	2
TAP	11	0	5
TAP	11	0	7
TAP	11	72	0
TAP	11	72	2
TAP	11	144	3
TAP	11	144	4
STR	11	192	2
SI_	11	192	2	96	48	6
STR	11	192	5
SI_	11	192	5	96	48	1
TAP	12	0	4
TAP	12	0	5
TAP	12	96	2
TAP	12	96	3
TAP	12	192	3
TAP	12	192	4
TAP	12	288	1
TAP	12	288	6
TAP	13	0	5
TAP	13	0	6
TAP	13	72	3
TAP	13	72	5
TAP	13	144	1
TAP	13	144	3
TAP	13	192	1
TAP	13	192	2
TAP	13	264	2
TAP	13	264	4
TAP	13	336	4
TAP	13	336	6
TAP	14	0	5
TAP	14	0	6
TAP	14	72	3
TAP	14	72	5
TAP	14	144	1
TAP	14	144	3
TAP	14	192	1
TAP	14	192	2
TAP	14	264	2
TAP	14	264	4
TAP	14	336	4
TAP	14	336	6
TAP	15	0	1
TAP	15	0	3
TAP	15	72	4
TAP	15	72	6
TAP	15	144	2
TAP	15	144	3
STR	15	192	4
SI_	15	192	4	96	48	1
STR	15	192	5
SI_	15	192	5	96	48	0
STR	16	0	2
SI_	16	0	2	96	48	7
STR	16	96	3
SI_	16	96	3	96	48	6
STR	16	192	1
SI_	16	192	1	96	48	4
TAP	17	0	0
TAP	17	0	6
TAP	17	72	1
TAP	17	72	7
TAP	17	144	1
TAP	17	144	2
TAP	17	192	1
TAP	17	192	7
TAP	17	264	0
TAP	17	264	6
TAP	17	336	5
TAP	17	336	6
TAP	18	0	0
TAP	18	0	6
TAP	18	72	1
TAP	18	72	7
TAP	18	144	1
TAP	18	144	2
TAP	18	192	1
TAP	18	192	7
TAP	18	264	0
TAP	18	264	6
TAP	18	336	5
TAP	18	336	6
HLD	19	0	1	72
TAP	19	0	3
TAP	19	72	0
TAP	19	144	2
TAP	19	144	7
TAP	19	192	4
HLD	19	192	6	72
TAP	19	264	7
TAP	19	336	0
TAP	19	336	5
HLD	20	0	1	72
TAP	20	0	3
TAP	20	72	0
TAP	20	144	2
TAP	20	144	7
TAP	20	192	4
HLD	20	192	6	72
TAP	20	264	7
TAP	20	336	0
TAP	20	336	5
TAP	21	0	1
TAP	21	0	2
TAP	21	72	1
TAP	21	72	7
TAP	21	144	5
TAP	21	144	7
TAP	21	192	5
TAP	21	192	6
TAP	21	264	0
TAP	21	264	6
TAP	21	336	0
TAP	21	336	2
TAP	22	0	1
TAP	22	0	2
TAP	22	72	1
TAP	22	72	7
TAP	22	144	5
TAP	22	144	7
TAP	22	192	5
TAP	22	192	6
TAP	22	264	0
TAP	22	264	6
TAP	22	336	0
TAP	22	336	2
TAP	23	0	4
TAP	23	0	6
TAP	23	72	1
TAP	23	72	3
TAP	23	144	4
TAP	23	144	5
STR	23	192	2
SI_	23	192	2	96	48	7
STR	23	192	3
SI_	23	192	3	96	48	6
STR	24	0	5
SI_	24	0	5	96	48	0
STR	24	96	4
SI_	24	96	4	96	48	1
STR	24	192	6
SI_	24	192	6	96	48	3
HLD	25	0	1	168
TAP	25	72	0
TAP	25	120	0
STR	25	168	0
SCL	25	168	0	96	48	5
STR	26	0	3
SCL	26	0	3	96	48	0
STR	26	96	7
SCL	26	96	7	96	48	4
STR	26	192	3
SUR	26	192	3	96	96	4
HLD	27	0	6	168
TAP	27	72	7
TAP	27	120	7
STR	27	168	7
SCR	27	168	7	96	48	2
STR	28	0	4
SCR	28	0	4	96	48	7
STR	28	96	0
SCR	28	96	0	96	48	3
STR	28	192	4
SUL	28	192	4	96	96	3
HLD	29	0	1	168
TAP	29	72	0
TAP	29	120	0
STR	29	168	0
SCL	29	168	0	96	48	5
STR	30	0	3
SCL	30	0	3	96	48	0
STR	30	96	7
SCL	30	96	7	96	48	4
STR	30	192	3
SUR	30	192	3	96	96	4
STR	31	0	7
SCL	31	0	7	96	48	4
STR	31	96	3
SCL	31	96	3	96	48	0
STR	31	192	6
SCL	31	192	6	96	48	3
STR	31	288	2
SCL	31	288	2	96	48	7
STR	32	0	5
SCL	32	0	5	96	48	2
STR	32	96	1
SCL	32	96	1	96	48	6
STR	32	192	4
SUL	32	192	4	96	96	3
TAP	33	0	1
TAP	33	48	2
TAP	33	96	3
TAP	33	144	4
HLD	33	192	5	72
HLD	33	264	6	72
TAP	33	336	7
HLD	34	0	0	72
HLD	34	72	1	72
TAP	34	144	0
TAP	34	240	2
TAP	34	240	7
TAP	34	288	3
TAP	34	288	6
TAP	34	336	4
TAP	34	336	5
HLD	35	0	2	72
HLD	35	72	1	72
TAP	35	144	0
STR	35	240	2
SI_	35	240	2	96	48	6
STR	35	240	7
SI_	35	240	7	96	48	3
TAP	36	48	5
TAP	36	96	4
TAP	36	144	5
TAP	36	192	2
TAP	36	240	3
TAP	36	288	2
TAP	36	336	0
TAP	36	336	7
TAP	37	0	6
TAP	37	48	5
TAP	37	96	4
TAP	37	144	3
HLD	37	192	2	72
HLD	37	264	1	72
TAP	37	336	0
HLD	38	0	7	72
HLD	38	72	6	72
TAP	38	144	7
TAP	38	240	0
TAP	38	240	5
TAP	38	288	1
TAP	38	288	4
TAP	38	336	2
TAP	38	336	3
HLD	39	0	5	72
TAP	39	72	4
TAP	39	120	3
TAP	39	120	4
TAP	39	168	3
TAP	39	168	4
TAP	39	216	2
TAP	39	216	5
TAP	39	264	2
TAP	39	264	5
TAP	39	312	1
TAP	39	312	6
TAP	39	360	1
TAP	39	360	6
TAP	40	24	0
TAP	40	48	7
TAP	40	72	0
TAP	40	96	7
TAP	40	120	1
TAP	40	144	6
TAP	40	168	1
TAP	40	192	6
TAP	40	216	2
TAP	40	240	5
TAP	40	264	2
TAP	40	288	5
TAP	40	312	3
TAP	40	336	4
TAP	40	360	3
STR	41	0	4
SI_	41	0	4	96	48	6
STR	41	96	3
SI_	41	96	3	96	48	0
STR	41	192	4
SI_	41	192	4	96	48	7
STR	41	288	3
SI_	41	288	3	96	48	1
STR	42	0	4
SCR	42	0	4	96	144	3
STR	43	0	2
SCL	43	0	2	96	48	7
STR	43	0	6
SCL	43	0	6	96	48	3
STR	43	192	1
SCR	43	192	1	96	48	4
STR	43	192	5
SCR	43	192	5	96	48	0
HLD	44	0	2	72
TAP	44	0	6
HLD	44	72	1	72
STR	44	144	0
SUR	44	144	0	96	48	5
STR	45	0	3
SI_	45	0	3	96	48	1
STR	45	96	4
SI_	45	96	4	96	48	7
STR	45	192	3
SI_	45	192	3	96	48	0
STR	45	288	4
SI_	45	288	4	96	48	6
STR	46	0	3
SCL	46	0	3	96	144	4
STR	47	0	1
SCR	47	0	1	96	48	4
STR	47	0	5
SCR	47	0	5	96	48	0
STR	47	192	2
SCL	47	192	2	96	48	7
STR	47	192	6
SCL	47	192	6	96	48	3
TAP	48	0	1
HLD	48	0	5	72
HLD	48	72	6	72
BST	48	144	7
SUL	48	144	7	96	48	2
TAP	49	0	2
TAP	49	48	3
TAP	49	96	2
TAP	49	144	1
TAP	49	144	4
TAP	49	192	5
TAP	49	240	4
TAP	49	288	5
TAP	49	336	3
TAP	49	336	6
STR	50	0	2
SI_	50	0	2	96	48	5
SI_	50	0	2	96	48	7
STR	50	192	0
SI_	50	192	0	96	48	3
STR	50	192	6
SI_	50	192	6	96	48	3
TAP	51	0	6
TAP	51	48	7
TAP	51	96	6
TAP	51	144	0
TAP	51	144	5
TAP	51	192	1
TAP	51	240	0
TAP	51	288	1
TAP	51	336	2
TAP	51	336	7
TAP	52	0	3
TAP	52	0	4
TAP	52	96	0
TAP	52	96	7
TAP	52	128	0
TAP	52	128	7
TAP	52	160	0
TAP	52	160	7
BST	52	192	0
SI_	52	192	0	96	48	4
BST	52	192	7
SI_	52	192	7	96	48	3
TAP	53	0	5
TAP	53	48	4
TAP	53	96	5
TAP	53	144	3
TAP	53	144	6
TAP	53	192	2
TAP	53	240	3
TAP	53	288	2
TAP	53	336	1
TAP	53	336	4
STR	54	0	5
SI_	54	0	5	96	48	0
SI_	54	0	5	96	48	2
STR	54	192	1
SI_	54	192	1	96	48	4
STR	54	192	7
SI_	54	192	7	96	48	4
TAP	55	0	1
TAP	55	48	0
TAP	55	96	1
TAP	55	144	2
TAP	55	144	7
TAP	55	192	6
TAP	55	240	7
TAP	55	288	6
TAP	55	336	0
TAP	55	336	5
STR	56	0	3
SXR	56	0	3	96	192	0
STR	56	0	4
SXL	56	0	4	96	192	7
HLD	57	0	5	48
HLD	57	0	6	48
HLD	57	72	0	48
HLD	57	72	6	48
TAP	57	144	0
TAP	57	144	1
HLD	57	192	1	48
HLD	57	192	2	48
HLD	57	264	1	48
HLD	57	264	7	48
TAP	57	336	6
TAP	57	336	7
HLD	58	0	5	48
HLD	58	0	6	48
HLD	58	72	0	48
HLD	58	72	6	48
TAP	58	144	0
TAP	58	144	1
HLD	58	192	1	48
HLD	58	192	2	48
HLD	58	264	1	48
HLD	58	264	7	48
TAP	58	336	6
TAP	58	336	7
TAP	59	0	4
TAP	59	0	6
TAP	59	72	1
TAP	59	72	3
TAP	59	144	6
TAP	59	144	7
STR	59	192	0
SI_	59	192	0	96	48	5
STR	59	192	1
SI_	59	192	1	96	48	4
STR	60	0	6
SI_	60	0	6	96	48	3
STR	60	96	7
SI_	60	96	7	96	48	2
STR	60	192	5
SI_	60	192	5	96	48	0
TAP	60	288	4
HLD	61	0	5	48
HLD	61	0	7	48
HLD	61	72	1	48
HLD	61	72	7	48
TAP	61	144	1
TAP	61	144	3
HLD	61	192	0	48
HLD	61	192	2	48
HLD	61	264	0	48
HLD	61	264	6	48
TAP	61	336	4
TAP	61	336	6
HLD	62	0	5	48
HLD	62	0	7	48
HLD	62	72	1	48
HLD	62	72	7	48
TAP	62	144	1
TAP	62	144	3
HLD	62	192	0	48
HLD	62	192	2	48
HLD	62	264	0	48
HLD	62	264	6	48
TAP	62	336	4
TAP	62	336	6
TAP	63	0	1
TAP	63	0	3
TAP	63	72	4
TAP	63	72	6
TAP	63	144	0
TAP	63	144	1
STR	63	192	6
SI_	63	192	6	96	48	3
STR	63	192	7
SI_	63	192	7	96	48	2
STR	64	0	1
SI_	64	0	1	96	48	4
STR	64	96	0
SI_	64	96	0	96	48	5
STR	64	192	2
SI_	64	192	2	96	48	7
TAP	64	288	3
TAP	65	0	0
HLD	65	0	6	72
TAP	65	72	4
TAP	65	120	2
TAP	65	120	4
TAP	65	168	2
STR	65	168	4
SI_	65	168	4	96	48	0
HLD	66	0	1	72
TAP	66	0	7
TAP	66	72	3
TAP	66	120	3
TAP	66	120	5
STR	66	168	3
SI_	66	168	3	96	48	7
TAP	66	168	5
TAP	67	0	0
HLD	67	0	6	72
TAP	67	72	4
TAP	67	120	2
TAP	67	120	4
TAP	67	168	2
STR	67	168	4
SI_	67	168	4	96	48	0
HLD	68	0	1	72
TAP	68	0	7
TAP	68	72	3
TAP	68	120	3
TAP	68	120	5
BST	68	168	3
SCL	68	168	3	96	504	4
BRK	68	168	5

T_REC_TAP	342
T_REC_BRK	1
T_REC_XTP	0
T_REC_HLD	58
T_REC_XHO	0
T_REC_STR	75
T_REC_BST	4
T_REC_XST	0
T_REC_TTP	0
T_REC_THO	0
T_REC_SLD	81
T_REC_ALL	561
T_NUM_TAP	417
T_NUM_BRK	5
T_NUM_HLD	58
T_NUM_SLD	81
T_NUM_ALL	561
T_JUDGE_TAP	422
T_JUDGE_HLD	90
T_JUDGE_SLD	81
T_JUDGE_ALL	593
TTM_EACHPAIRS	163
TTM_SCR_TAP	208500
TTM_SCR_BRK	13000
TTM_SCR_HLD	58000
TTM_SCR_SLD	121500
TTM_SCR_ALL	401000
TTM_SCR_S	388500
TTM_SCR_SS	400500
TTM_RAT_ACV	10012

