VERSION	0.00.00	1.03.00
FES_MODE	0
BPM_DEF	145.000	145.000	145.000	145.000
MET_DEF	4	4
RESOLUTION	384
CLK_DEF	384
COMPATIBLE_CODE	MA2

BPM	0	0	145.000

TAP	1	0	2
TAP	1	96	2
TAP	1	192	3
TAP	1	288	3
TAP	2	0	4
TAP	2	96	5
TAP	2	192	3
TAP	2	192	6
TAP	3	0	5
TAP	3	96	5
TAP	3	192	4
TAP	3	288	4
TAP	4	0	3
TAP	4	96	2
TAP	4	192	1
TAP	4	192	4
TAP	5	0	2
TAP	5	96	2
TAP	5	192	3
TAP	5	288	3
TAP	6	0	4
TAP	6	96	4
TAP	6	192	5
STR	6	288	5
SCR	6	288	5	96	288	2
TAP	8	0	3
TAP	8	0	4
TAP	8	96	2
TAP	8	96	5
TAP	8	192	1
TAP	8	192	6
BRK	8	288	0
BRK	8	288	7
TAP	9	0	1
TAP	9	96	3
TAP	9	96	4
TAP	9	192	6
TAP	9	288	3
TAP	9	288	4
TAP	10	0	1
TAP	10	96	3
TAP	10	96	4
TAP	10	192	6
TAP	10	288	3
TAP	10	288	4
TAP	11	0	1
TAP	11	96	0
TAP	11	96	7
TAP	11	192	6
TAP	11	288	0
TAP	11	288	7
TAP	12	0	1
TAP	12	96	4
TAP	12	192	3
TAP	12	288	1
TAP	12	288	6
TAP	13	0	5
TAP	13	96	0
TAP	13	96	7
TAP	13	192	2
TAP	13	288	0
TAP	13	288	7
TAP	14	0	5
TAP	14	96	0
TAP	14	96	7
TAP	14	192	2
TAP	14	288	0
TAP	14	288	7
TAP	15	0	5
TAP	15	96	3
TAP	15	96	4
TAP	15	192	2
TAP	15	288	3
TAP	15	288	4
TAP	16	0	5
TAP	16	96	0
TAP	16	192	7
TAP	16	288	2
TAP	16	288	5
TAP	17	0	1
TAP	17	96	4
TAP	17	96	5
TAP	17	192	6
TAP	17	288	2
TAP	17	288	3
TAP	18	0	1
TAP	18	96	4
TAP	18	96	5
TAP	18	192	6
TAP	18	288	2
TAP	18	288	3
TAP	19	0	0
TAP	19	96	4
TAP	19	96	5
TAP	19	192	7
TAP	19	288	2
TAP	19	288	3
TAP	20	0	0
TAP	20	96	2
TAP	20	192	4
TAP	20	288	0
TAP	20	288	5
TAP	21	0	6
TAP	21	96	2
TAP	21	96	3
TAP	21	192	1
TAP	21	288	4
TAP	21	288	5
TAP	22	0	6
TAP	22	96	2
TAP	22	96	3
TAP	22	192	1
TAP	22	288	4
TAP	22	288	5
TAP	23	0	7
TAP	23	96	2
TAP	23	96	3
TAP	23	192	0
TAP	23	288	4
TAP	23	288	5
TAP	24	0	7
TAP	24	96	5
TAP	24	192	3
TAP	24	288	2
TAP	24	288	7
TAP	25	0	0
TAP	25	0	1
STR	25	96	2
SI_	25	96	2	96	96	7
STR	25	96	3
SI_	25	96	3	96	96	6
TAP	26	0	5
TAP	26	96	6
TAP	26	192	7
TAP	26	288	0
TAP	26	288	5
TAP	27	0	6
TAP	27	0	7
STR	27	96	4
SI_	27	96	4	96	96	1
STR	27	96	5
SI_	27	96	5	96	96	0
TAP	28	0	2
TAP	28	96	1
TAP	28	192	0
TAP	28	288	2
TAP	28	288	7
TAP	29	0	0
TAP	29	0	5
STR	29	96	1
SI_	29	96	1	96	96	4
STR	29	96	6
SI_	29	96	6	96	96	3
TAP	30	0	2
TAP	30	96	3
TAP	30	192	4
TAP	30	288	2
TAP	30	288	5
STR	31	0	1
SXR	31	0	1	96	384	6
TAP	32	192	0
TAP	32	192	7
BRK	32	288	1
BRK	32	288	6
HLD	33	0	2	192
HLD	33	192	3	192
HLD	34	0	4	384
HLD	35	0	5	192
HLD	35	192	4	192
HLD	36	0	3	384
HLD	37	0	1	192
HLD	37	192	3	192
HLD	38	0	4	384
HLD	39	0	6	192
HLD	39	192	4	192
HLD	40	0	3	192
TAP	40	192	1
TAP	41	0	2
TAP	41	0	3
TAP	41	96	2
TAP	41	96	3
TAP	41	192	4
TAP	41	192	5
TAP	41	288	4
TAP	41	288	5
TAP	42	0	3
TAP	42	96	2
TAP	42	192	1
TAP	42	192	4
TAP	43	0	4
TAP	43	0	5
TAP	43	96	4
TAP	43	96	5
TAP	43	192	2
TAP	43	192	3
TAP	43	288	2
TAP	43	288	3
TAP	44	0	4
TAP	44	96	5
TAP	44	192	3
TAP	44	192	6
TAP	45	0	0
TAP	45	0	7
TAP	45	96	0
TAP	45	96	7
TAP	45	192	4
TAP	45	192	5
TAP	45	288	4
TAP	45	288	5
TAP	46	0	3
TAP	46	96	2
TAP	46	192	1
TAP	46	192	4
TAP	47	0	0
TAP	47	0	7
TAP	47	96	0
TAP	47	96	7
TAP	47	192	2
TAP	47	192	3
TAP	47	288	2
TAP	47	288	3
STR	48	0	4
SI_	48	0	4	96	96	0
TAP	49	0	1
TAP	49	96	3
TAP	49	192	2
TAP	49	288	4
TAP	50	0	3
TAP	50	96	5
TAP	50	192	4
TAP	50	192	6
TAP	51	0	5
TAP	51	96	7
TAP	51	192	6
TAP	51	288	0
TAP	52	0	7
STR	52	96	1
SI_	52	96	1	96	96	5
TAP	53	0	6
TAP	53	96	4
TAP	53	192	5
TAP	53	288	3
TAP	54	0	4
TAP	54	96	2
TAP	54	192	1
TAP	54	192	3
TAP	55	0	2
TAP	55	96	0
TAP	55	192	1
TAP	55	288	7
TAP	56	0	0
STR	56	96	6
SI_	56	96	6	96	96	2
TAP	57	0	1
TAP	57	96	4
TAP	57	96	5
TAP	57	192	6
TAP	57	288	2
TAP	57	288	3
TAP	58	0	1
TAP	58	96	4
TAP	58	96	5
TAP	58	192	6
TAP	58	288	2
TAP	58	288	3
TAP	59	0	0
TAP	59	96	4
TAP	59	96	5
TAP	59	192	7
TAP	59	288	2
TAP	59	288	3
TAP	60	0	0
TAP	60	96	7
TAP	60	192	6
TAP	60	288	0
TAP	60	288	5
TAP	61	0	6
TAP	61	96	2
TAP	61	96	3
TAP	61	192	1
TAP	61	288	4
TAP	61	288	5
TAP	62	0	6
TAP	62	96	2
TAP	62	96	3
TAP	62	192	1
TAP	62	288	4
TAP	62	288	5
TAP	63	0	7
TAP	63	96	2
TAP	63	96	3
TAP	63	192	0
TAP	63	288	4
TAP	63	288	5
TAP	64	0	7
TAP	64	96	0
TAP	64	192	1
TAP	64	288	2
TAP	64	288	7
TAP	65	0	3
TAP	65	0	6
STR	65	96	1
SCR	65	96	1	96	72	3
STR	65	96	4
SCR	65	96	4	96	72	6
TAP	66	0	1
TAP	66	0	4
STR	66	96	3
SCL	66	96	3	96	72	1
STR	66	96	6
SCL	66	96	6	96	72	4
TAP	67	0	2
TAP	67	0	5
STR	67	96	0
SCR	67	96	0	96	72	2
STR	67	96	7
SCL	67	96	7	96	72	5
TAP	68	0	1
TAP	68	0	6
STR	68	96	3
SCL	68	96	3	96	144	0
STR	68	96	4
SCR	68	96	4	96	144	7

T_REC_TAP	269
T_REC_BRK	4
T_REC_XTP	0
T_REC_HLD	12
T_REC_XHO	0
T_REC_STR	19
T_REC_BST	0
T_REC_XST	0
T_REC_TTP	0
T_REC_THO	0
T_REC_SLD	19
T_REC_ALL	323
T_NUM_TAP	288
T_NUM_BRK	4
T_NUM_HLD	12
T_NUM_SLD	19
T_NUM_ALL	323
T_JUDGE_TAP	292
T_JUDGE_HLD	60
T_JUDGE_SLD	19
T_JUDGE_ALL	371
TTM_EACHPAIRS	88
TTM_SCR_TAP	144000
TTM_SCR_BRK	10400
TTM_SCR_HLD	12000
TTM_SCR_SLD	28500
TTM_SCR_ALL	194900
TTM_SCR_S	188700
TTM_SCR_SS	194500
TTM_RAT_ACV	10020

