VERSION	0.00.00	1.03.00
FES_MODE	0
BPM_DEF	145.000	145.000	145.000	145.000
MET_DEF	4	4
RESOLUTION	384
CLK_DEF	384
COMPATIBLE_CODE	MA2

BPM	0	0	145.000

TAP	1	0	3
TAP	1	96	3
TAP	1	192	3
TAP	2	0	4
TAP	2	96	4
TAP	2	192	4
TAP	3	0	2
TAP	3	96	2
TAP	3	192	2
TAP	4	0	5
TAP	4	96	5
TAP	4	192	5
TAP	5	0	2
TAP	5	0	3
TAP	5	96	2
TAP	5	96	3
TAP	5	192	2
TAP	5	192	3
TAP	6	0	4
TAP	6	0	5
TAP	6	96	4
TAP	6	96	5
TAP	6	192	4
TAP	6	192	5
TAP	7	0	3
TAP	7	0	4
TAP	7	96	3
TAP	7	96	4
TAP	7	192	2
TAP	7	192	5
TAP	7	288	2
TAP	7	288	5
TAP	8	0	1
TAP	8	0	6
TAP	8	96	1
TAP	8	96	6
TAP	8	192	0
TAP	8	192	7
BRK	8	288	0
BRK	8	288	7
TAP	9	0	0
TAP	9	96	0
TAP	9	192	1
TAP	9	288	1
TAP	10	0	2
TAP	10	96	2
TAP	10	192	3
TAP	10	288	3
STR	11	0	4
SI_	11	0	4	96	288	7
TAP	13	0	7
TAP	13	96	7
TAP	13	192	6
TAP	13	288	6
TAP	14	0	5
TAP	14	96	5
TAP	14	192	4
TAP	14	288	4
STR	15	0	3
SI_	15	0	3	96	288	0
TAP	17	0	0
TAP	17	96	0
TAP	17	192	1
TAP	17	288	1
TAP	18	0	2
TAP	18	96	2
TAP	18	192	3
TAP	18	288	3
STR	19	0	4
SI_	19	0	4	96	288	7
TAP	21	0	7
TAP	21	96	7
TAP	21	192	6
TAP	21	288	6
TAP	22	0	5
TAP	22	96	5
TAP	22	192	4
TAP	22	288	4
STR	23	0	3
SI_	23	0	3	96	288	0
HLD	25	0	6	192
HLD	25	0	7	192
TAP	26	0	7
TAP	26	96	7
TAP	26	192	6
TAP	26	288	6
HLD	27	0	4	192
HLD	27	0	5	192
TAP	28	0	5
TAP	28	96	5
TAP	28	192	4
TAP	28	288	4
HLD	29	0	2	192
HLD	29	0	3	192
TAP	30	0	3
TAP	30	96	3
TAP	30	192	2
TAP	30	288	2
TAP	31	0	0
TAP	31	0	1
TAP	31	192	0
TAP	31	192	1
TAP	32	0	0
TAP	32	96	0
TAP	32	192	7
TAP	32	288	7
STR	33	0	0
SI_	33	0	0	96	288	4
STR	35	0	7
SI_	35	0	7	96	288	3
STR	37	0	1
SI_	37	0	1	96	288	4
STR	39	0	6
SI_	39	0	6	96	288	3
TAP	41	0	0
TAP	41	192	0
TAP	42	0	0
TAP	42	96	0
TAP	42	192	0
TAP	43	0	7
TAP	43	192	7
TAP	44	0	7
TAP	44	96	7
TAP	44	192	7
TAP	45	0	6
TAP	45	192	6
TAP	46	0	6
TAP	46	96	6
TAP	46	192	6
TAP	47	0	5
TAP	47	192	5
TAP	48	0	5
TAP	48	96	5
BRK	48	192	5
TAP	49	0	4
TAP	49	96	4
TAP	49	192	4
TAP	50	0	3
TAP	50	96	3
TAP	50	192	3
TAP	51	0	2
TAP	51	96	2
TAP	51	192	2
TAP	52	0	1
TAP	52	96	1
TAP	52	192	1
TAP	53	0	0
TAP	53	96	0
TAP	53	192	0
TAP	54	0	7
TAP	54	96	7
TAP	54	192	7
TAP	55	0	6
TAP	55	96	6
TAP	55	192	6
TAP	56	0	5
TAP	56	96	5
TAP	56	192	4
TAP	56	192	5
TAP	57	0	3
TAP	57	96	3
TAP	57	192	2
TAP	57	288	2
TAP	58	0	1
TAP	58	96	1
TAP	58	192	0
TAP	58	288	0
STR	59	0	7
SI_	59	0	7	96	288	4
TAP	61	0	4
TAP	61	96	4
TAP	61	192	5
TAP	61	288	5
TAP	62	0	6
TAP	62	96	6
TAP	62	192	7
TAP	62	288	7
STR	63	0	0
SI_	63	0	0	96	288	3
TAP	65	0	3
TAP	65	96	3
TAP	65	192	3
TAP	66	0	2
TAP	66	96	2
TAP	66	192	2
TAP	67	0	1
TAP	67	96	1
TAP	67	192	1
TAP	68	0	0
TAP	68	0	7
TAP	68	96	0
TAP	68	96	7
BRK	68	192	0
BRK	68	192	7

T_REC_TAP	163
T_REC_BRK	5
T_REC_XTP	0
T_REC_HLD	6
T_REC_XHO	0
T_REC_STR	10
T_REC_BST	0
T_REC_XST	0
T_REC_TTP	0
T_REC_THO	0
T_REC_SLD	10
T_REC_ALL	194
T_NUM_TAP	173
T_NUM_BRK	5
T_NUM_HLD	6
T_NUM_SLD	10
T_NUM_ALL	194
T_JUDGE_TAP	178
T_JUDGE_HLD	24
T_JUDGE_SLD	10
T_JUDGE_ALL	212
TTM_EACHPAIRS	23
TTM_SCR_TAP	86500
TTM_SCR_BRK	13000
TTM_SCR_HLD	6000
TTM_SCR_SLD	15000
TTM_SCR_ALL	120500
TTM_SCR_S	116400
TTM_SCR_SS	120000
TTM_RAT_ACV	10041

