VERSION	0.00.00	1.03.00
FES_MODE	0
BPM_DEF	185.000	185.000	185.000	185.000
MET_DEF	4	4
RESOLUTION	384
CLK_DEF	384
COMPATIBLE_CODE	MA2

BPM	0	0	185.000
MET	0	0	4	4

TAP	1	0	2
TAP	1	48	3
TAP	1	72	2
TAP	1	144	2
TAP	1	144	3
TAP	1	192	2
TAP	1	240	3
TAP	1	264	2
TAP	1	336	3
TAP	1	336	4
TAP	2	0	5
TAP	2	48	4
TAP	2	72	5
TAP	2	144	4
TAP	2	144	5
TAP	2	192	5
TAP	2	240	4
TAP	2	264	5
TAP	2	336	3
TAP	2	336	4
TAP	3	0	1
TAP	3	48	3
TAP	3	72	1
TAP	3	144	2
TAP	3	144	3
TAP	3	192	1
TAP	3	240	3
TAP	3	264	1
TAP	3	336	3
TAP	3	336	4
TAP	4	0	6
TAP	4	48	4
TAP	4	72	6
TAP	4	144	4
TAP	4	144	5
TAP	4	192	6
TAP	4	216	5
TAP	4	240	4
TAP	4	264	3
TAP	4	288	2
TAP	4	312	1
TAP	4	336	0
TAP	4	360	7
TAP	5	0	1
TAP	5	48	0
TAP	5	72	1
TAP	5	144	0
TAP	5	144	1
TAP	5	192	1
TAP	5	240	0
TAP	5	264	1
TAP	5	336	0
TAP	5	336	7
TAP	6	0	6
TAP	6	48	7
TAP	6	72	6
TAP	6	144	6
TAP	6	144	7
TAP	6	192	6
TAP	6	240	7
TAP	6	264	6
TAP	6	336	0
TAP	6	336	7
TAP	7	0	0
TAP	7	24	7
TAP	7	48	0
TAP	7	72	7
TAP	7	96	1
TAP	7	120	6
TAP	7	144	1
TAP	7	168	6
TAP	7	192	2
TAP	7	216	5
TAP	7	240	2
TAP	7	264	5
TAP	7	288	3
TAP	7	312	4
TAP	7	336	3
TAP	7	360	4
TAP	8	0	3
TAP	8	12	4
TAP	8	24	5
TAP	8	36	6
TAP	8	48	7
TAP	8	60	0
TAP	8	72	1
TAP	8	84	2
TAP	8	96	3
TAP	8	108	4
TAP	8	120	5
TAP	8	132	6
TAP	8	144	7
TAP	8	156	0
TAP	8	168	1
TAP	8	180	2
STR	8	192	3
SI_	8	192	3	96	48	0
STR	8	192	4
SI_	8	192	4	96	48	7
BRK	8	288	3
BRK	8	288	4
STR	9	0	0
SI_	9	0	0	96	48	4
TAP	9	0	6
TAP	9	96	0
TAP	9	144	7
TAP	9	192	1
STR	9	192	7
SI_	9	192	7	96	48	3
TAP	9	288	7
TAP	9	336	0
TAP	10	0	0
TAP	10	0	5
TAP	10	48	6
TAP	10	72	7
TAP	10	96	6
TAP	10	144	1
TAP	10	168	0
TAP	10	192	1
TAP	10	240	3
TAP	10	288	5
TAP	10	336	7
STR	11	0	1
SCR	11	0	1	96	48	4
TAP	11	72	7
TAP	11	96	7
TAP	11	144	6
STR	11	192	5
SCR	11	192	5	96	48	0
TAP	11	240	4
TAP	11	288	3
TAP	11	336	2
TAP	12	0	1
TAP	12	48	7
TAP	12	72	0
TAP	12	96	7
TAP	12	144	2
TAP	12	192	3
TAP	12	192	4
TAP	12	288	1
TAP	12	288	5
TAP	12	336	2
TAP	12	336	6
TAP	13	0	3
STR	13	0	7
SI_	13	0	7	96	48	3
TAP	13	96	7
TAP	13	144	0
STR	13	192	0
SI_	13	192	0	96	48	4
TAP	13	192	4
TAP	13	288	0
TAP	13	336	7
TAP	14	0	3
TAP	14	0	7
TAP	14	48	1
TAP	14	72	0
TAP	14	96	1
TAP	14	144	6
TAP	14	168	7
TAP	14	192	6
TAP	14	240	4
TAP	14	288	2
TAP	14	336	0
STR	15	0	6
SCL	15	0	6	96	48	3
TAP	15	72	0
TAP	15	96	0
TAP	15	144	1
STR	15	192	2
SCL	15	192	2	96	48	7
TAP	15	240	3
TAP	15	288	4
TAP	15	336	5
TAP	16	0	4
TAP	16	0	6
TAP	16	48	4
TAP	16	72	5
TAP	16	96	3
TAP	16	120	4
TAP	16	144	2
TAP	16	168	3
TAP	16	192	1
TAP	16	288	1
TAP	16	336	2
STR	17	0	3
SI_	17	0	3	96	48	7
TAP	17	0	5
TAP	17	96	3
TAP	17	144	4
TAP	17	192	2
STR	17	192	4
SI_	17	192	4	96	48	0
TAP	17	288	4
TAP	17	336	3
TAP	18	0	3
TAP	18	0	6
TAP	18	48	5
TAP	18	72	4
TAP	18	96	5
TAP	18	144	2
TAP	18	168	3
TAP	18	192	2
TAP	18	240	0
TAP	18	240	1
TAP	18	288	6
TAP	18	288	7
TAP	18	336	4
TAP	18	336	5
STR	19	0	2
SCL	19	0	2	96	48	7
TAP	19	72	4
TAP	19	96	4
TAP	19	144	5
STR	19	192	6
SCL	19	192	6	96	48	3
TAP	19	240	7
TAP	19	288	0
TAP	19	336	1
TAP	20	0	1
TAP	20	24	0
TAP	20	48	7
TAP	20	72	6
TAP	20	96	5
TAP	20	144	7
TAP	20	192	0
TAP	20	192	6
TAP	20	288	2
TAP	20	288	6
TAP	20	336	1
TAP	20	336	5
TAP	21	0	0
STR	21	0	4
SI_	21	0	4	96	48	0
TAP	21	96	4
TAP	21	144	3
STR	21	192	3
SI_	21	192	3	96	48	7
TAP	21	192	7
TAP	21	288	3
TAP	21	336	4
TAP	22	0	0
TAP	22	0	4
TAP	22	48	2
TAP	22	72	3
TAP	22	96	2
TAP	22	144	5
TAP	22	168	4
TAP	22	192	5
TAP	22	240	6
TAP	22	240	7
TAP	22	288	0
TAP	22	288	1
TAP	22	336	2
TAP	22	336	3
TAP	23	48	2
TAP	23	48	6
TAP	23	144	1
TAP	23	144	5
TAP	23	192	3
TAP	23	192	7
TAP	23	240	2
TAP	23	240	6
TAP	23	288	1
TAP	23	288	5
TAP	23	336	0
TAP	23	336	4
TAP	24	0	0
TAP	24	24	1
TAP	24	48	2
TAP	24	72	3
TAP	24	96	4
TAP	24	120	5
TAP	24	144	6
TAP	24	168	7
TAP	24	192	0
TAP	24	192	4
TAP	24	288	3
TAP	24	312	4
TAP	24	336	3
TAP	24	360	4
TAP	25	0	2
TAP	25	0	5
TAP	25	96	0
TAP	25	96	7
STR	25	144	1
SCR	25	144	1	96	48	4
TAP	25	240	1
STR	25	240	6
SCR	25	240	6	96	48	1
TAP	25	336	6
TAP	26	48	2
TAP	26	72	3
TAP	26	96	2
TAP	26	144	5
TAP	26	168	4
TAP	26	192	5
TAP	26	240	3
TAP	26	288	2
STR	26	336	1
SI_	26	336	1	96	48	5
TAP	27	48	0
TAP	27	48	1
TAP	27	144	6
TAP	27	192	6
TAP	27	192	7
TAP	27	240	0
TAP	27	240	5
TAP	27	288	1
TAP	27	288	4
TAP	27	336	2
TAP	27	336	3
TAP	28	0	0
TAP	28	0	1
TAP	28	48	1
TAP	28	72	0
TAP	28	96	2
TAP	28	120	7
TAP	28	144	3
TAP	28	168	6
TAP	28	192	4
TAP	28	192	5
TAP	28	288	3
TAP	28	288	4
TAP	28	336	2
TAP	28	336	5
TAP	29	0	1
TAP	29	0	6
TAP	29	96	0
TAP	29	96	7
STR	29	144	6
SCL	29	144	6	96	48	3
STR	29	240	1
SCL	29	240	1	96	48	6
TAP	29	240	6
TAP	29	336	1
TAP	30	48	5
TAP	30	72	4
TAP	30	96	5
TAP	30	144	2
TAP	30	168	3
TAP	30	192	2
TAP	30	240	4
TAP	30	288	5
TAP	30	336	6
TAP	31	0	7
TAP	31	24	6
TAP	31	48	5
TAP	31	72	4
TAP	31	96	3
TAP	31	120	2
TAP	31	144	1
TAP	31	168	0
HLD	31	192	7	192
TAP	31	240	6
TAP	31	288	5
TAP	31	336	4
TAP	32	0	3
TAP	32	48	3
TAP	32	72	4
TAP	32	96	5
TAP	32	120	6
TAP	32	144	7
TAP	32	168	0
TAP	32	192	1
STR	32	288	3
SI_	32	288	3	96	48	0
STR	32	288	4
SI_	32	288	4	96	48	7
TAP	32	336	2
TAP	32	336	5
TAP	33	96	1
TAP	33	96	6
STR	33	144	2
SCL	33	144	2	96	48	7
TAP	33	240	2
STR	33	240	5
SCL	33	240	5	96	48	2
TAP	33	336	5
TAP	34	48	1
TAP	34	72	0
TAP	34	96	1
TAP	34	144	6
TAP	34	168	7
TAP	34	192	6
TAP	34	240	0
TAP	34	288	1
STR	34	336	2
SI_	34	336	2	96	48	6
TAP	35	48	2
TAP	35	48	3
TAP	35	144	5
TAP	35	192	4
TAP	35	192	5
TAP	35	240	3
TAP	35	240	6
TAP	35	288	2
TAP	35	288	7
TAP	35	336	0
TAP	35	336	1
TAP	36	0	2
TAP	36	0	3
TAP	36	48	2
TAP	36	72	3
TAP	36	96	1
TAP	36	120	4
TAP	36	144	0
TAP	36	168	5
TAP	36	192	6
TAP	36	192	7
TAP	36	288	2
TAP	36	336	3
TAP	37	0	1
TAP	37	0	4
TAP	37	96	2
TAP	37	96	6
STR	37	144	5
SCR	37	144	5	96	48	0
STR	37	240	2
SCR	37	240	2	96	24	5
TAP	37	240	5
TAP	37	336	2
TAP	38	48	6
TAP	38	72	7
TAP	38	96	6
TAP	38	144	1
TAP	38	168	0
TAP	38	192	1
TAP	38	216	2
TAP	38	240	3
TAP	38	264	4
TAP	38	288	5
TAP	38	312	6
TAP	38	336	7
TAP	38	360	0
TAP	39	0	1
TAP	39	0	4
TAP	39	24	3
TAP	39	48	2
TAP	39	72	1
TAP	39	96	0
TAP	39	120	7
TAP	39	144	6
TAP	39	168	5
TAP	39	192	1
TAP	39	192	4
TAP	39	216	2
TAP	39	240	3
TAP	39	264	4
TAP	39	288	5
TAP	39	312	6
TAP	39	336	7
TAP	39	360	0
TAP	40	0	1
TAP	40	48	7
TAP	40	72	0
TAP	40	96	7
TAP	40	144	0
TAP	40	144	7
TAP	40	192	1
TAP	40	192	6
TAP	40	288	5
TAP	40	312	4
TAP	40	336	6
TAP	40	360	3
STR	41	0	7
SCL	41	0	7	96	48	4
TAP	41	72	1
TAP	41	96	1
TAP	41	144	1
STR	41	192	1
SCR	41	192	1	96	48	4
TAP	41	264	6
TAP	41	288	6
TAP	41	336	6
STR	42	0	6
SCL	42	0	6	96	48	3
TAP	42	72	0
TAP	42	96	0
TAP	42	144	0
STR	42	192	0
SF_	42	192	0	96	48	4
BRK	42	288	0
STR	43	0	2
SCL	43	0	2	96	48	7
TAP	43	72	4
TAP	43	96	4
TAP	43	144	4
STR	43	192	4
SCR	43	192	4	96	48	7
TAP	43	264	3
TAP	43	288	3
TAP	43	336	3
STR	44	0	3
SCL	44	0	3	96	48	0
TAP	44	72	5
TAP	44	96	5
TAP	44	144	5
TAP	44	192	5
TAP	44	216	4
TAP	44	240	3
TAP	44	264	2
TAP	44	288	1
TAP	44	312	0
TAP	44	336	7
TAP	44	360	6
STR	45	0	0
SCR	45	0	0	96	48	3
TAP	45	72	6
TAP	45	96	6
TAP	45	144	6
STR	45	192	6
SCL	45	192	6	96	48	3
TAP	45	264	1
TAP	45	288	1
TAP	45	336	1
STR	46	0	1
SCR	46	0	1	96	48	4
TAP	46	72	7
TAP	46	96	7
TAP	46	144	7
STR	46	192	7
SF_	46	192	7	96	48	3
BRK	46	288	7
TAP	47	0	1
TAP	47	0	5
TAP	47	32	2
TAP	47	64	3
TAP	47	96	0
TAP	47	96	4
TAP	47	128	5
TAP	47	160	6
TAP	47	192	3
TAP	47	192	7
TAP	47	224	0
TAP	47	256	1
TAP	47	288	2
TAP	47	288	6
TAP	47	320	3
TAP	47	352	4
STR	48	0	6
SI_	48	0	6	96	32	3
TAP	48	64	6
STR	48	96	1
SI_	48	96	1	96	32	4
TAP	48	160	1
STR	48	192	7
SI_	48	192	7	96	32	3
TAP	48	256	7
STR	48	288	0
SI_	48	288	0	96	32	4
TAP	48	352	0
HLD	49	0	6	144
TAP	49	144	7
TAP	49	192	0
TAP	49	192	5
TAP	49	288	2
TAP	49	288	3
TAP	50	0	0
TAP	50	0	4
TAP	50	72	1
TAP	50	72	5
TAP	50	144	2
TAP	50	144	6
STR	50	192	3
SCL	50	192	3	96	48	0
STR	50	192	7
SCL	50	192	7	96	48	4
HLD	51	0	1	144
TAP	51	144	0
TAP	51	192	2
TAP	51	192	7
TAP	51	288	4
TAP	51	288	5
TAP	52	0	3
TAP	52	0	7
TAP	52	72	2
TAP	52	72	6
TAP	52	144	1
TAP	52	144	5
STR	52	192	0
SXL	52	192	0	96	48	2
STR	52	192	4
SXL	52	192	4	96	48	6
HLD	53	0	5	144
TAP	53	144	4
TAP	53	192	3
TAP	53	192	6
TAP	53	288	0
TAP	53	288	1
TAP	54	0	3
TAP	54	0	7
TAP	54	72	2
TAP	54	72	6
TAP	54	144	1
TAP	54	144	5
STR	54	192	0
SCR	54	192	0	96	48	3
STR	54	192	4
SCR	54	192	4	96	48	7
HLD	55	0	2	144
TAP	55	144	3
TAP	55	192	1
TAP	55	192	4
TAP	55	288	6
TAP	55	288	7
TAP	56	0	0
TAP	56	0	4
TAP	56	72	1
TAP	56	72	5
TAP	56	144	2
TAP	56	144	6
STR	56	192	3
SXR	56	192	3	96	48	1
STR	56	192	7
SXR	56	192	7	96	48	5
HLD	57	0	6	96
TAP	57	96	3
HLD	57	144	3	96
TAP	57	240	1
TAP	57	288	0
TAP	57	288	2
TAP	58	0	3
TAP	58	48	4
TAP	58	96	5
TAP	58	144	6
TAP	58	192	7
TAP	58	240	0
TAP	58	288	1
TAP	58	288	5
HLD	59	0	1	96
TAP	59	96	4
HLD	59	144	4	96
TAP	59	240	6
TAP	59	288	5
TAP	59	288	7
TAP	60	0	4
TAP	60	48	3
TAP	60	96	2
TAP	60	144	1
STR	60	192	0
SV_	60	192	0	96	48	2
STR	60	192	4
SV_	60	192	4	96	48	6
BRK	61	0	0
STR	61	0	4
SCR	61	0	4	96	192	0
TAP	61	96	0
TAP	61	144	1
TAP	61	192	2
TAP	61	240	3
TAP	61	288	4
TAP	61	336	5
STR	62	0	2
SCL	62	0	2	96	192	6
BRK	62	0	6
TAP	62	96	6
TAP	62	144	5
TAP	62	192	4
TAP	62	240	3
TAP	62	288	2
TAP	62	336	1
BST	63	0	0
SCL	63	0	0	96	48	5
TAP	63	48	1
TAP	63	96	2
BST	63	144	3
SCL	63	144	3	96	48	0
TAP	63	192	4
TAP	63	240	5
BST	63	288	6
SCL	63	288	6	96	48	3
TAP	63	336	7
TAP	64	0	0
BST	64	48	1
SCL	64	48	1	96	48	6
TAP	64	96	2
TAP	64	144	3
TAP	64	192	4
TAP	64	240	4
TAP	64	240	5
TAP	64	288	3
TAP	64	288	6
TAP	64	336	2
TAP	64	336	7
BRK	65	0	0
BRK	65	0	1
TAP	65	96	3
TAP	65	96	4
TAP	65	144	6
TAP	65	192	6
TAP	65	192	7
TAP	65	240	5
TAP	65	264	4
TAP	65	288	5
TAP	65	336	1
TAP	66	0	0
TAP	66	0	1
TAP	66	48	2
TAP	66	72	3
TAP	66	96	2
TAP	66	144	6
TAP	66	192	1
TAP	66	192	5
TAP	66	240	0
TAP	66	240	4
TAP	66	288	3
TAP	66	288	7
TAP	67	0	6
TAP	67	0	7
TAP	67	96	3
TAP	67	96	4
TAP	67	144	1
TAP	67	192	0
TAP	67	192	1
TAP	67	240	2
TAP	67	264	3
TAP	67	288	2
TAP	67	336	6
TAP	68	0	6
TAP	68	0	7
TAP	68	48	5
TAP	68	72	4
TAP	68	96	5
TAP	68	144	1
TAP	68	192	2
TAP	68	192	6
TAP	68	240	3
TAP	68	240	7
TAP	68	288	0
TAP	68	288	4
TAP	69	0	4
TAP	69	0	5
TAP	69	96	0
TAP	69	96	7
TAP	69	144	2
TAP	69	192	2
TAP	69	192	3
TAP	69	240	1
TAP	69	264	0
TAP	69	288	1
TAP	69	336	5
TAP	70	0	4
TAP	70	0	5
TAP	70	48	6
TAP	70	72	7
TAP	70	96	6
TAP	70	144	2
TAP	70	192	1
TAP	70	192	5
TAP	70	240	0
TAP	70	240	4
TAP	70	288	3
TAP	70	288	7
TAP	71	0	2
TAP	71	0	3
TAP	71	96	0
TAP	71	96	7
TAP	71	144	5
TAP	71	192	4
TAP	71	192	5
TAP	71	240	6
TAP	71	264	7
TAP	71	288	6
TAP	71	336	2
TAP	72	0	7
TAP	72	24	6
TAP	72	48	5
TAP	72	72	4
TAP	72	96	0
TAP	72	120	1
TAP	72	144	2
TAP	72	168	3
TAP	72	192	7
TAP	72	204	6
TAP	72	216	5
TAP	72	228	4
TAP	72	240	3
TAP	72	252	2
TAP	72	264	1
TAP	72	276	0
TAP	72	288	3
TAP	72	288	7
BRK	73	0	1
BRK	73	0	7
TAP	73	48	2
TAP	73	72	3
TAP	73	96	2
TAP	73	144	7
TAP	73	192	0
TAP	73	192	6
TAP	73	240	5
TAP	73	264	4
TAP	73	288	5
TAP	73	336	0
TAP	74	0	1
TAP	74	0	7
TAP	74	48	2
TAP	74	72	3
TAP	74	96	2
TAP	74	144	6
TAP	74	192	6
TAP	74	192	7
TAP	74	240	0
TAP	74	240	5
TAP	74	288	1
TAP	74	288	4
TAP	75	0	0
TAP	75	0	6
TAP	75	48	5
TAP	75	72	4
TAP	75	96	5
TAP	75	144	0
TAP	75	192	1
TAP	75	192	7
TAP	75	240	2
TAP	75	264	3
TAP	75	288	2
TAP	75	336	7
TAP	76	0	0
TAP	76	0	6
TAP	76	48	5
TAP	76	72	4
TAP	76	96	5
TAP	76	144	1
TAP	76	192	0
TAP	76	192	1
TAP	76	240	2
TAP	76	240	7
TAP	76	288	3
TAP	76	288	6
TAP	77	0	3
TAP	77	0	5
TAP	77	48	6
TAP	77	72	7
TAP	77	96	6
TAP	77	144	3
TAP	77	192	2
TAP	77	192	4
TAP	77	240	1
TAP	77	264	0
TAP	77	288	1
TAP	77	336	4
TAP	78	0	3
TAP	78	0	5
TAP	78	48	6
TAP	78	72	7
TAP	78	96	6
TAP	78	144	2
TAP	78	192	2
TAP	78	192	3
TAP	78	240	1
TAP	78	240	4
TAP	78	288	0
TAP	78	288	5
TAP	79	0	0
TAP	79	24	1
TAP	79	48	2
TAP	79	72	3
TAP	79	96	4
TAP	79	120	5
TAP	79	144	6
TAP	79	168	7
TAP	79	192	0
TAP	79	192	4
TAP	79	216	3
TAP	79	240	2
TAP	79	264	1
TAP	79	288	0
TAP	79	312	7
TAP	79	336	6
TAP	79	360	5
TAP	80	0	0
TAP	80	0	4
TAP	80	24	1
TAP	80	48	2
TAP	80	72	3
TAP	80	96	4
TAP	80	120	5
TAP	80	144	6
TAP	80	168	7
TAP	80	192	0
TAP	80	192	4
TAP	80	204	3
TAP	80	216	2
TAP	80	228	1
TAP	80	240	0
TAP	80	252	7
TAP	80	264	6
TAP	80	276	5
TAP	80	288	0
TAP	80	288	4
BRK	81	0	1
BRK	81	0	7
TAP	81	48	6
TAP	81	72	4
TAP	81	96	5
TAP	81	144	1
TAP	81	168	3
TAP	81	192	2
TAP	81	240	6
TAP	81	264	4
TAP	81	288	5
TAP	81	336	0
TAP	81	360	4
TAP	82	0	2
TAP	82	48	7
TAP	82	72	3
TAP	82	96	5
TAP	82	144	0
TAP	82	168	4
TAP	82	192	3
TAP	82	192	5
TAP	82	240	2
TAP	82	240	6
TAP	82	288	1
TAP	82	288	7
TAP	83	0	0
TAP	83	0	6
TAP	83	48	1
TAP	83	72	3
TAP	83	96	2
TAP	83	144	6
TAP	83	168	4
TAP	83	192	5
TAP	83	240	1
TAP	83	264	3
TAP	83	288	2
TAP	83	336	7
TAP	83	360	3
TAP	84	0	5
TAP	84	48	0
TAP	84	72	4
TAP	84	96	2
TAP	84	144	7
TAP	84	168	3
TAP	84	192	2
TAP	84	192	4
TAP	84	240	1
TAP	84	240	5
TAP	84	288	0
TAP	84	288	6
TAP	85	0	2
TAP	85	0	4
TAP	85	48	5
TAP	85	72	1
TAP	85	96	7
TAP	85	144	2
TAP	85	168	6
TAP	85	192	0
TAP	85	240	4
TAP	85	264	1
TAP	85	288	7
TAP	85	336	2
TAP	85	360	6
TAP	86	0	0
TAP	86	24	7
TAP	86	48	1
TAP	86	72	6
TAP	86	96	2
TAP	86	120	5
TAP	86	144	3
TAP	86	168	4
TAP	86	192	3
TAP	86	216	4
TAP	86	240	2
TAP	86	264	5
TAP	86	288	1
TAP	86	312	6
STR	86	336	0
SI_	86	336	0	96	24	4
TAP	86	360	7
BST	87	48	7
SI_	87	48	7	96	24	3
BST	87	120	1
SI_	87	120	1	96	24	4
BST	87	192	6
SI_	87	192	6	96	24	3
BST	87	264	2
SI_	87	264	2	96	24	5
BST	87	336	7
SI_	87	336	7	96	24	3
BST	88	48	0
SI_	88	48	0	96	24	4
BST	88	120	6
SI_	88	120	6	96	24	3
BST	88	192	1
SI_	88	192	1	96	24	4
BST	88	264	5
SI_	88	264	5	96	24	2
BRK	88	336	0
STR	89	0	0
SUR	89	0	0	96	48	4
TAP	89	72	6
TAP	89	96	6
TAP	89	144	6
STR	89	192	6
SUL	89	192	6	96	48	2
TAP	89	264	1
TAP	89	288	1
TAP	89	336	1
STR	90	0	1
SUR	90	0	1	96	48	5
TAP	90	72	7
TAP	90	96	7
TAP	90	144	7
STR	90	192	7
SF_	90	192	7	96	48	3
BRK	90	288	7
STR	91	0	5
SUR	91	0	5	96	48	1
TAP	91	72	3
TAP	91	96	3
TAP	91	144	3
STR	91	192	3
SUL	91	192	3	96	48	7
TAP	91	264	4
TAP	91	288	4
TAP	91	336	4
STR	92	0	4
SUR	92	0	4	96	48	0
TAP	92	72	2
TAP	92	96	2
TAP	92	144	2
TAP	92	192	2
TAP	92	216	3
TAP	92	240	4
TAP	92	264	5
TAP	92	288	6
TAP	92	312	7
TAP	92	336	0
TAP	92	360	1
STR	93	0	7
SUL	93	0	7	96	48	3
TAP	93	72	1
TAP	93	96	1
TAP	93	144	1
STR	93	192	1
SUR	93	192	1	96	48	5
TAP	93	264	6
TAP	93	288	6
TAP	93	336	6
STR	94	0	6
SUL	94	0	6	96	48	2
TAP	94	72	0
TAP	94	96	0
TAP	94	144	0
STR	94	192	0
SF_	94	192	0	96	48	4
BRK	94	288	0
BST	95	0	1
SI_	95	0	1	96	32	4
TAP	95	32	1
TAP	95	64	1
BST	95	96	6
SI_	95	96	6	96	32	3
TAP	95	128	6
TAP	95	160	6
BST	95	192	0
SI_	95	192	0	96	32	4
TAP	95	224	0
TAP	95	256	0
BST	95	288	7
SI_	95	288	7	96	32	3
TAP	95	320	7
TAP	95	352	7
STR	96	0	2
SI_	96	0	2	96	32	7
TAP	96	64	2
STR	96	96	5
SI_	96	96	5	96	32	0
TAP	96	160	5
STR	96	192	3
SI_	96	192	3	96	32	7
TAP	96	256	3
STR	96	288	4
SI_	96	288	4	96	32	0
TAP	96	352	4
BST	97	0	3
SCL	97	0	3	96	672	3
SCR	97	0	3	96	672	3

T_REC_TAP	878
T_REC_BRK	15
T_REC_XTP	0
T_REC_HLD	9
T_REC_XHO	0
T_REC_STR	71
T_REC_BST	18
T_REC_XST	0
T_REC_TTP	0
T_REC_THO	0
T_REC_SLD	90
T_REC_ALL	1081
T_NUM_TAP	949
T_NUM_BRK	33
T_NUM_HLD	9
T_NUM_SLD	90
T_NUM_ALL	1081
T_JUDGE_TAP	982
T_JUDGE_HLD	24
T_JUDGE_SLD	90
T_JUDGE_ALL	1096
TTM_EACHPAIRS	171
TTM_SCR_TAP	474500
TTM_SCR_BRK	85800
TTM_SCR_HLD	9000
TTM_SCR_SLD	135000
TTM_SCR_ALL	704300
TTM_SCR_S	680000
TTM_SCR_SS	701000
TTM_RAT_ACV	10047

