VERSION	0.00.00	1.03.00
FES_MODE	0
BPM_DEF	185.000	185.000	185.000	185.000
MET_DEF	4	4
RESOLUTION	384
CLK_DEF	384
COMPATIBLE_CODE	MA2

BPM	0	0	185.000
MET	0	0	4	4

STR	1	0	0
SXR	1	0	0	96	192	5
STR	2	0	7
SXL	2	0	7	96	192	2
STR	3	0	2
SI_	3	0	2	96	192	5
STR	3	0	5
SCL	3	0	5	96	192	2
TAP	4	0	3
TAP	4	96	5
TAP	4	192	3
TAP	4	288	5
STR	5	0	0
SXR	5	0	0	96	192	5
STR	6	0	7
SXL	6	0	7	96	192	2
STR	7	0	3
SCL	7	0	3	96	192	5
STR	8	0	6
SI_	8	0	6	96	48	3
STR	8	96	1
SI_	8	96	1	96	48	4
TAP	8	192	6
BRK	8	288	0
BRK	8	288	7
TAP	9	0	2
TAP	9	0	5
TAP	9	96	1
TAP	9	144	0
TAP	9	192	2
TAP	9	192	7
TAP	9	288	6
TAP	9	336	7
TAP	10	0	0
TAP	10	0	5
TAP	10	48	7
TAP	10	96	1
TAP	10	144	6
TAP	10	192	2
TAP	10	240	5
TAP	10	288	3
TAP	10	336	4
TAP	11	0	3
TAP	11	0	4
TAP	11	96	1
TAP	11	144	2
TAP	11	192	3
TAP	11	192	4
TAP	11	288	5
TAP	11	336	6
TAP	12	0	0
TAP	12	0	7
TAP	12	48	1
TAP	12	48	6
STR	12	96	0
SCR	12	96	0	96	96	3
STR	12	96	7
SCL	12	96	7	96	96	4
TAP	13	0	1
TAP	13	0	6
TAP	13	96	2
TAP	13	144	3
TAP	13	192	1
TAP	13	192	4
TAP	13	288	5
TAP	13	336	4
TAP	14	0	3
TAP	14	0	6
TAP	14	48	4
TAP	14	96	2
TAP	14	144	5
TAP	14	192	1
TAP	14	240	6
TAP	14	288	0
TAP	14	336	7
TAP	15	0	0
TAP	15	0	7
TAP	15	96	2
TAP	15	144	1
TAP	15	192	0
TAP	15	192	7
TAP	15	288	6
TAP	15	336	5
TAP	16	0	3
TAP	16	0	4
TAP	16	48	2
TAP	16	48	5
STR	16	96	3
SCL	16	96	3	96	96	0
STR	16	96	4
SCR	16	96	4	96	96	7
TAP	17	0	2
TAP	17	0	5
TAP	17	96	6
TAP	17	144	7
TAP	17	192	0
TAP	17	192	2
TAP	17	288	1
TAP	17	336	0
TAP	18	0	5
TAP	18	0	7
TAP	18	48	0
TAP	18	96	6
TAP	18	144	1
TAP	18	192	5
TAP	18	240	2
TAP	18	288	4
TAP	18	336	3
TAP	19	0	3
TAP	19	0	4
TAP	19	96	6
TAP	19	144	5
TAP	19	192	3
TAP	19	192	4
TAP	19	288	2
TAP	19	336	1
TAP	20	0	0
TAP	20	0	7
TAP	20	48	1
TAP	20	48	6
STR	20	96	0
SCR	20	96	0	96	96	3
STR	20	96	7
SCL	20	96	7	96	96	4
TAP	21	0	1
TAP	21	0	6
TAP	21	96	2
TAP	21	144	3
TAP	21	192	4
TAP	21	192	6
TAP	21	288	5
TAP	21	336	4
TAP	22	0	1
TAP	22	0	3
TAP	22	48	4
TAP	22	96	2
TAP	22	144	5
TAP	22	192	1
TAP	22	240	6
TAP	22	288	0
HLD	22	336	7	96
TAP	23	48	0
TAP	23	144	1
TAP	23	144	6
TAP	23	192	3
TAP	23	240	3
TAP	23	288	4
TAP	23	336	4
STR	24	0	2
SI_	24	0	2	96	48	7
TAP	24	48	2
STR	24	96	5
SI_	24	96	5	96	48	0
TAP	24	144	5
BRK	24	192	1
TAP	25	0	3
TAP	25	0	6
TAP	25	96	7
TAP	25	144	0
TAP	25	192	1
TAP	25	192	4
TAP	25	288	0
TAP	25	336	7
TAP	26	0	4
TAP	26	0	6
TAP	26	96	7
TAP	26	144	0
TAP	26	192	1
TAP	26	192	3
TAP	26	288	0
TAP	26	336	7
HLD	27	0	6	96
TAP	27	48	5
TAP	27	96	4
HLD	27	192	1	96
TAP	27	240	2
TAP	27	288	3
STR	28	0	4
SCR	28	0	4	96	96	7
STR	28	96	7
SCR	28	96	7	96	96	2
TAP	28	192	2
TAP	29	0	1
TAP	29	0	4
TAP	29	96	0
TAP	29	144	7
TAP	29	192	3
TAP	29	192	6
TAP	29	288	7
TAP	29	336	0
TAP	30	0	1
TAP	30	0	3
TAP	30	96	0
TAP	30	144	7
TAP	30	192	4
TAP	30	192	6
TAP	30	288	7
TAP	30	336	0
HLD	31	0	1	96
TAP	31	48	2
TAP	31	96	3
HLD	31	192	6	96
TAP	31	240	5
TAP	31	288	4
STR	32	0	3
SCL	32	0	3	96	96	0
STR	32	96	0
SCL	32	96	0	96	96	5
TAP	32	192	5
HLD	33	0	3	96
HLD	33	0	4	96
TAP	33	192	2
TAP	33	192	7
TAP	33	288	3
TAP	33	336	4
TAP	34	0	5
TAP	34	0	7
TAP	34	96	4
TAP	34	144	3
TAP	34	192	0
TAP	34	192	2
TAP	34	288	3
TAP	34	336	4
HLD	35	0	5	96
TAP	35	48	6
TAP	35	96	7
HLD	35	192	2	96
TAP	35	240	1
TAP	35	288	0
STR	36	0	7
SCL	36	0	7	96	96	4
STR	36	96	4
SCL	36	96	4	96	96	1
TAP	36	192	1
TAP	37	0	0
TAP	37	0	5
TAP	37	96	4
TAP	37	144	3
TAP	37	192	2
TAP	37	192	7
TAP	37	288	3
TAP	37	336	4
TAP	38	0	5
TAP	38	0	7
TAP	38	96	4
TAP	38	144	3
TAP	38	192	0
TAP	38	192	2
TAP	38	288	3
TAP	38	336	4
TAP	39	0	3
TAP	39	48	2
TAP	39	96	1
TAP	39	144	0
TAP	39	192	7
TAP	39	240	6
TAP	39	288	5
TAP	39	336	4
TAP	40	0	3
TAP	40	48	2
TAP	40	96	1
TAP	40	144	0
HLD	40	192	7	96
BRK	40	288	0
HLD	41	0	5	72
TAP	41	72	4
TAP	41	96	6
TAP	41	144	6
HLD	41	192	2	72
TAP	41	264	3
TAP	41	288	1
TAP	41	336	1
STR	42	0	3
SI_	42	0	3	96	48	0
SI_	42	0	3	96	48	6
STR	42	192	4
SI_	42	192	4	96	48	1
SI_	42	192	4	96	48	7
HLD	43	0	2	72
TAP	43	72	3
TAP	43	96	1
TAP	43	144	1
HLD	43	192	5	72
TAP	43	264	4
TAP	43	288	6
TAP	43	336	6
STR	44	0	4
SI_	44	0	4	96	48	1
SI_	44	0	4	96	48	7
STR	44	192	3
SI_	44	192	3	96	48	0
SI_	44	192	3	96	48	6
HLD	45	0	5	72
TAP	45	72	4
TAP	45	96	6
TAP	45	144	7
HLD	45	192	2	72
TAP	45	264	3
TAP	45	288	1
TAP	45	336	0
STR	46	0	4
SI_	46	0	4	96	48	0
TAP	46	48	4
STR	46	96	3
SI_	46	96	3	96	48	7
TAP	46	144	3
TAP	46	192	4
BRK	46	288	1
BRK	46	288	6
TAP	47	0	0
TAP	47	64	0
TAP	47	96	7
TAP	47	160	7
TAP	47	192	1
TAP	47	256	1
TAP	47	288	6
TAP	47	352	6
TAP	48	0	1
TAP	48	64	1
TAP	48	96	0
TAP	48	160	0
TAP	48	192	7
TAP	48	256	7
TAP	48	288	6
TAP	48	352	6
STR	49	0	0
SI_	49	0	0	96	576	4
TAP	49	96	4
TAP	49	192	3
TAP	49	288	2
TAP	50	0	1
TAP	50	96	0
TAP	50	192	7
TAP	50	288	6
STR	51	0	7
SI_	51	0	7	96	576	3
TAP	51	96	3
TAP	51	192	4
TAP	51	288	5
TAP	52	0	6
TAP	52	96	7
TAP	52	192	0
TAP	52	288	1
STR	53	0	1
SI_	53	0	1	96	576	5
TAP	53	96	5
TAP	53	192	4
TAP	53	288	3
TAP	54	0	2
TAP	54	96	1
TAP	54	192	0
TAP	54	288	7
STR	55	0	6
SI_	55	0	6	96	576	2
TAP	55	96	2
TAP	55	192	3
TAP	55	288	4
TAP	56	0	5
TAP	56	96	6
TAP	56	192	7
TAP	56	288	0
TAP	57	0	2
TAP	57	96	1
TAP	57	96	3
TAP	57	192	6
TAP	57	240	7
TAP	57	288	0
TAP	57	288	6
TAP	58	0	5
TAP	58	96	4
TAP	58	96	6
TAP	58	192	1
TAP	58	240	0
TAP	58	288	1
TAP	58	288	7
TAP	59	0	2
TAP	59	96	1
TAP	59	96	3
TAP	59	192	6
TAP	59	240	7
TAP	59	288	0
TAP	59	288	6
TAP	60	0	5
TAP	60	96	4
TAP	60	96	6
TAP	60	192	1
TAP	60	240	0
TAP	60	288	1
TAP	60	288	7
TAP	61	0	3
TAP	61	0	4
TAP	61	96	6
TAP	61	96	7
TAP	61	144	0
TAP	61	144	5
TAP	61	192	6
TAP	61	192	7
TAP	61	240	0
TAP	61	288	1
TAP	61	288	7
TAP	62	0	3
TAP	62	0	4
TAP	62	96	0
TAP	62	96	1
TAP	62	144	2
TAP	62	144	7
TAP	62	192	0
TAP	62	192	1
TAP	62	240	7
TAP	62	288	0
TAP	62	288	6
TAP	63	0	0
TAP	63	0	4
TAP	63	48	0
TAP	63	48	4
TAP	63	96	0
TAP	63	96	4
TAP	63	144	1
TAP	63	144	5
TAP	63	192	1
TAP	63	192	5
TAP	63	240	1
TAP	63	240	5
TAP	63	288	2
TAP	63	288	6
TAP	63	336	2
TAP	63	336	6
TAP	64	0	2
TAP	64	0	6
STR	64	48	3
SXR	64	48	3	96	144	0
STR	64	48	7
SXR	64	48	7	96	144	4
TAP	65	0	2
TAP	65	96	1
TAP	65	144	2
TAP	65	192	3
TAP	65	240	2
TAP	65	288	1
TAP	66	0	2
TAP	66	48	1
TAP	66	96	0
TAP	66	144	1
TAP	66	192	2
TAP	66	240	1
TAP	66	288	0
TAP	66	288	2
TAP	67	0	5
TAP	67	96	6
TAP	67	144	5
TAP	67	192	4
TAP	67	240	5
TAP	67	288	6
TAP	68	0	5
TAP	68	48	6
TAP	68	96	7
TAP	68	144	6
TAP	68	192	5
TAP	68	240	6
TAP	68	288	5
TAP	68	288	7
TAP	69	0	1
TAP	69	96	2
TAP	69	144	1
TAP	69	192	0
TAP	69	240	1
TAP	69	288	2
TAP	70	0	1
TAP	70	48	2
TAP	70	96	3
TAP	70	144	2
TAP	70	192	1
TAP	70	240	2
TAP	70	288	1
TAP	70	288	3
TAP	71	0	6
TAP	71	96	5
TAP	71	144	6
TAP	71	192	7
TAP	71	240	6
TAP	71	288	5
TAP	72	0	0
TAP	72	48	1
TAP	72	96	2
TAP	72	144	3
TAP	72	192	2
TAP	72	192	5
TAP	72	240	1
TAP	72	240	6
BRK	72	288	0
BRK	72	288	7
TAP	73	0	3
TAP	73	48	2
TAP	73	96	4
TAP	73	144	5
TAP	73	192	2
TAP	73	240	1
TAP	73	288	5
TAP	73	336	6
TAP	74	0	1
TAP	74	48	0
TAP	74	96	6
TAP	74	144	7
TAP	74	192	0
TAP	74	192	1
TAP	74	240	2
TAP	74	240	7
TAP	74	288	3
TAP	74	288	6
TAP	75	0	4
TAP	75	48	5
TAP	75	96	3
TAP	75	144	2
TAP	75	192	5
TAP	75	240	6
TAP	75	288	2
TAP	75	336	1
TAP	76	0	6
TAP	76	48	7
TAP	76	96	1
TAP	76	144	0
TAP	76	192	6
TAP	76	192	7
TAP	76	240	0
TAP	76	240	5
TAP	76	288	6
TAP	76	288	7
TAP	77	0	3
TAP	77	48	2
TAP	77	96	7
TAP	77	144	6
TAP	77	192	2
TAP	77	240	1
TAP	77	288	6
TAP	77	336	5
TAP	78	0	1
TAP	78	48	0
TAP	78	96	5
TAP	78	144	4
TAP	78	192	1
TAP	78	192	5
TAP	78	240	2
TAP	78	240	6
TAP	78	288	3
TAP	78	288	7
TAP	79	0	0
TAP	79	0	7
TAP	79	48	0
TAP	79	48	7
TAP	79	96	1
TAP	79	96	6
TAP	79	144	1
TAP	79	144	6
TAP	79	192	2
TAP	79	192	5
TAP	79	240	2
TAP	79	240	5
TAP	79	288	3
TAP	79	288	4
TAP	79	336	3
TAP	79	336	4
TAP	80	0	2
TAP	80	48	3
TAP	80	96	1
TAP	80	144	4
TAP	80	192	0
TAP	80	192	5
TAP	80	240	6
TAP	80	240	7
TAP	80	288	0
TAP	80	288	5
STR	81	0	3
SI_	81	0	3	96	48	0
STR	81	96	4
SI_	81	96	4	96	48	7
STR	81	192	3
SI_	81	192	3	96	48	1
STR	81	288	4
SI_	81	288	4	96	48	6
STR	82	0	3
SI_	82	0	3	96	48	0
STR	82	96	4
SI_	82	96	4	96	48	7
STR	82	192	3
SI_	82	192	3	96	48	6
STR	82	288	4
SI_	82	288	4	96	48	1
STR	83	0	2
SI_	83	0	2	96	48	7
STR	83	96	3
SI_	83	96	3	96	48	6
STR	83	192	2
SI_	83	192	2	96	48	0
STR	83	288	3
SI_	83	288	3	96	48	5
STR	84	0	2
SI_	84	0	2	96	48	7
STR	84	96	3
SI_	84	96	3	96	48	6
STR	84	192	2
SCL	84	192	2	96	48	0
STR	84	288	5
SCR	84	288	5	96	48	7
STR	85	0	4
SI_	85	0	4	96	48	1
STR	85	96	5
SI_	85	96	5	96	48	0
STR	85	192	4
SI_	85	192	4	96	48	2
STR	85	288	5
SI_	85	288	5	96	48	7
STR	86	0	4
SI_	86	0	4	96	48	1
STR	86	96	5
SI_	86	96	5	96	48	0
STR	86	192	4
SCL	86	192	4	96	48	1
TAP	86	288	5
BRK	87	48	6
BRK	87	48	7
TAP	87	120	4
TAP	87	120	5
TAP	87	192	2
TAP	87	192	3
TAP	87	264	0
TAP	87	264	1
TAP	87	336	6
TAP	87	336	7
BRK	88	48	0
BRK	88	48	1
TAP	88	120	2
TAP	88	120	3
TAP	88	192	4
TAP	88	192	5
TAP	88	264	6
TAP	88	264	7
TAP	88	336	0
TAP	88	336	1
HLD	89	0	2	72
TAP	89	72	3
TAP	89	96	1
TAP	89	144	1
HLD	89	192	5	72
TAP	89	264	4
TAP	89	288	6
TAP	89	336	6
STR	90	0	4
SF_	90	0	4	96	48	0
STR	90	192	3
SF_	90	192	3	96	48	7
HLD	91	0	5	72
TAP	91	72	4
TAP	91	96	6
TAP	91	144	6
HLD	91	192	2	72
TAP	91	264	3
TAP	91	288	1
TAP	91	336	1
STR	92	0	3
SF_	92	0	3	96	48	7
STR	92	192	4
SF_	92	192	4	96	48	0
HLD	93	0	2	72
TAP	93	72	3
TAP	93	96	1
TAP	93	144	0
HLD	93	192	5	72
TAP	93	264	4
TAP	93	288	6
TAP	93	336	7
STR	94	0	3
SI_	94	0	3	96	48	7
TAP	94	48	3
STR	94	96	4
SI_	94	96	4	96	48	0
TAP	94	144	4
TAP	94	192	3
BRK	94	288	1
BRK	94	288	6
TAP	95	0	5
TAP	95	32	4
TAP	95	64	5
TAP	95	96	2
TAP	95	128	3
TAP	95	160	2
TAP	95	192	5
TAP	95	224	4
TAP	95	256	5
TAP	95	288	2
TAP	95	320	3
TAP	95	352	2
TAP	96	0	6
TAP	96	64	6
TAP	96	96	4
TAP	96	160	4
TAP	96	192	2
TAP	96	256	2
TAP	96	288	0
TAP	96	352	0
BST	97	0	3
SI_	97	0	3	96	288	0
SCR	97	0	3	96	288	5

T_REC_TAP	531
T_REC_BRK	14
T_REC_XTP	0
T_REC_HLD	22
T_REC_XHO	0
T_REC_STR	64
T_REC_BST	1
T_REC_XST	0
T_REC_TTP	0
T_REC_THO	0
T_REC_SLD	70
T_REC_ALL	702
T_NUM_TAP	595
T_NUM_BRK	15
T_NUM_HLD	22
T_NUM_SLD	70
T_NUM_ALL	702
T_JUDGE_TAP	610
T_JUDGE_HLD	44
T_JUDGE_SLD	70
T_JUDGE_ALL	724
TTM_EACHPAIRS	112
TTM_SCR_TAP	297500
TTM_SCR_BRK	39000
TTM_SCR_HLD	22000
TTM_SCR_SLD	105000
TTM_SCR_ALL	463500
TTM_SCR_S	448150
TTM_SCR_SS	462000
TTM_RAT_ACV	10032

