VERSION	0.00.00	1.03.00
FES_MODE	0
BPM_DEF	185.000	185.000	185.000	185.000
MET_DEF	4	4
RESOLUTION	384
CLK_DEF	384
COMPATIBLE_CODE	MA2

BPM	0	0	185.000
MET	0	0	4	4

TAP	5	0	2
TAP	5	0	3
TAP	5	192	3
TAP	5	192	4
TAP	6	0	4
TAP	6	0	5
TAP	6	192	3
TAP	6	192	4
TAP	7	0	2
TAP	7	96	1
TAP	7	192	0
TAP	7	288	7
TAP	8	0	6
TAP	8	96	5
TAP	8	192	3
TAP	8	192	4
BRK	8	288	1
BRK	8	288	6
TAP	9	0	0
TAP	9	96	0
TAP	9	192	1
TAP	9	192	7
TAP	10	0	5
TAP	10	96	5
TAP	10	192	4
TAP	10	192	6
TAP	11	0	3
TAP	11	96	3
TAP	11	192	4
TAP	11	288	4
TAP	12	0	2
TAP	12	96	2
TAP	12	192	1
TAP	12	192	3
TAP	13	0	7
TAP	13	96	7
TAP	13	192	0
TAP	13	192	6
TAP	14	0	2
TAP	14	96	2
TAP	14	192	1
TAP	14	192	3
TAP	15	0	4
TAP	15	96	4
TAP	15	192	3
TAP	15	288	3
TAP	16	0	5
TAP	16	96	5
TAP	16	192	4
TAP	16	192	6
TAP	17	0	2
TAP	17	96	3
TAP	17	192	1
TAP	17	192	4
TAP	18	0	5
TAP	18	96	4
TAP	18	192	3
TAP	18	192	6
TAP	19	0	0
TAP	19	96	0
TAP	19	192	7
TAP	19	288	7
TAP	20	0	1
TAP	20	96	1
TAP	20	192	0
TAP	20	192	2
TAP	21	0	6
TAP	21	96	7
TAP	21	192	0
TAP	21	192	5
TAP	22	0	1
TAP	22	96	0
TAP	22	192	2
TAP	22	192	7
TAP	23	0	6
TAP	23	96	6
TAP	23	96	7
TAP	23	192	1
TAP	23	288	0
TAP	23	288	1
TAP	24	0	7
TAP	24	96	0
TAP	24	96	7
BRK	24	192	1
BRK	24	192	6
TAP	25	0	2
TAP	25	96	2
TAP	25	192	1
TAP	25	288	1
TAP	26	0	0
TAP	26	96	0
TAP	26	192	1
TAP	26	192	7
STR	27	0	6
SI_	27	0	6	96	48	4
STR	27	192	1
SI_	27	192	1	96	48	3
TAP	28	0	4
TAP	28	96	3
TAP	28	192	1
TAP	28	192	6
TAP	29	0	5
TAP	29	96	5
TAP	29	192	6
TAP	29	288	6
TAP	30	0	7
TAP	30	96	7
TAP	30	192	0
TAP	30	192	6
STR	31	0	1
SI_	31	0	1	96	48	3
STR	31	192	6
SI_	31	192	6	96	48	4
TAP	32	0	3
TAP	32	96	4
TAP	32	192	1
TAP	32	192	6
HLD	33	0	0	96
HLD	33	0	7	96
TAP	33	192	1
TAP	33	288	1
TAP	34	0	2
TAP	34	96	2
TAP	34	192	1
TAP	34	192	3
STR	35	0	4
SI_	35	0	4	96	48	6
STR	35	192	3
SI_	35	192	3	96	48	1
TAP	36	0	7
TAP	36	96	0
TAP	36	192	1
TAP	36	192	6
TAP	37	0	7
TAP	37	96	7
TAP	37	192	6
TAP	37	288	6
TAP	38	0	5
TAP	38	96	5
TAP	38	192	4
TAP	38	192	6
STR	39	0	3
SI_	39	0	3	96	48	1
STR	39	192	4
SI_	39	192	4	96	48	6
TAP	40	0	0
TAP	40	96	7
TAP	40	192	1
TAP	40	192	6
TAP	41	0	0
TAP	41	0	4
TAP	41	96	0
TAP	41	96	4
TAP	41	192	3
TAP	41	192	7
TAP	41	288	3
TAP	41	288	7
HLD	42	0	2	96
TAP	42	96	3
HLD	42	192	5	96
TAP	42	288	4
TAP	43	0	3
TAP	43	0	7
TAP	43	96	3
TAP	43	96	7
TAP	43	192	0
TAP	43	192	4
TAP	43	288	0
TAP	43	288	4
HLD	44	0	6	96
TAP	44	96	5
HLD	44	192	1	96
TAP	44	288	2
TAP	45	0	0
TAP	45	0	4
TAP	45	96	0
TAP	45	96	4
TAP	45	192	3
TAP	45	192	7
TAP	45	288	3
TAP	45	288	7
TAP	46	0	4
TAP	46	0	6
TAP	46	96	3
TAP	46	96	5
TAP	46	192	2
TAP	46	192	4
TAP	46	288	1
TAP	46	288	3
HLD	47	0	2	96
HLD	47	96	3	96
HLD	47	192	4	96
TAP	47	288	5
TAP	48	0	2
TAP	48	0	3
TAP	48	96	4
TAP	48	96	5
TAP	48	192	1
TAP	48	192	3
TAP	48	288	4
TAP	48	288	6
BST	49	0	0
SCR	49	0	0	96	192	3
BST	49	0	7
SCL	49	0	7	96	192	4
TAP	50	0	3
TAP	50	96	4
TAP	50	192	2
TAP	50	192	5
HLD	51	0	6	192
TAP	51	192	7
TAP	52	0	5
TAP	52	96	4
TAP	52	192	3
TAP	52	192	6
HLD	53	0	1	192
TAP	53	192	0
TAP	54	0	2
TAP	54	96	3
TAP	54	192	1
TAP	54	192	4
HLD	55	0	7	192
TAP	55	192	0
TAP	56	0	1
TAP	56	0	6
TAP	56	96	2
TAP	56	96	5
HLD	56	192	3	96
HLD	56	192	4	96
TAP	57	0	2
TAP	57	96	2
TAP	57	96	3
TAP	57	192	5
TAP	57	288	4
TAP	57	288	5
TAP	58	0	2
TAP	58	96	3
TAP	58	192	1
TAP	58	192	4
TAP	59	0	5
TAP	59	96	4
TAP	59	96	5
TAP	59	192	2
TAP	59	288	2
TAP	59	288	3
TAP	60	0	5
TAP	60	96	4
TAP	60	192	3
TAP	60	192	6
TAP	61	0	2
TAP	61	96	1
TAP	61	96	3
TAP	61	192	0
TAP	61	288	1
TAP	61	288	7
TAP	62	0	5
TAP	62	96	4
TAP	62	96	6
TAP	62	192	7
TAP	62	288	0
TAP	62	288	6
STR	63	0	4
SCR	63	0	4	96	432	3
TAP	64	288	0
TAP	64	288	7
TAP	65	0	1
TAP	65	96	0
TAP	65	96	1
TAP	65	192	6
TAP	65	288	6
TAP	65	288	7
TAP	66	0	1
TAP	66	96	0
TAP	66	96	1
TAP	66	192	2
TAP	66	240	2
TAP	66	288	3
TAP	67	0	6
TAP	67	96	6
TAP	67	96	7
TAP	67	192	1
TAP	67	288	0
TAP	67	288	1
TAP	68	0	6
TAP	68	96	6
TAP	68	96	7
TAP	68	192	5
TAP	68	240	5
TAP	68	288	4
TAP	69	0	3
TAP	69	96	2
TAP	69	96	3
TAP	69	192	4
TAP	69	288	4
TAP	69	288	5
TAP	70	0	3
TAP	70	96	2
TAP	70	96	3
TAP	70	192	1
TAP	70	240	1
TAP	70	288	0
TAP	71	0	4
TAP	71	96	4
TAP	71	96	5
TAP	71	192	3
TAP	71	288	2
TAP	71	288	3
TAP	72	0	4
TAP	72	96	4
TAP	72	96	5
TAP	72	192	6
TAP	72	192	7
TAP	72	288	0
TAP	72	288	1
TAP	73	0	3
TAP	73	96	1
TAP	73	96	3
TAP	73	192	4
TAP	73	288	4
TAP	73	288	6
TAP	74	0	3
TAP	74	96	1
TAP	74	96	3
TAP	74	192	0
TAP	74	240	0
TAP	74	288	7
TAP	75	0	4
TAP	75	96	4
TAP	75	96	6
TAP	75	192	3
TAP	75	288	1
TAP	75	288	3
TAP	76	0	4
TAP	76	96	4
TAP	76	96	6
TAP	76	192	7
TAP	76	240	7
TAP	76	288	0
TAP	77	0	1
TAP	77	96	0
TAP	77	96	2
TAP	77	192	6
TAP	77	288	5
TAP	77	288	7
TAP	78	0	1
TAP	78	96	0
TAP	78	96	2
TAP	78	192	7
TAP	78	240	7
TAP	78	288	0
TAP	79	0	6
TAP	79	96	5
TAP	79	96	7
TAP	79	192	1
TAP	79	288	0
TAP	79	288	2
TAP	80	0	6
TAP	80	96	5
TAP	80	96	7
TAP	80	192	3
TAP	80	192	4
TAP	80	288	1
TAP	80	288	6
TAP	81	0	2
TAP	81	96	1
TAP	81	96	4
TAP	81	192	5
TAP	81	288	3
TAP	81	288	6
TAP	82	0	2
TAP	82	96	1
TAP	82	96	4
TAP	82	192	0
TAP	82	240	0
TAP	82	288	7
TAP	83	0	5
TAP	83	96	3
TAP	83	96	6
TAP	83	192	2
TAP	83	288	1
TAP	83	288	4
TAP	84	0	5
TAP	84	96	3
TAP	84	96	6
TAP	84	192	7
TAP	84	240	7
TAP	84	288	0
TAP	85	0	6
TAP	85	96	0
TAP	85	96	5
TAP	85	192	1
TAP	85	288	2
TAP	85	288	7
TAP	86	0	6
TAP	86	96	0
TAP	86	96	5
TAP	86	192	2
TAP	86	192	7
STR	86	288	1
SCL	86	288	1	96	288	2
TAP	86	288	6
STR	88	48	4
SCR	88	48	4	96	144	7
TAP	89	0	3
TAP	89	0	7
TAP	89	96	3
TAP	89	96	7
TAP	89	192	0
TAP	89	192	4
TAP	89	288	0
TAP	89	288	4
HLD	90	0	1	96
TAP	90	96	0
HLD	90	192	6	96
TAP	90	288	7
TAP	91	0	0
TAP	91	0	4
TAP	91	96	0
TAP	91	96	4
TAP	91	192	3
TAP	91	192	7
TAP	91	288	3
TAP	91	288	7
HLD	92	0	5	96
TAP	92	96	7
HLD	92	192	2	96
TAP	92	288	0
TAP	93	0	3
TAP	93	0	7
TAP	93	96	3
TAP	93	96	7
TAP	93	192	0
TAP	93	192	4
TAP	93	288	0
TAP	93	288	4
TAP	94	0	1
TAP	94	0	3
TAP	94	96	2
TAP	94	96	4
TAP	94	192	3
TAP	94	192	5
TAP	94	288	4
TAP	94	288	6
HLD	95	0	5	96
HLD	95	96	4	96
HLD	95	192	3	96
TAP	95	288	2
TAP	96	0	0
TAP	96	0	1
TAP	96	96	6
TAP	96	96	7
TAP	96	192	0
TAP	96	192	2
TAP	96	288	5
TAP	96	288	7
BRK	97	0	1
BRK	97	0	6

T_REC_TAP	404
T_REC_BRK	6
T_REC_XTP	0
T_REC_HLD	21
T_REC_XHO	0
T_REC_STR	11
T_REC_BST	2
T_REC_XST	0
T_REC_TTP	0
T_REC_THO	0
T_REC_SLD	13
T_REC_ALL	457
T_NUM_TAP	415
T_NUM_BRK	8
T_NUM_HLD	21
T_NUM_SLD	13
T_NUM_ALL	457
T_JUDGE_TAP	423
T_JUDGE_HLD	48
T_JUDGE_SLD	13
T_JUDGE_ALL	484
TTM_EACHPAIRS	128
TTM_SCR_TAP	207500
TTM_SCR_BRK	20800
TTM_SCR_HLD	21000
TTM_SCR_SLD	19500
TTM_SCR_ALL	268800
TTM_SCR_S	260000
TTM_SCR_SS	268000
TTM_RAT_ACV	10029

