VERSION	0.00.00	1.03.00
FES_MODE	0
BPM_DEF	185.000	185.000	185.000	185.000
MET_DEF	4	4
RESOLUTION	384
CLK_DEF	384
COMPATIBLE_CODE	MA2

BPM	0	0	185.000
MET	0	0	4	4

TAP	5	0	3
TAP	5	192	3
TAP	6	0	2
TAP	6	192	2
TAP	7	0	1
TAP	7	192	1
HLD	8	0	0	288
HLD	8	0	7	288
TAP	9	0	0
TAP	9	0	7
TAP	9	192	0
TAP	9	192	7
TAP	10	0	6
TAP	10	96	6
TAP	10	192	6
TAP	11	0	6
TAP	11	0	7
TAP	11	192	6
TAP	11	192	7
TAP	12	0	5
TAP	12	96	5
TAP	12	192	5
TAP	13	0	4
TAP	13	0	5
TAP	13	192	4
TAP	13	192	5
TAP	14	0	3
TAP	14	96	3
TAP	14	192	3
TAP	15	0	3
TAP	15	0	4
TAP	15	192	3
TAP	15	192	4
TAP	16	0	3
TAP	16	96	4
TAP	16	192	3
TAP	17	0	3
TAP	17	0	4
TAP	17	192	3
TAP	17	192	4
TAP	18	0	2
TAP	18	96	2
TAP	18	192	2
TAP	19	0	2
TAP	19	0	3
TAP	19	192	2
TAP	19	192	3
TAP	20	0	1
TAP	20	96	1
TAP	20	192	1
TAP	21	0	0
TAP	21	0	1
TAP	21	192	0
TAP	21	192	1
TAP	22	0	7
TAP	22	96	7
TAP	22	192	7
TAP	23	0	0
TAP	23	0	7
TAP	23	192	0
TAP	23	192	7
TAP	24	0	0
TAP	24	96	7
BRK	24	192	0
STR	25	0	0
SI_	25	0	0	96	288	4
STR	27	0	6
SI_	27	0	6	96	288	3
STR	29	0	1
SI_	29	0	1	96	288	4
STR	31	0	7
SI_	31	0	7	96	288	3
TAP	33	0	0
TAP	33	192	0
TAP	34	0	1
TAP	34	96	1
TAP	34	192	1
TAP	35	0	2
TAP	35	192	2
TAP	36	0	2
TAP	36	0	3
TAP	36	96	2
TAP	36	96	3
TAP	36	192	2
TAP	36	192	3
TAP	37	0	4
TAP	37	192	4
TAP	38	0	5
TAP	38	96	5
TAP	38	192	5
TAP	39	0	6
TAP	39	192	6
TAP	40	0	6
TAP	40	0	7
TAP	40	96	6
TAP	40	96	7
TAP	40	192	6
TAP	40	192	7
TAP	41	0	6
TAP	41	0	7
TAP	41	192	0
TAP	41	192	1
TAP	42	0	6
TAP	42	0	7
TAP	42	96	6
TAP	42	96	7
TAP	42	192	6
TAP	42	192	7
TAP	43	0	0
TAP	43	0	1
TAP	43	192	6
TAP	43	192	7
TAP	44	0	0
TAP	44	0	1
TAP	44	96	0
TAP	44	96	1
TAP	44	192	0
TAP	44	192	1
TAP	45	0	2
TAP	45	0	3
TAP	45	192	4
TAP	45	192	5
TAP	46	0	2
TAP	46	0	3
TAP	46	96	2
TAP	46	96	3
TAP	46	192	2
TAP	46	192	3
TAP	47	0	4
TAP	47	0	5
TAP	47	192	2
TAP	47	192	3
HLD	48	0	4	288
HLD	48	0	5	288
TAP	49	0	5
TAP	49	192	5
TAP	50	0	4
TAP	50	192	4
TAP	51	0	3
TAP	51	192	3
HLD	52	0	2	192
TAP	53	0	3
TAP	53	192	3
TAP	54	0	4
TAP	54	192	4
TAP	55	0	5
TAP	55	192	5
HLD	56	0	6	192
TAP	57	0	7
TAP	57	96	7
TAP	57	192	7
TAP	58	0	6
TAP	58	96	6
TAP	58	192	6
TAP	59	0	5
TAP	59	96	5
TAP	59	192	5
TAP	60	0	4
TAP	60	96	4
TAP	60	192	3
TAP	60	192	4
TAP	61	0	2
TAP	61	0	3
TAP	61	96	2
TAP	61	96	3
TAP	61	192	2
TAP	61	192	3
TAP	62	0	4
TAP	62	0	5
TAP	62	96	4
TAP	62	96	5
TAP	62	192	4
TAP	62	192	5
STR	63	0	3
SI_	63	0	3	96	288	0
STR	63	0	4
SI_	63	0	4	96	288	7
TAP	65	0	0
TAP	65	0	1
TAP	65	192	2
TAP	66	0	3
TAP	66	96	3
TAP	66	192	3
TAP	67	0	4
TAP	67	0	5
TAP	67	192	6
TAP	68	0	7
TAP	68	96	7
TAP	68	192	7
TAP	69	0	6
TAP	69	0	7
TAP	69	192	5
TAP	70	0	4
TAP	70	96	4
TAP	70	192	4
TAP	71	0	2
TAP	71	0	3
TAP	71	192	1
TAP	72	0	0
TAP	72	96	0
BRK	72	192	0
TAP	73	0	0
TAP	73	0	1
TAP	73	192	2
TAP	73	192	3
TAP	74	0	4
TAP	74	96	4
TAP	74	192	4
TAP	75	0	6
TAP	75	0	7
TAP	75	192	4
TAP	75	192	5
TAP	76	0	3
TAP	76	96	3
TAP	76	192	3
TAP	77	0	2
TAP	77	0	3
TAP	77	192	0
TAP	77	192	1
TAP	78	0	7
TAP	78	96	7
TAP	78	192	7
TAP	79	0	4
TAP	79	0	5
TAP	79	192	6
TAP	79	192	7
TAP	80	0	0
TAP	80	96	0
BRK	80	192	0
TAP	81	0	0
TAP	81	96	0
TAP	81	192	1
TAP	81	288	1
TAP	82	0	2
TAP	82	96	2
TAP	82	192	3
TAP	82	192	4
TAP	83	0	4
TAP	83	96	4
TAP	83	192	5
TAP	83	288	5
TAP	84	0	6
TAP	84	96	6
TAP	84	192	0
TAP	84	192	7
TAP	85	0	7
TAP	85	96	7
TAP	85	192	6
TAP	85	288	6
TAP	86	0	5
TAP	86	96	5
TAP	86	192	3
TAP	86	192	4
STR	87	0	3
SI_	87	0	3	96	288	0
STR	87	0	4
SI_	87	0	4	96	288	7
TAP	89	0	0
TAP	89	0	1
TAP	89	192	6
TAP	89	192	7
TAP	90	0	0
TAP	90	0	1
TAP	90	96	0
TAP	90	96	1
TAP	90	192	0
TAP	90	192	1
TAP	91	0	6
TAP	91	0	7
TAP	91	192	0
TAP	91	192	1
TAP	92	0	6
TAP	92	0	7
TAP	92	96	6
TAP	92	96	7
TAP	92	192	6
TAP	92	192	7
TAP	93	0	4
TAP	93	0	5
TAP	93	192	2
TAP	93	192	3
TAP	94	0	4
TAP	94	0	5
TAP	94	96	4
TAP	94	96	5
TAP	94	192	4
TAP	94	192	5
TAP	95	0	2
TAP	95	0	3
TAP	95	192	4
TAP	95	192	5
HLD	96	0	2	288
HLD	96	0	3	288
BRK	97	0	2
BRK	97	0	3

T_REC_TAP	266
T_REC_BRK	5
T_REC_XTP	0
T_REC_HLD	8
T_REC_XHO	0
T_REC_STR	8
T_REC_BST	0
T_REC_XST	0
T_REC_TTP	0
T_REC_THO	0
T_REC_SLD	8
T_REC_ALL	295
T_NUM_TAP	274
T_NUM_BRK	5
T_NUM_HLD	8
T_NUM_SLD	8
T_NUM_ALL	295
T_JUDGE_TAP	279
T_JUDGE_HLD	44
T_JUDGE_SLD	8
T_JUDGE_ALL	331
TTM_EACHPAIRS	84
TTM_SCR_TAP	137000
TTM_SCR_BRK	13000
TTM_SCR_HLD	8000
TTM_SCR_SLD	12000
TTM_SCR_ALL	170000
TTM_SCR_S	164450
TTM_SCR_SS	169500
TTM_RAT_ACV	10029

