VERSION	0.00.00	1.03.00
FES_MODE	0
BPM_DEF	185.000	185.000	185.000	185.000
MET_DEF	4	4
RESOLUTION	384
CLK_DEF	384
COMPATIBLE_CODE	MA2

BPM	0	0	185.000
MET	0	0	4	4

TAP	1	0	1
TAP	1	96	0
TAP	1	192	7
TAP	1	240	7
TAP	1	336	0
TAP	1	336	6
TAP	2	48	4
TAP	2	96	3
TAP	2	144	2
TAP	2	192	1
TAP	2	192	6
TAP	2	240	7
TAP	2	264	0
TAP	2	288	6
TAP	2	312	1
TAP	2	336	5
TAP	2	360	2
TAP	3	0	3
TAP	3	0	4
TAP	3	48	2
TAP	3	48	5
STR	3	96	3
SI_	3	96	3	96	48	7
STR	3	96	4
SI_	3	96	4	96	48	6
BST	3	192	3
SI_	3	192	3	96	48	1
BST	3	192	4
SI_	3	192	4	96	48	0
BRK	3	288	3
BRK	3	288	4
TAP	4	0	3
TAP	4	0	4
TAP	4	48	2
TAP	4	48	5
STR	4	96	3
SUR	4	96	3	96	96	2
STR	4	96	4
SCR	4	96	4	96	96	1
TAP	5	0	0
TAP	5	0	7
TAP	5	48	1
TAP	5	48	6
TAP	5	96	0
TAP	5	96	7
TAP	5	192	3
TAP	5	240	5
TAP	5	288	0
TAP	5	312	7
TAP	5	336	0
TAP	5	360	7
TAP	6	0	0
TAP	6	48	1
TAP	6	48	6
TAP	6	96	0
TAP	6	96	7
TAP	6	192	7
TAP	6	240	2
TAP	6	288	0
TAP	6	336	5
TAP	7	0	3
TAP	7	0	4
TAP	7	48	2
TAP	7	48	5
STR	7	96	3
SI_	7	96	3	96	48	1
STR	7	96	4
SI_	7	96	4	96	48	0
BST	7	192	3
SI_	7	192	3	96	48	7
BST	7	192	4
SI_	7	192	4	96	48	6
BRK	7	288	3
BRK	7	288	4
TAP	8	0	3
TAP	8	0	4
TAP	8	48	2
TAP	8	48	5
STR	8	96	3
SCL	8	96	3	96	96	6
STR	8	96	4
SUL	8	96	4	96	96	5
STR	9	0	0
SI_	9	0	0	96	48	2
STR	9	0	7
SI_	9	0	7	96	48	3
TAP	9	96	0
TAP	9	96	7
STR	9	192	0
SI_	9	192	0	96	48	4
STR	9	192	7
SI_	9	192	7	96	48	5
TAP	9	288	0
TAP	9	288	7
TAP	10	0	2
TAP	10	48	3
TAP	10	96	4
TAP	10	144	5
TAP	10	192	1
TAP	10	192	6
TAP	10	240	0
TAP	10	264	7
TAP	10	288	1
TAP	10	312	6
TAP	10	336	2
TAP	10	360	5
TAP	11	0	3
TAP	11	0	4
TAP	11	48	1
TAP	11	48	6
STR	11	96	3
SCL	11	96	3	96	48	1
STR	11	96	4
SCR	11	96	4	96	48	6
BST	11	192	3
SI_	11	192	3	96	48	7
BST	11	192	4
SI_	11	192	4	96	48	0
BRK	11	288	3
BRK	11	288	4
TAP	12	0	3
TAP	12	0	4
TAP	12	48	1
TAP	12	72	0
TAP	12	96	1
TAP	12	120	0
TAP	12	144	1
TAP	12	192	6
TAP	12	216	7
TAP	12	240	6
TAP	12	264	7
TAP	12	288	6
TAP	13	0	0
TAP	13	0	7
TAP	13	48	2
TAP	13	48	5
TAP	13	96	0
TAP	13	96	7
TAP	13	192	4
TAP	13	240	2
TAP	13	288	7
TAP	13	312	0
TAP	13	336	7
TAP	13	360	0
TAP	14	0	1
TAP	14	0	6
TAP	14	48	5
TAP	14	72	4
TAP	14	96	5
TAP	14	120	4
TAP	14	144	5
TAP	14	192	2
TAP	14	216	3
TAP	14	240	2
TAP	14	264	3
TAP	14	288	2
STR	15	0	4
SUR	15	0	4	96	48	0
STR	15	0	5
SCR	15	0	5	96	48	7
BRK	15	96	4
BRK	15	96	5
TAP	15	192	1
TAP	15	240	1
TAP	15	288	6
TAP	15	288	7
STR	16	0	2
SCL	16	0	2	96	48	0
STR	16	0	3
SUL	16	0	3	96	48	7
BRK	16	96	2
BRK	16	96	3
TAP	16	192	6
TAP	16	240	6
TAP	16	288	0
TAP	16	288	1
TAP	17	0	4
TAP	17	0	5
TAP	17	48	2
TAP	17	96	0
TAP	17	144	0
TAP	17	192	2
TAP	17	192	3
TAP	17	240	5
TAP	17	288	7
TAP	17	336	7
TAP	18	0	4
TAP	18	24	3
TAP	18	48	5
TAP	18	72	2
TAP	18	96	6
TAP	18	120	1
TAP	18	144	7
TAP	18	168	0
TAP	18	192	7
TAP	18	216	6
TAP	18	240	5
TAP	18	264	4
TAP	18	288	3
TAP	18	312	2
TAP	18	336	1
TAP	18	360	0
HLD	19	0	3	288
STR	19	0	7
SCL	19	0	7	96	192	0
HLD	20	0	6	96
TAP	20	96	7
TAP	20	144	7
TAP	20	240	0
HLD	20	336	1	336
TAP	21	48	3
TAP	21	96	4
TAP	21	144	5
TAP	21	192	6
HLD	21	288	6	384
TAP	22	48	4
TAP	22	96	3
TAP	22	144	2
TAP	22	192	1
TAP	22	288	1
STR	23	0	0
SCR	23	0	0	96	192	7
HLD	23	0	4	288
HLD	24	0	1	96
TAP	24	96	0
TAP	24	144	0
TAP	24	240	7
HLD	24	336	6	336
TAP	25	48	4
TAP	25	96	3
TAP	25	144	2
TAP	25	192	1
TAP	25	288	1
HLD	26	0	0	96
TAP	26	96	7
TAP	26	144	7
TAP	26	240	6
TAP	26	336	5
HLD	27	0	5	192
TAP	27	48	4
TAP	27	96	3
TAP	27	144	2
HLD	27	192	1	192
TAP	27	240	0
TAP	27	288	7
TAP	27	336	6
HLD	28	0	5	96
TAP	28	96	7
TAP	28	144	5
TAP	28	144	7
TAP	28	240	0
TAP	28	240	4
TAP	28	336	1
TAP	28	336	3
HLD	29	0	2	192
TAP	29	48	3
TAP	29	96	4
TAP	29	144	5
TAP	29	192	6
TAP	29	288	6
TAP	29	288	7
HLD	30	0	5	192
TAP	30	48	4
TAP	30	96	3
TAP	30	144	2
TAP	30	192	1
TAP	30	288	0
TAP	30	288	1
HLD	31	0	2	192
TAP	31	48	3
TAP	31	96	4
TAP	31	144	5
HLD	31	192	6	192
TAP	31	240	7
TAP	31	288	0
TAP	31	336	1
HLD	32	0	2	96
TAP	32	96	0
TAP	32	144	0
TAP	32	144	2
TAP	32	240	3
TAP	32	240	7
TAP	32	336	4
TAP	32	336	6
HLD	33	0	5	192
TAP	33	48	4
TAP	33	96	3
TAP	33	144	2
TAP	33	192	1
TAP	33	288	0
TAP	33	288	1
TAP	34	0	6
TAP	34	0	7
TAP	34	96	0
TAP	34	144	0
TAP	34	240	2
TAP	34	336	3
TAP	35	0	4
TAP	35	0	5
TAP	35	48	4
TAP	35	48	5
TAP	35	96	3
TAP	35	96	6
TAP	35	144	3
TAP	35	144	6
TAP	35	192	2
TAP	35	192	7
TAP	35	240	2
TAP	35	240	7
TAP	35	288	0
TAP	35	288	1
TAP	35	336	0
TAP	35	336	1
TAP	36	0	6
TAP	36	24	7
TAP	36	48	5
TAP	36	72	0
TAP	36	96	4
TAP	36	120	1
TAP	36	144	3
TAP	36	168	2
STR	36	192	3
SF_	36	192	3	96	48	7
BRK	36	288	3
TAP	37	0	1
TAP	37	0	5
TAP	37	48	6
TAP	37	72	7
TAP	37	96	6
TAP	37	144	0
STR	37	144	7
SI_	37	144	7	96	48	3
STR	37	240	1
SI_	37	240	1	96	48	5
TAP	37	240	7
TAP	37	336	0
TAP	37	336	1
TAP	38	48	4
TAP	38	96	2
TAP	38	120	3
TAP	38	144	2
TAP	38	192	1
TAP	38	192	4
TAP	38	288	3
TAP	38	288	7
TAP	39	0	2
TAP	39	0	6
TAP	39	48	1
TAP	39	72	0
TAP	39	96	1
STR	39	144	0
SI_	39	144	0	96	48	4
TAP	39	144	7
TAP	39	240	0
STR	39	240	6
SI_	39	240	6	96	48	2
TAP	39	336	6
TAP	39	336	7
TAP	40	48	1
TAP	40	96	0
TAP	40	96	1
TAP	40	144	0
TAP	40	144	1
TAP	40	192	6
TAP	40	192	7
TAP	40	240	6
TAP	40	240	7
TAP	40	288	4
TAP	40	288	5
TAP	41	0	2
TAP	41	0	6
TAP	41	48	1
TAP	41	72	0
TAP	41	96	1
STR	41	144	0
SI_	41	144	0	96	48	4
TAP	41	144	7
TAP	41	240	0
STR	41	240	6
SI_	41	240	6	96	48	2
TAP	41	336	6
TAP	41	336	7
TAP	42	48	3
TAP	42	96	5
TAP	42	120	4
TAP	42	144	5
TAP	42	192	3
TAP	42	192	6
TAP	42	288	0
TAP	42	288	4
TAP	43	0	1
TAP	43	0	5
TAP	43	48	6
TAP	43	72	7
TAP	43	96	6
TAP	43	144	0
STR	43	144	7
SI_	43	144	7	96	48	3
STR	43	240	1
SI_	43	240	1	96	48	5
TAP	43	240	7
TAP	43	336	0
TAP	43	336	1
TAP	44	48	0
TAP	44	96	7
TAP	44	144	6
STR	44	192	4
SI_	44	192	4	96	48	1
STR	44	192	5
SI_	44	192	5	96	48	0
BRK	44	288	4
BRK	44	288	5
TAP	45	0	2
TAP	45	0	7
TAP	45	48	5
TAP	45	72	4
TAP	45	96	5
TAP	45	144	0
TAP	45	144	7
TAP	45	192	2
TAP	45	216	3
TAP	45	240	2
TAP	45	288	7
TAP	45	336	7
TAP	46	0	3
TAP	46	0	6
TAP	46	48	1
TAP	46	72	0
TAP	46	96	1
TAP	46	144	3
TAP	46	144	4
TAP	46	192	6
TAP	46	216	7
TAP	46	240	6
TAP	46	288	3
TAP	46	336	3
TAP	47	0	2
TAP	47	0	7
TAP	47	48	5
TAP	47	72	4
TAP	47	96	5
TAP	47	144	0
TAP	47	144	7
TAP	47	192	2
TAP	47	216	3
TAP	47	240	2
TAP	47	288	7
TAP	47	336	7
TAP	48	0	0
TAP	48	48	1
TAP	48	48	5
TAP	48	96	2
TAP	48	96	6
TAP	48	144	3
TAP	48	144	7
TAP	48	192	0
TAP	48	192	4
TAP	48	240	3
TAP	48	240	7
TAP	48	288	2
TAP	48	288	6
TAP	49	0	1
TAP	49	0	4
TAP	49	48	6
TAP	49	72	7
TAP	49	96	6
TAP	49	144	3
TAP	49	144	4
TAP	49	192	1
TAP	49	216	0
TAP	49	240	1
TAP	49	288	4
TAP	49	336	4
TAP	50	0	0
TAP	50	0	5
TAP	50	48	2
TAP	50	72	3
TAP	50	96	2
TAP	50	144	0
TAP	50	144	7
TAP	50	192	5
TAP	50	216	4
TAP	50	240	5
TAP	50	288	0
TAP	50	336	0
TAP	51	0	1
TAP	51	0	4
TAP	51	48	6
TAP	51	72	7
TAP	51	96	6
TAP	51	144	3
TAP	51	144	4
TAP	51	192	1
TAP	51	216	0
TAP	51	240	1
TAP	51	288	4
TAP	51	336	4
TAP	52	0	3
TAP	52	48	2
TAP	52	48	6
TAP	52	96	1
TAP	52	96	5
TAP	52	144	0
TAP	52	144	4
TAP	52	192	3
TAP	52	192	7
TAP	52	240	0
TAP	52	240	4
TAP	52	288	1
TAP	52	288	5
TAP	53	0	2
TAP	53	0	7
STR	53	48	0
SXR	53	48	0	96	528	5
STR	53	48	1
SXL	53	48	1	96	528	4
BRK	53	144	0
BRK	53	144	1
TAP	55	0	6
TAP	55	96	0
TAP	55	96	1
TAP	55	144	0
TAP	55	144	1
TAP	55	192	3
TAP	55	288	6
TAP	55	288	7
TAP	56	0	4
TAP	56	96	0
TAP	56	96	2
TAP	56	144	0
TAP	56	144	2
TAP	56	192	3
TAP	56	288	5
TAP	56	288	7
BRK	57	0	2
BRK	57	0	3
TAP	57	48	1
TAP	57	96	0
TAP	57	96	7
TAP	57	144	6
STR	57	192	5
SCR	57	192	5	96	48	0
TAP	57	216	4
TAP	57	240	3
BRK	58	0	4
BRK	58	0	5
TAP	58	48	6
TAP	58	96	0
TAP	58	96	7
TAP	58	144	1
STR	58	192	2
SCL	58	192	2	96	48	7
TAP	58	216	3
TAP	58	240	4
TAP	59	0	1
TAP	59	0	3
TAP	59	48	2
TAP	59	96	4
TAP	59	96	6
TAP	59	144	5
TAP	59	192	0
TAP	59	216	7
TAP	59	240	0
TAP	59	264	7
STR	59	288	0
SI_	59	288	0	96	48	4
STR	60	0	6
SI_	60	0	6	96	48	3
STR	60	96	1
SI_	60	96	1	96	48	4
STR	60	192	7
SF_	60	192	7	96	48	3
TAP	61	0	0
TAP	61	0	1
TAP	61	72	7
TAP	61	96	7
TAP	61	144	2
TAP	61	192	5
TAP	61	216	4
TAP	61	240	5
TAP	61	264	4
TAP	61	288	5
TAP	61	336	3
TAP	61	336	6
TAP	62	48	0
TAP	62	48	1
TAP	62	96	0
TAP	62	96	1
TAP	62	144	2
TAP	62	144	7
TAP	62	192	3
TAP	62	192	6
TAP	62	240	5
TAP	62	264	4
TAP	62	288	5
TAP	62	336	2
STR	63	0	5
SCL	63	0	5	96	72	2
TAP	63	96	0
TAP	63	144	0
TAP	63	192	0
TAP	63	240	0
TAP	63	288	1
TAP	63	336	1
STR	64	0	1
SCL	64	0	1	96	72	6
TAP	64	96	5
TAP	64	144	5
TAP	64	192	5
TAP	64	240	5
TAP	64	264	4
TAP	64	288	5
TAP	65	0	6
TAP	65	0	7
TAP	65	72	0
TAP	65	96	0
TAP	65	144	5
TAP	65	192	2
TAP	65	216	3
TAP	65	240	2
TAP	65	264	3
TAP	65	288	2
TAP	65	336	1
TAP	65	336	4
TAP	66	48	6
TAP	66	48	7
TAP	66	96	6
TAP	66	96	7
TAP	66	144	0
TAP	66	144	5
TAP	66	192	1
TAP	66	192	4
TAP	66	240	2
TAP	66	264	3
TAP	66	288	2
TAP	66	336	5
STR	67	0	2
SCR	67	0	2	96	72	5
TAP	67	96	7
TAP	67	144	7
TAP	67	192	7
TAP	67	240	7
TAP	67	288	6
TAP	67	336	6
STR	68	0	6
SCR	68	0	6	96	72	1
TAP	68	96	2
TAP	68	144	2
TAP	68	192	2
TAP	68	240	2
TAP	68	264	3
TAP	68	288	2
STR	69	0	6
SI_	69	0	6	96	48	3
TAP	69	0	7
STR	69	96	0
SI_	69	96	0	96	48	4
TAP	69	96	6
TAP	69	192	0
STR	69	192	7
SI_	69	192	7	96	48	3
STR	69	288	1
SI_	69	288	1	96	48	4
TAP	69	288	7
TAP	70	0	1
STR	70	0	6
SI_	70	0	6	96	48	3
STR	70	96	0
SI_	70	96	0	96	48	4
TAP	70	96	6
TAP	70	192	0
STR	70	192	7
SI_	70	192	7	96	48	3
BRK	70	288	7
TAP	71	0	0
STR	71	0	1
SI_	71	0	1	96	48	4
TAP	71	96	1
STR	71	96	7
SI_	71	96	7	96	48	3
STR	71	192	0
SI_	71	192	0	96	48	4
TAP	71	192	7
TAP	71	288	0
STR	71	288	6
SI_	71	288	6	96	48	3
STR	72	0	1
SI_	72	0	1	96	48	4
TAP	72	0	6
TAP	72	96	1
STR	72	96	7
SI_	72	96	7	96	48	3
STR	72	192	0
SI_	72	192	0	96	48	4
TAP	72	192	7
BRK	72	288	0
STR	73	0	6
SI_	73	0	6	96	48	3
BRK	73	96	6
BRK	73	96	7
STR	73	192	2
SI_	73	192	2	96	48	7
BRK	73	288	2
BRK	73	288	3
STR	74	0	5
SI_	74	0	5	96	48	0
BRK	74	96	4
BRK	74	96	5
STR	74	192	1
SI_	74	192	1	96	48	4
BRK	74	288	0
BRK	74	288	1
STR	75	0	6
SI_	75	0	6	96	48	3
TAP	75	72	6
STR	75	96	1
SI_	75	96	1	96	48	4
TAP	75	168	1
STR	75	192	7
SI_	75	192	7	96	48	3
TAP	75	264	7
STR	75	288	0
SI_	75	288	0	96	48	4
TAP	75	360	0
TAP	76	0	6
STR	76	96	7
SF_	76	96	7	96	96	3
STR	77	0	1
SI_	77	0	1	96	144	5
TAP	77	48	0
TAP	77	96	7
TAP	77	144	6
TAP	77	240	6
TAP	77	336	0
TAP	78	48	2
TAP	78	96	3
TAP	78	144	4
TAP	78	192	5
TAP	78	240	6
HLD	78	336	6	336
TAP	79	48	2
TAP	79	96	1
TAP	79	144	0
STR	79	192	7
SI_	79	192	7	96	48	3
TAP	79	288	7
TAP	80	48	5
TAP	80	96	6
TAP	80	144	7
STR	80	192	0
SI_	80	192	0	96	48	4
TAP	80	288	0
STR	81	0	6
SI_	81	0	6	96	144	2
TAP	81	48	7
TAP	81	96	0
TAP	81	144	1
TAP	81	240	1
TAP	81	336	7
TAP	82	48	5
TAP	82	96	4
TAP	82	144	3
TAP	82	192	2
TAP	82	240	1
HLD	82	336	1	336
TAP	83	48	5
TAP	83	96	6
TAP	83	144	7
STR	83	192	0
SI_	83	192	0	96	48	4
TAP	83	288	0
TAP	84	48	3
TAP	84	96	2
TAP	84	144	1
TAP	84	192	0
TAP	84	192	4
TAP	84	240	5
TAP	84	288	6
TAP	84	336	7
TAP	85	0	0
TAP	85	0	1
STR	85	48	2
SI_	85	48	2	96	48	0
TAP	85	96	2
STR	85	192	6
SI_	85	192	6	96	48	4
TAP	85	240	6
TAP	85	336	0
STR	86	48	1
SI_	86	48	1	96	48	3
TAP	86	96	1
STR	86	192	5
SI_	86	192	5	96	48	7
TAP	86	240	5
TAP	86	336	3
STR	87	48	2
SI_	87	48	2	96	48	0
TAP	87	96	2
STR	87	192	6
SI_	87	192	6	96	48	4
TAP	87	240	6
TAP	87	336	2
TAP	88	0	1
HLD	88	48	1	96
TAP	88	96	0
HLD	88	144	0	96
TAP	88	192	7
HLD	88	240	7	48
TAP	88	288	6
TAP	89	0	6
TAP	89	0	7
STR	89	48	5
SI_	89	48	5	96	48	7
TAP	89	96	5
STR	89	192	1
SI_	89	192	1	96	48	3
TAP	89	240	1
TAP	89	336	7
STR	90	48	6
SI_	90	48	6	96	48	4
TAP	90	96	6
STR	90	192	2
SI_	90	192	2	96	48	0
TAP	90	240	2
TAP	90	336	4
STR	91	48	5
SI_	91	48	5	96	48	7
TAP	91	96	5
STR	91	192	1
SI_	91	192	1	96	48	3
TAP	91	240	1
TAP	91	336	5
TAP	92	0	6
HLD	92	48	6	96
TAP	92	96	7
HLD	92	144	7	48
STR	92	192	0
SF_	92	192	0	96	48	4
BRK	92	288	0
TAP	93	0	2
TAP	93	0	6
TAP	93	48	1
TAP	93	72	0
TAP	93	96	1
TAP	93	144	2
STR	93	144	7
SI_	93	144	7	96	48	3
STR	93	240	1
SCR	93	240	1	96	48	4
TAP	93	240	7
TAP	93	336	0
TAP	93	336	1
TAP	94	48	6
TAP	94	96	2
TAP	94	120	3
TAP	94	144	2
TAP	94	192	1
TAP	94	192	4
TAP	94	288	3
TAP	94	288	7
TAP	95	0	1
TAP	95	0	5
TAP	95	48	6
TAP	95	72	7
TAP	95	96	6
STR	95	144	0
SI_	95	144	0	96	48	4
TAP	95	144	5
TAP	95	240	0
STR	95	240	6
SCL	95	240	6	96	48	3
TAP	95	336	6
TAP	95	336	7
TAP	96	48	1
TAP	96	96	0
TAP	96	96	1
TAP	96	144	0
TAP	96	144	1
TAP	96	192	2
TAP	96	192	3
TAP	96	240	2
TAP	96	240	3
TAP	96	288	4
TAP	96	288	5
TAP	97	0	2
TAP	97	0	6
TAP	97	48	1
TAP	97	72	0
TAP	97	96	1
TAP	97	144	2
STR	97	144	7
SI_	97	144	7	96	48	3
STR	97	240	1
SCR	97	240	1	96	48	4
TAP	97	240	7
TAP	97	336	0
TAP	97	336	1
TAP	98	48	6
TAP	98	96	2
TAP	98	120	3
TAP	98	144	2
TAP	98	192	1
TAP	98	192	4
TAP	98	288	3
TAP	98	288	7
TAP	99	0	1
TAP	99	0	5
TAP	99	48	6
TAP	99	72	7
TAP	99	96	6
STR	99	144	0
SI_	99	144	0	96	48	4
TAP	99	144	5
TAP	99	240	0
STR	99	240	6
SCL	99	240	6	96	48	3
TAP	99	336	6
TAP	99	336	7
TAP	100	48	7
TAP	100	96	0
TAP	100	144	1
STR	100	192	2
SI_	100	192	2	96	48	7
STR	100	192	3
SI_	100	192	3	96	48	6
BRK	100	288	2
BRK	100	288	3
TAP	101	0	0
STR	101	0	1
SI_	101	0	1	96	48	5
STR	101	96	0
SI_	101	96	0	96	48	4
TAP	101	96	1
TAP	101	192	0
STR	101	192	7
SI_	101	192	7	96	48	3
STR	101	288	6
SI_	101	288	6	96	48	2
TAP	101	288	7
TAP	102	0	6
STR	102	0	7
SI_	102	0	7	96	48	3
STR	102	96	0
SI_	102	96	0	96	48	4
TAP	102	96	7
TAP	102	192	0
STR	102	192	1
SI_	102	192	1	96	48	5
BRK	102	288	1
STR	103	0	6
SI_	103	0	6	96	48	2
TAP	103	0	7
TAP	103	96	6
STR	103	96	7
SI_	103	96	7	96	48	3
STR	103	192	0
SI_	103	192	0	96	48	4
TAP	103	192	7
TAP	103	288	0
STR	103	288	1
SI_	103	288	1	96	48	5
STR	104	0	0
SI_	104	0	0	96	48	4
TAP	104	0	1
TAP	104	96	0
STR	104	96	7
SI_	104	96	7	96	48	3
STR	104	192	6
SI_	104	192	6	96	48	2
TAP	104	192	7
BRK	104	288	6
STR	105	0	0
SI_	105	0	0	96	48	4
STR	105	0	1
SI_	105	0	1	96	48	5
STR	105	96	0
SCL	105	96	0	96	48	6
STR	105	96	1
SCR	105	96	1	96	48	3
STR	105	192	0
SI_	105	192	0	96	48	5
STR	105	192	1
SI_	105	192	1	96	48	4
BRK	105	288	0
BRK	105	288	1
STR	106	0	6
SI_	106	0	6	96	48	2
STR	106	0	7
SI_	106	0	7	96	48	3
STR	106	96	6
SCL	106	96	6	96	48	4
STR	106	96	7
SCR	106	96	7	96	48	1
STR	106	192	6
SI_	106	192	6	96	48	3
STR	106	192	7
SI_	106	192	7	96	48	2
BRK	106	288	6
BRK	106	288	7
TAP	107	0	0
TAP	107	0	7
TAP	107	48	0
TAP	107	48	7
TAP	107	96	1
TAP	107	96	6
TAP	107	144	1
TAP	107	144	6
TAP	107	192	2
TAP	107	192	5
TAP	107	240	2
TAP	107	240	5
TAP	107	288	3
TAP	107	288	4
TAP	107	336	3
TAP	107	336	4
TAP	108	0	4
TAP	108	24	3
TAP	108	48	5
TAP	108	72	2
TAP	108	96	6
TAP	108	120	1
TAP	108	144	7
TAP	108	168	0
STR	108	192	7
SF_	108	192	7	96	48	3
BRK	108	288	7
TAP	109	0	0
TAP	109	48	7
HLD	109	144	7	144
TAP	109	288	0
TAP	109	300	1
TAP	109	312	2
TAP	109	324	3
TAP	109	336	4
TAP	109	348	5
TAP	109	360	6
TAP	109	372	7
BST	110	0	0
SF_	110	0	0	96	288	4

T_REC_TAP	719
T_REC_BRK	39
T_REC_XTP	0
T_REC_HLD	25
T_REC_XHO	0
T_REC_STR	121
T_REC_BST	7
T_REC_XST	0
T_REC_TTP	0
T_REC_THO	0
T_REC_SLD	128
T_REC_ALL	1039
T_NUM_TAP	840
T_NUM_BRK	46
T_NUM_HLD	25
T_NUM_SLD	128
T_NUM_ALL	1039
T_JUDGE_TAP	886
T_JUDGE_HLD	97
T_JUDGE_SLD	128
T_JUDGE_ALL	1111
TTM_EACHPAIRS	222
TTM_SCR_TAP	420000
TTM_SCR_BRK	119600
TTM_SCR_HLD	25000
TTM_SCR_SLD	192000
TTM_SCR_ALL	756600
TTM_SCR_S	729450
TTM_SCR_SS	752000
TTM_RAT_ACV	10061

