VERSION	0.00.00	1.03.00
FES_MODE	0
BPM_DEF	185.000	185.000	185.000	185.000
MET_DEF	4	4
RESOLUTION	384
CLK_DEF	384
COMPATIBLE_CODE	MA2

BPM	0	0	185.000
MET	0	0	4	4

TAP	1	0	0
TAP	1	96	1
TAP	1	192	2
TAP	1	288	3
TAP	2	0	4
TAP	2	96	5
STR	2	192	6
SI_	2	192	6	96	48	3
STR	2	192	7
SI_	2	192	7	96	48	2
TAP	3	0	4
TAP	3	0	5
TAP	3	96	4
TAP	3	96	5
TAP	3	192	0
TAP	3	192	1
TAP	3	288	0
TAP	3	288	1
TAP	4	0	4
TAP	4	0	5
TAP	4	96	4
TAP	4	96	5
TAP	4	192	2
TAP	4	192	7
TAP	5	0	2
TAP	5	0	3
TAP	5	96	2
TAP	5	96	3
TAP	5	192	6
TAP	5	192	7
TAP	5	288	6
TAP	5	288	7
TAP	6	0	2
TAP	6	0	3
TAP	6	96	2
TAP	6	96	3
TAP	6	192	0
TAP	6	192	5
TAP	7	0	4
TAP	7	0	5
TAP	7	96	4
TAP	7	96	5
TAP	7	192	0
TAP	7	192	1
TAP	7	288	0
TAP	7	288	1
TAP	8	0	4
TAP	8	0	5
TAP	8	96	4
TAP	8	96	5
TAP	8	192	2
TAP	8	192	7
TAP	9	0	2
TAP	9	0	3
TAP	9	96	1
TAP	9	96	4
TAP	9	192	4
TAP	9	192	5
TAP	9	288	3
TAP	9	288	6
TAP	10	0	0
TAP	10	0	7
STR	10	96	1
SI_	10	96	1	96	48	4
STR	10	96	6
SI_	10	96	6	96	48	3
TAP	11	0	4
TAP	11	0	5
TAP	11	96	3
TAP	11	96	6
TAP	11	192	0
TAP	11	192	1
TAP	11	288	2
TAP	11	288	7
TAP	12	0	4
TAP	12	0	5
TAP	12	96	3
TAP	12	96	6
HLD	12	192	0	96
HLD	12	192	1	96
TAP	13	0	2
TAP	13	0	3
TAP	13	96	1
TAP	13	96	4
TAP	13	192	6
TAP	13	192	7
TAP	13	288	0
TAP	13	288	5
TAP	14	0	2
TAP	14	0	3
TAP	14	96	1
TAP	14	96	4
HLD	14	192	6	96
HLD	14	192	7	96
TAP	15	0	4
TAP	15	0	5
HLD	15	96	3	96
TAP	15	96	6
TAP	15	192	2
TAP	15	288	1
TAP	15	288	4
TAP	16	0	2
TAP	16	0	3
TAP	16	96	1
HLD	16	96	4	96
TAP	16	192	5
TAP	16	288	3
TAP	16	288	6
TAP	17	0	4
TAP	17	0	5
TAP	17	96	3
TAP	17	96	6
TAP	17	192	2
TAP	17	192	3
TAP	17	288	1
TAP	17	288	4
TAP	18	0	2
TAP	18	48	4
TAP	18	96	3
TAP	18	144	5
TAP	18	192	2
TAP	18	240	4
TAP	18	288	3
TAP	18	336	5
STR	19	0	2
SUR	19	0	2	96	192	5
TAP	20	0	7
TAP	20	96	6
TAP	20	144	6
TAP	20	240	5
STR	20	336	5
SXR	20	336	5	96	240	2
TAP	22	192	0
TAP	22	288	0
STR	23	0	6
SUR	23	0	6	96	192	1
TAP	24	0	3
TAP	24	96	2
TAP	24	144	2
TAP	24	240	1
STR	24	336	1
SXR	24	336	1	96	240	6
TAP	26	0	4
TAP	26	96	2
TAP	26	144	2
TAP	26	240	5
TAP	26	336	0
STR	27	0	0
SUL	27	0	0	96	192	5
TAP	28	0	7
TAP	28	96	0
TAP	28	144	0
TAP	28	240	4
STR	28	336	4
SXR	28	336	4	96	240	1
TAP	30	192	0
TAP	30	288	0
STR	31	0	7
SUR	31	0	7	96	192	2
TAP	32	0	0
TAP	32	96	7
TAP	32	144	7
TAP	32	240	3
STR	32	336	3
SXL	32	336	3	96	240	6
TAP	34	0	7
TAP	34	96	0
TAP	34	144	0
TAP	34	240	6
TAP	34	336	1
TAP	35	0	7
TAP	35	48	7
TAP	35	96	1
TAP	35	144	1
TAP	35	192	5
TAP	35	240	5
TAP	35	288	3
TAP	35	336	3
TAP	36	0	4
TAP	36	48	3
TAP	36	96	5
TAP	36	144	2
TAP	36	192	6
BRK	36	288	0
BRK	36	288	7
STR	37	0	0
SI_	37	0	0	96	48	4
TAP	37	96	7
STR	37	192	7
SI_	37	192	7	96	48	3
TAP	37	288	0
STR	38	0	0
SUR	38	0	0	96	48	4
TAP	38	96	7
STR	38	192	7
SUL	38	192	7	96	48	3
TAP	38	288	0
STR	39	0	0
SCR	39	0	0	96	48	3
TAP	39	96	7
STR	39	192	7
SCL	39	192	7	96	48	4
TAP	39	288	0
TAP	40	0	0
TAP	40	96	1
TAP	40	96	7
TAP	40	192	4
TAP	40	240	3
TAP	40	288	4
STR	41	0	6
SI_	41	0	6	96	48	3
TAP	41	96	1
STR	41	192	1
SI_	41	192	1	96	48	4
TAP	41	288	6
STR	42	0	6
SV_	42	0	6	96	48	3
TAP	42	96	1
STR	42	192	1
SV_	42	192	1	96	48	4
TAP	42	288	6
STR	43	0	6
SCL	43	0	6	96	48	3
TAP	43	96	1
STR	43	192	1
SCR	43	192	1	96	48	4
TAP	43	288	6
TAP	44	0	6
TAP	44	96	5
TAP	44	96	7
TAP	44	192	3
TAP	44	240	4
TAP	44	288	3
STR	45	0	3
SI_	45	0	3	96	48	7
TAP	45	96	4
STR	45	192	4
SI_	45	192	4	96	48	0
TAP	45	288	3
STR	46	0	3
SUL	46	0	3	96	48	7
TAP	46	96	4
STR	46	192	4
SUR	46	192	4	96	48	0
TAP	46	288	3
STR	47	0	3
SCL	47	0	3	96	48	0
TAP	47	96	4
STR	47	192	4
SCR	47	192	4	96	48	7
TAP	47	288	3
TAP	48	0	3
TAP	48	96	2
TAP	48	96	4
TAP	48	192	7
TAP	48	240	0
TAP	48	288	7
STR	49	0	5
SI_	49	0	5	96	48	0
TAP	49	96	2
STR	49	192	2
SI_	49	192	2	96	48	7
TAP	49	288	5
STR	50	0	5
SV_	50	0	5	96	48	0
TAP	50	96	2
STR	50	192	2
SV_	50	192	2	96	48	7
TAP	50	288	5
STR	51	0	5
SCR	51	0	5	96	48	0
TAP	51	96	2
STR	51	192	2
SCL	51	192	2	96	48	7
TAP	51	288	5
TAP	52	0	5
TAP	52	96	4
TAP	52	96	6
TAP	52	192	0
TAP	52	240	7
TAP	52	288	0
TAP	53	0	3
TAP	53	0	4
TAP	53	96	2
TAP	53	144	3
TAP	53	288	1
TAP	53	288	4
TAP	54	96	5
TAP	54	144	4
TAP	54	288	3
TAP	54	288	6
TAP	55	96	2
TAP	55	144	3
TAP	55	288	1
TAP	55	288	4
TAP	56	96	5
TAP	56	144	4
TAP	56	288	3
TAP	56	288	6
TAP	57	0	2
TAP	57	0	3
TAP	57	96	6
TAP	57	144	7
TAP	57	192	6
TAP	57	288	0
TAP	57	288	5
TAP	58	0	4
TAP	58	0	5
TAP	58	96	1
TAP	58	144	0
TAP	58	192	1
TAP	58	288	2
TAP	58	288	7
TAP	59	0	1
TAP	59	0	4
TAP	59	96	3
TAP	59	96	6
TAP	59	192	0
TAP	59	192	7
TAP	59	240	1
TAP	59	240	6
TAP	59	288	2
TAP	59	288	5
STR	60	0	3
SXR	60	0	3	96	96	2
STR	60	0	4
SXL	60	0	4	96	96	5
TAP	60	288	0
TAP	60	288	7
STR	61	0	6
SI_	61	0	6	96	48	3
TAP	61	0	7
TAP	61	96	7
TAP	61	192	0
STR	61	192	1
SI_	61	192	1	96	48	4
TAP	61	288	0
STR	62	0	6
SI_	62	0	6	96	48	3
TAP	62	0	7
TAP	62	96	7
TAP	62	192	0
STR	62	192	1
SI_	62	192	1	96	48	4
TAP	62	288	0
TAP	63	0	6
TAP	63	0	7
TAP	63	96	0
TAP	63	96	5
TAP	63	192	2
TAP	63	240	4
TAP	63	288	3
TAP	64	0	0
TAP	64	0	1
TAP	64	96	2
TAP	64	96	7
TAP	64	192	5
TAP	64	240	3
TAP	64	288	4
TAP	65	0	6
STR	65	0	7
SI_	65	0	7	96	48	3
TAP	65	96	6
STR	65	192	0
SI_	65	192	0	96	48	4
TAP	65	192	1
TAP	65	288	1
TAP	66	0	6
STR	66	0	7
SI_	66	0	7	96	48	3
TAP	66	96	6
STR	66	192	0
SI_	66	192	0	96	48	4
TAP	66	192	1
TAP	66	288	1
TAP	67	0	6
TAP	67	0	7
TAP	67	96	0
TAP	67	96	5
TAP	67	192	2
TAP	67	240	4
TAP	67	288	3
TAP	68	0	0
TAP	68	0	1
TAP	68	96	2
TAP	68	96	7
TAP	68	192	5
TAP	68	240	3
TAP	68	288	4
STR	69	0	3
SI_	69	0	3	96	48	0
STR	69	0	5
SI_	69	0	5	96	48	0
STR	69	192	2
SI_	69	192	2	96	48	7
STR	69	192	4
SI_	69	192	4	96	48	7
STR	70	0	3
SI_	70	0	3	96	48	0
STR	70	0	5
SI_	70	0	5	96	48	0
STR	70	192	2
SI_	70	192	2	96	48	7
STR	70	192	4
SI_	70	192	4	96	48	7
STR	71	0	4
SI_	71	0	4	96	48	0
STR	71	0	5
SI_	71	0	5	96	48	0
STR	71	192	2
SI_	71	192	2	96	48	7
STR	71	192	3
SI_	71	192	3	96	48	7
STR	72	0	4
SI_	72	0	4	96	48	0
STR	72	0	5
SI_	72	0	5	96	48	0
STR	72	192	2
SI_	72	192	2	96	48	7
STR	72	192	3
SI_	72	192	3	96	48	7
HLD	73	0	5	72
TAP	73	72	4
TAP	73	96	5
HLD	73	192	2	72
TAP	73	264	3
TAP	73	288	2
HLD	74	0	6	72
TAP	74	72	7
TAP	74	96	6
HLD	74	192	1	72
TAP	74	264	0
TAP	74	288	1
HLD	75	0	4	72
TAP	75	72	5
TAP	75	96	4
TAP	75	168	4
TAP	75	192	3
TAP	75	264	3
TAP	75	288	2
TAP	75	360	2
TAP	76	0	1
STR	76	96	0
SF_	76	96	0	96	48	4
TAP	76	96	7
HLD	77	0	1	384
TAP	77	192	2
HLD	78	0	2	384
TAP	78	192	3
STR	79	0	3
SCL	79	0	3	96	288	4
HLD	81	0	6	384
TAP	81	192	5
HLD	82	0	5	384
TAP	82	192	4
STR	83	0	4
SCR	83	0	4	96	288	3
TAP	85	0	2
TAP	85	96	3
TAP	85	192	2
HLD	85	192	4	96
TAP	85	288	5
TAP	86	0	5
TAP	86	96	4
HLD	86	192	3	96
TAP	86	192	5
TAP	86	288	2
TAP	87	0	2
TAP	87	96	3
TAP	87	192	2
HLD	87	192	4	96
TAP	87	288	5
TAP	88	0	5
TAP	88	96	3
TAP	88	96	4
TAP	88	192	2
TAP	88	192	5
TAP	89	0	1
TAP	89	96	0
TAP	89	192	1
HLD	89	192	7	96
TAP	89	288	6
TAP	90	0	6
TAP	90	96	7
HLD	90	192	0	96
TAP	90	192	6
TAP	90	288	1
TAP	91	0	1
TAP	91	96	0
TAP	91	192	1
HLD	91	192	7	96
TAP	91	288	6
STR	92	0	1
SLR	92	0	1	96	96	0
STR	92	0	6
SLL	92	0	6	96	96	7
BRK	92	288	1
BRK	92	288	6
STR	93	0	0
SI_	93	0	0	96	48	4
HLD	93	0	7	96
HLD	93	192	0	96
STR	93	192	7
SI_	93	192	7	96	48	3
STR	94	0	0
SUR	94	0	0	96	48	4
HLD	94	0	7	96
HLD	94	192	0	96
STR	94	192	7
SUL	94	192	7	96	48	3
STR	95	0	0
SCR	95	0	0	96	48	3
HLD	95	0	7	96
HLD	95	192	0	96
STR	95	192	7
SCL	95	192	7	96	48	4
TAP	96	0	0
TAP	96	0	7
TAP	96	96	1
TAP	96	96	6
TAP	96	192	3
TAP	96	240	4
TAP	96	288	2
TAP	96	288	5
STR	97	0	3
SI_	97	0	3	96	48	7
HLD	97	0	4	96
HLD	97	192	3	96
STR	97	192	4
SI_	97	192	4	96	48	0
STR	98	0	3
SUL	98	0	3	96	48	7
HLD	98	0	4	96
HLD	98	192	3	96
STR	98	192	4
SUR	98	192	4	96	48	0
STR	99	0	3
SCL	99	0	3	96	48	0
HLD	99	0	4	96
HLD	99	192	3	96
STR	99	192	4
SCR	99	192	4	96	48	7
STR	100	0	1
SLR	100	0	1	96	96	0
STR	100	0	6
SLL	100	0	6	96	96	7
BRK	100	288	1
BRK	100	288	6
TAP	101	0	2
TAP	101	48	3
TAP	101	96	1
TAP	101	144	3
TAP	101	192	2
TAP	101	240	3
TAP	101	288	2
TAP	101	288	4
TAP	102	0	5
TAP	102	48	4
TAP	102	96	6
TAP	102	144	4
TAP	102	192	5
TAP	102	240	4
TAP	102	288	3
TAP	102	288	5
TAP	103	0	0
TAP	103	48	7
TAP	103	96	1
TAP	103	144	7
TAP	103	192	0
TAP	103	240	7
TAP	103	288	0
TAP	103	288	6
TAP	104	0	1
TAP	104	48	5
TAP	104	96	3
TAP	104	144	4
TAP	104	192	2
TAP	104	240	6
TAP	104	288	0
TAP	104	288	7
TAP	105	0	1
TAP	105	0	3
TAP	105	48	1
TAP	105	48	3
TAP	105	96	2
TAP	105	96	4
TAP	105	144	2
TAP	105	144	4
TAP	105	192	3
TAP	105	192	5
TAP	105	240	3
TAP	105	240	5
TAP	105	288	4
TAP	105	288	6
TAP	106	0	4
TAP	106	0	6
TAP	106	48	4
TAP	106	48	6
TAP	106	96	3
TAP	106	96	5
TAP	106	144	3
TAP	106	144	5
TAP	106	192	2
TAP	106	192	4
TAP	106	240	2
TAP	106	240	4
TAP	106	288	1
TAP	106	288	3
TAP	107	0	1
TAP	107	48	1
TAP	107	96	6
TAP	107	144	6
TAP	107	192	2
TAP	107	240	2
TAP	107	288	5
TAP	107	336	5
TAP	108	0	3
TAP	108	24	4
TAP	108	48	3
TAP	108	72	4
TAP	108	96	3
TAP	108	120	4
TAP	108	144	3
TAP	108	168	4
TAP	108	192	3
TAP	108	288	2
TAP	108	288	5
STR	109	0	3
SXR	109	0	3	96	96	3
STR	109	0	4
SXL	109	0	4	96	96	4
TAP	109	288	0
TAP	109	288	7
BRK	110	0	1
BRK	110	0	6

T_REC_TAP	428
T_REC_BRK	8
T_REC_XTP	0
T_REC_HLD	33
T_REC_XHO	0
T_REC_STR	83
T_REC_BST	0
T_REC_XST	0
T_REC_TTP	0
T_REC_THO	0
T_REC_SLD	83
T_REC_ALL	635
T_NUM_TAP	511
T_NUM_BRK	8
T_NUM_HLD	33
T_NUM_SLD	83
T_NUM_ALL	635
T_JUDGE_TAP	519
T_JUDGE_HLD	90
T_JUDGE_SLD	83
T_JUDGE_ALL	692
TTM_EACHPAIRS	147
TTM_SCR_TAP	255500
TTM_SCR_BRK	20800
TTM_SCR_HLD	33000
TTM_SCR_SLD	124500
TTM_SCR_ALL	433800
TTM_SCR_S	420050
TTM_SCR_SS	433000
TTM_RAT_ACV	10018

