VERSION	0.00.00	1.03.00
FES_MODE	0
BPM_DEF	185.000	185.000	185.000	185.000
MET_DEF	4	4
RESOLUTION	384
CLK_DEF	384
COMPATIBLE_CODE	MA2

BPM	0	0	185.000
MET	0	0	4	4

TAP	3	0	3
TAP	3	96	3
TAP	3	192	2
TAP	3	288	2
TAP	4	0	1
TAP	4	96	1
TAP	4	192	0
TAP	4	192	1
TAP	5	0	4
TAP	5	96	4
TAP	5	192	5
TAP	5	288	5
TAP	6	0	6
TAP	6	96	6
TAP	6	192	6
TAP	6	192	7
TAP	7	0	2
TAP	7	96	3
TAP	7	192	2
TAP	7	288	3
TAP	8	0	5
TAP	8	96	4
TAP	8	192	4
TAP	8	192	5
TAP	9	0	0
TAP	9	0	1
TAP	9	192	6
TAP	9	192	7
TAP	10	0	3
TAP	10	0	4
BRK	10	192	1
BRK	10	192	6
TAP	11	0	2
TAP	11	96	2
TAP	11	192	2
TAP	11	192	3
TAP	12	0	1
TAP	12	96	1
TAP	12	192	0
TAP	12	192	1
TAP	13	0	5
TAP	13	96	5
TAP	13	192	4
TAP	13	192	5
TAP	14	0	6
TAP	14	96	6
TAP	14	192	6
TAP	14	192	7
TAP	15	0	2
TAP	15	0	3
TAP	15	192	1
TAP	15	192	4
TAP	16	0	4
TAP	16	0	5
TAP	16	192	3
TAP	16	192	6
TAP	17	0	0
TAP	17	0	7
TAP	17	192	1
TAP	17	192	6
STR	18	0	1
SI_	18	0	1	96	96	5
HLD	19	0	4	384
HLD	20	0	5	384
HLD	21	0	6	384
TAP	22	0	7
TAP	22	192	7
HLD	23	0	0	384
HLD	24	0	1	384
HLD	25	0	2	384
TAP	26	0	3
TAP	26	192	3
HLD	27	0	4	384
HLD	28	0	3	384
HLD	29	0	2	384
TAP	30	0	1
TAP	30	192	0
TAP	30	192	1
HLD	31	0	0	384
HLD	32	0	7	384
HLD	33	0	6	384
TAP	34	0	5
TAP	34	192	4
TAP	34	192	5
STR	35	0	0
SI_	35	0	0	96	96	3
STR	35	0	7
SI_	35	0	7	96	96	4
TAP	36	0	3
TAP	36	0	4
TAP	36	96	2
TAP	36	96	5
TAP	36	192	1
TAP	36	192	6
BRK	36	288	0
BRK	36	288	7
TAP	37	0	2
TAP	37	96	2
TAP	37	192	2
TAP	37	192	3
TAP	37	288	2
TAP	37	288	3
TAP	38	0	5
TAP	38	96	5
TAP	38	192	4
TAP	38	192	5
TAP	39	0	1
TAP	39	96	1
TAP	39	192	0
TAP	39	192	1
TAP	39	288	0
TAP	39	288	1
TAP	40	0	6
TAP	40	96	6
TAP	40	192	6
TAP	40	192	7
TAP	41	0	5
TAP	41	96	4
TAP	41	192	2
TAP	41	192	3
TAP	41	288	2
TAP	41	288	3
TAP	42	0	1
TAP	42	96	0
TAP	42	192	6
TAP	42	192	7
TAP	43	0	5
TAP	43	96	4
TAP	43	192	2
TAP	43	192	3
TAP	43	288	2
TAP	43	288	3
HLD	44	0	0	192
HLD	44	0	1	192
BRK	44	288	6
BRK	44	288	7
TAP	45	0	5
TAP	45	96	4
TAP	45	192	5
TAP	45	288	3
TAP	45	288	6
TAP	46	0	2
TAP	46	96	3
TAP	46	192	2
TAP	46	288	1
TAP	46	288	4
TAP	47	0	0
TAP	47	96	7
TAP	47	192	0
TAP	47	288	1
TAP	47	288	6
STR	48	0	6
SI_	48	0	6	96	96	3
STR	48	0	7
SI_	48	0	7	96	96	2
TAP	49	0	2
TAP	49	96	3
TAP	49	192	2
TAP	49	192	3
TAP	49	288	1
TAP	49	288	4
TAP	50	0	5
TAP	50	96	4
TAP	50	192	4
TAP	50	192	5
TAP	50	288	3
TAP	50	288	6
TAP	51	0	7
TAP	51	96	0
TAP	51	192	0
TAP	51	192	7
TAP	51	288	1
TAP	51	288	6
STR	52	0	0
SI_	52	0	0	96	96	5
STR	52	0	1
SI_	52	0	1	96	96	4
HLD	53	0	3	192
TAP	53	192	2
HLD	54	0	4	192
TAP	54	192	5
HLD	55	0	0	192
TAP	55	192	1
HLD	56	0	7	192
TAP	56	192	6
STR	57	0	6
SI_	57	0	6	96	96	3
STR	57	0	7
SI_	57	0	7	96	96	2
STR	58	0	0
SI_	58	0	0	96	96	5
STR	58	0	1
SI_	58	0	1	96	96	4
STR	59	0	0
SI_	59	0	0	96	96	3
STR	59	0	7
SI_	59	0	7	96	96	4
TAP	60	0	2
TAP	60	0	3
TAP	60	96	4
TAP	60	96	5
TAP	60	192	2
TAP	60	192	3
TAP	60	288	4
TAP	60	288	5
TAP	61	0	0
TAP	61	0	1
TAP	61	96	2
TAP	61	96	7
TAP	61	192	3
TAP	61	192	6
TAP	62	0	6
TAP	62	0	7
TAP	62	96	0
TAP	62	96	5
TAP	62	192	1
TAP	62	192	4
STR	63	0	0
SCL	63	0	0	96	144	5
STR	64	0	7
SCR	64	0	7	96	144	2
TAP	65	0	2
TAP	65	0	3
TAP	65	96	1
TAP	65	96	4
TAP	65	192	0
TAP	65	192	5
TAP	66	0	4
TAP	66	0	5
TAP	66	96	3
TAP	66	96	6
TAP	66	192	2
TAP	66	192	7
STR	67	0	0
SCR	67	0	0	96	144	3
STR	68	0	7
SCL	68	0	7	96	144	4
TAP	69	0	2
TAP	69	96	3
TAP	69	192	2
TAP	69	288	2
TAP	69	288	3
TAP	70	0	1
TAP	70	96	0
TAP	70	192	0
TAP	70	192	1
TAP	71	0	4
TAP	71	96	5
TAP	71	192	4
TAP	71	288	4
TAP	71	288	5
TAP	72	0	6
TAP	72	96	7
TAP	72	192	6
TAP	72	192	7
TAP	73	0	3
TAP	73	0	4
TAP	73	192	2
TAP	73	192	5
TAP	74	0	1
TAP	74	0	6
TAP	74	192	0
TAP	74	192	7
STR	75	0	0
SCL	75	0	0	96	144	5
STR	75	0	1
SCR	75	0	1	96	144	4
STR	76	0	6
SCL	76	0	6	96	144	3
STR	76	0	7
SCR	76	0	7	96	144	2
HLD	77	0	4	192
HLD	77	0	5	192
HLD	78	0	2	192
HLD	78	0	3	192
HLD	79	0	0	192
HLD	79	0	1	192
TAP	80	0	6
TAP	80	0	7
TAP	80	96	6
TAP	80	96	7
TAP	80	192	0
TAP	80	192	5
HLD	81	0	2	192
HLD	81	0	3	192
HLD	82	0	4	192
HLD	82	0	5	192
HLD	83	0	6	192
HLD	83	0	7	192
TAP	84	0	0
TAP	84	0	1
TAP	84	96	0
TAP	84	96	1
TAP	84	192	2
TAP	84	192	7
HLD	85	0	2	192
HLD	85	192	3	192
HLD	86	0	4	192
HLD	86	192	5	192
HLD	87	0	6	192
TAP	87	192	7
TAP	88	0	0
TAP	88	0	1
TAP	88	96	2
TAP	88	96	7
TAP	88	192	3
TAP	88	192	6
HLD	89	0	5	192
HLD	89	192	4	192
HLD	90	0	3	192
HLD	90	192	2	192
HLD	91	0	1	192
TAP	91	192	0
STR	92	0	0
SI_	92	0	0	96	96	3
STR	92	0	7
SI_	92	0	7	96	96	4
BRK	92	288	2
BRK	92	288	5
TAP	93	0	3
TAP	93	96	4
TAP	93	192	5
TAP	93	288	4
TAP	93	288	5
TAP	94	0	4
TAP	94	96	3
TAP	94	192	2
TAP	94	288	2
TAP	94	288	3
TAP	95	0	7
TAP	95	96	0
TAP	95	192	1
TAP	95	288	0
TAP	95	288	1
STR	96	0	6
SI_	96	0	6	96	96	3
STR	96	0	7
SI_	96	0	7	96	96	2
TAP	97	0	4
TAP	97	96	5
TAP	97	192	6
TAP	97	192	7
TAP	97	288	6
TAP	97	288	7
TAP	98	0	3
TAP	98	96	2
TAP	98	192	0
TAP	98	192	1
TAP	98	288	0
TAP	98	288	1
TAP	99	0	3
TAP	99	0	4
TAP	99	96	2
TAP	99	96	5
TAP	99	192	3
TAP	99	192	4
TAP	99	288	2
TAP	99	288	5
STR	100	0	0
SI_	100	0	0	96	96	5
STR	100	0	1
SI_	100	0	1	96	96	4
TAP	101	0	3
TAP	101	96	4
TAP	101	192	3
TAP	101	192	4
TAP	101	288	2
TAP	101	288	5
TAP	102	0	1
TAP	102	96	0
TAP	102	192	0
TAP	102	192	1
TAP	102	288	2
TAP	102	288	7
TAP	103	0	6
TAP	103	96	7
TAP	103	192	6
TAP	103	192	7
TAP	103	288	0
TAP	103	288	5
STR	104	0	0
SCR	104	0	0	96	144	3
STR	104	0	7
SCL	104	0	7	96	144	4
TAP	105	0	4
TAP	105	0	5
TAP	105	96	3
TAP	105	192	4
TAP	105	192	5
TAP	105	288	6
TAP	106	0	2
TAP	106	0	3
TAP	106	96	4
TAP	106	192	2
TAP	106	192	3
TAP	106	288	1
TAP	107	0	6
TAP	107	0	7
TAP	107	96	0
TAP	107	96	5
TAP	107	192	1
TAP	107	192	4
TAP	107	288	2
TAP	107	288	3
TAP	108	0	0
TAP	108	0	1
TAP	108	96	2
TAP	108	96	7
TAP	108	192	3
TAP	108	192	6
TAP	108	288	4
TAP	108	288	5
BST	109	0	0
SI_	109	0	0	96	96	3
BST	109	0	7
SI_	109	0	7	96	96	4
BRK	110	0	1
BRK	110	0	6

T_REC_TAP	306
T_REC_BRK	10
T_REC_XTP	0
T_REC_HLD	40
T_REC_XHO	0
T_REC_STR	29
T_REC_BST	2
T_REC_XST	0
T_REC_TTP	0
T_REC_THO	0
T_REC_SLD	31
T_REC_ALL	418
T_NUM_TAP	335
T_NUM_BRK	12
T_NUM_HLD	40
T_NUM_SLD	31
T_NUM_ALL	418
T_JUDGE_TAP	347
T_JUDGE_HLD	208
T_JUDGE_SLD	31
T_JUDGE_ALL	586
TTM_EACHPAIRS	128
TTM_SCR_TAP	167500
TTM_SCR_BRK	31200
TTM_SCR_HLD	40000
TTM_SCR_SLD	46500
TTM_SCR_ALL	285200
TTM_SCR_S	275500
TTM_SCR_SS	284000
TTM_RAT_ACV	10042

