VERSION	0.00.00	1.03.00
FES_MODE	0
BPM_DEF	185.000	185.000	185.000	185.000
MET_DEF	4	4
RESOLUTION	384
CLK_DEF	384
COMPATIBLE_CODE	MA2

BPM	0	0	185.000
MET	0	0	4	4

TAP	3	0	1
TAP	3	96	1
TAP	3	192	0
TAP	3	192	7
TAP	4	0	1
TAP	4	96	1
TAP	4	192	0
TAP	4	192	7
TAP	5	0	6
TAP	5	96	6
TAP	5	192	0
TAP	5	192	7
TAP	6	0	6
TAP	6	96	6
TAP	6	192	0
TAP	6	192	7
TAP	7	0	1
TAP	7	96	1
TAP	7	192	0
TAP	7	192	7
TAP	8	0	6
TAP	8	96	6
TAP	8	192	0
TAP	8	192	7
TAP	9	0	0
TAP	9	0	1
TAP	9	192	6
TAP	9	192	7
TAP	10	0	4
TAP	10	0	5
TAP	10	192	2
TAP	10	192	3
TAP	11	0	2
TAP	11	96	2
TAP	11	192	1
TAP	11	192	3
HLD	12	0	2	192
HLD	12	0	3	192
TAP	13	0	5
TAP	13	96	5
TAP	13	192	4
TAP	13	192	6
HLD	14	0	4	192
HLD	14	0	5	192
TAP	15	0	2
TAP	15	96	4
TAP	15	192	3
TAP	16	0	5
TAP	16	96	3
TAP	16	192	4
TAP	17	0	2
TAP	17	0	3
TAP	17	96	2
TAP	17	96	3
TAP	17	192	4
TAP	17	192	5
TAP	17	288	4
TAP	17	288	5
TAP	18	0	3
TAP	18	0	4
TAP	18	96	3
TAP	18	96	4
TAP	18	192	2
TAP	18	192	5
STR	19	0	1
SI_	19	0	1	96	288	4
STR	21	0	6
SI_	21	0	6	96	288	3
STR	23	0	2
SI_	23	0	2	96	288	7
STR	25	0	5
SI_	25	0	5	96	288	0
TAP	27	0	0
TAP	27	192	0
TAP	28	0	1
TAP	28	192	1
TAP	29	0	2
TAP	29	192	2
TAP	30	0	3
TAP	30	192	3
TAP	30	192	4
TAP	31	0	4
TAP	31	192	4
TAP	32	0	5
TAP	32	192	5
TAP	33	0	6
TAP	33	192	6
TAP	34	0	7
TAP	34	192	0
TAP	34	192	7
HLD	35	0	1	576
HLD	35	0	6	576
BRK	36	288	0
BRK	36	288	7
TAP	37	0	0
TAP	37	96	0
TAP	37	192	1
TAP	37	288	1
TAP	38	0	2
TAP	38	96	2
TAP	38	192	2
TAP	38	192	3
TAP	39	0	4
TAP	39	96	4
TAP	39	192	5
TAP	39	288	5
TAP	40	0	6
TAP	40	96	6
TAP	40	192	6
TAP	40	192	7
TAP	41	0	7
TAP	41	96	7
TAP	41	192	6
TAP	41	288	6
TAP	42	0	5
TAP	42	96	5
TAP	42	192	4
TAP	42	192	5
TAP	43	0	3
TAP	43	96	3
TAP	43	192	2
TAP	43	288	2
TAP	44	0	1
TAP	44	96	1
TAP	44	192	0
TAP	44	192	1
TAP	45	0	1
TAP	45	96	1
TAP	45	192	0
TAP	45	288	0
TAP	46	0	7
TAP	46	96	7
TAP	46	192	6
TAP	46	192	7
TAP	47	0	5
TAP	47	96	5
TAP	47	192	4
TAP	47	288	4
TAP	48	0	3
TAP	48	96	3
TAP	48	192	2
TAP	48	192	3
TAP	49	0	2
TAP	49	96	2
TAP	49	192	3
TAP	49	288	3
TAP	50	0	4
TAP	50	96	4
TAP	50	192	4
TAP	50	192	5
TAP	51	0	6
TAP	51	96	6
TAP	51	192	7
TAP	51	288	7
TAP	52	0	0
TAP	52	96	0
TAP	52	192	0
TAP	52	192	1
STR	53	0	1
SI_	53	0	1	96	288	4
STR	55	0	6
SI_	55	0	6	96	288	3
TAP	57	0	3
TAP	57	96	3
TAP	57	192	2
TAP	57	192	4
TAP	58	0	4
TAP	58	96	4
TAP	58	192	3
TAP	58	192	5
TAP	59	0	3
TAP	59	96	3
TAP	59	192	4
TAP	59	288	4
TAP	60	0	2
TAP	60	0	5
TAP	61	0	3
TAP	61	96	3
TAP	61	192	3
TAP	62	0	2
TAP	62	96	2
TAP	62	192	2
HLD	63	0	1	192
HLD	64	0	0	192
HLD	64	0	1	192
TAP	65	0	7
TAP	65	96	7
TAP	65	192	7
TAP	66	0	6
TAP	66	96	6
TAP	66	192	6
HLD	67	0	5	192
HLD	68	0	4	192
HLD	68	0	5	192
TAP	69	0	4
TAP	69	96	4
TAP	69	192	4
TAP	70	0	5
TAP	70	96	5
TAP	70	192	5
TAP	71	0	6
TAP	71	96	6
TAP	71	192	6
TAP	72	0	7
TAP	72	96	7
TAP	72	192	7
TAP	73	0	0
TAP	73	0	1
TAP	73	192	0
TAP	73	192	1
TAP	74	0	2
TAP	74	0	3
TAP	74	192	2
TAP	74	192	3
TAP	75	0	4
TAP	75	0	5
TAP	75	192	4
TAP	75	192	5
BRK	76	0	6
BRK	76	0	7
STR	77	0	6
SI_	77	0	6	96	288	2
HLD	79	0	0	384
STR	81	0	1
SI_	81	0	1	96	288	5
HLD	83	0	7	384
STR	85	0	7
SI_	85	0	7	96	288	3
HLD	87	0	0	384
HLD	87	0	1	384
STR	89	0	0
SI_	89	0	0	96	288	4
HLD	91	0	6	384
HLD	91	0	7	384
BRK	92	288	0
BRK	92	288	7
TAP	93	0	0
TAP	93	96	0
TAP	93	192	1
TAP	93	288	1
TAP	94	0	2
TAP	94	96	2
TAP	94	192	3
TAP	94	192	4
TAP	94	288	3
TAP	94	288	4
TAP	95	0	4
TAP	95	96	4
TAP	95	192	5
TAP	95	288	5
TAP	96	0	6
TAP	96	96	6
TAP	96	192	0
TAP	96	192	7
TAP	97	0	7
TAP	97	96	7
TAP	97	192	6
TAP	97	288	6
TAP	98	0	5
TAP	98	96	5
TAP	98	192	3
TAP	98	192	4
TAP	98	288	3
TAP	98	288	4
TAP	99	0	3
TAP	99	96	3
TAP	99	192	2
TAP	99	288	2
TAP	100	0	1
TAP	100	96	1
TAP	100	192	0
TAP	100	192	7
TAP	101	0	1
TAP	101	96	0
TAP	101	192	1
TAP	101	288	0
TAP	102	0	1
TAP	102	96	0
TAP	102	192	0
TAP	102	192	1
TAP	103	0	2
TAP	103	96	3
TAP	103	192	2
TAP	103	288	3
TAP	104	0	2
TAP	104	96	3
TAP	104	192	2
TAP	104	192	3
TAP	105	0	5
TAP	105	96	4
TAP	105	192	5
TAP	105	288	4
TAP	106	0	5
TAP	106	96	4
TAP	106	192	4
TAP	106	192	5
TAP	107	0	6
TAP	107	96	7
TAP	107	192	6
TAP	107	288	7
TAP	108	0	6
TAP	108	96	7
TAP	108	192	6
TAP	108	192	7
HLD	109	0	0	288
HLD	109	0	7	288
BRK	110	0	1
BRK	110	0	6

T_REC_TAP	260
T_REC_BRK	8
T_REC_XTP	0
T_REC_HLD	20
T_REC_XHO	0
T_REC_STR	10
T_REC_BST	0
T_REC_XST	0
T_REC_TTP	0
T_REC_THO	0
T_REC_SLD	10
T_REC_ALL	308
T_NUM_TAP	270
T_NUM_BRK	8
T_NUM_HLD	20
T_NUM_SLD	10
T_NUM_ALL	308
T_JUDGE_TAP	278
T_JUDGE_HLD	124
T_JUDGE_SLD	10
T_JUDGE_ALL	412
TTM_EACHPAIRS	60
TTM_SCR_TAP	135000
TTM_SCR_BRK	20800
TTM_SCR_HLD	20000
TTM_SCR_SLD	15000
TTM_SCR_ALL	190800
TTM_SCR_S	184300
TTM_SCR_SS	190000
TTM_RAT_ACV	10042

