VERSION	0.00.00	1.03.00
FES_MODE	0
BPM_DEF	191.000	191.000	191.000	191.000
MET_DEF	4	4
RESOLUTION	384
CLK_DEF	384
COMPATIBLE_CODE	MA2

BPM	0	0	191.000

TAP	5	0	0
TAP	5	0	7
TAP	5	48	0
TAP	5	48	7
TAP	5	72	1
TAP	5	72	6
TAP	5	96	2
TAP	5	96	5
TAP	5	192	0
STR	5	240	7
SI_	5	240	7	96	48	2
SI_	5	240	7	96	48	4
TAP	5	288	0
TAP	5	336	7
TAP	6	48	6
TAP	6	96	7
TAP	6	144	6
STR	6	192	1
SI_	6	192	1	96	48	4
HLD	6	240	0	48
TAP	6	288	1
TAP	7	0	2
TAP	7	48	0
TAP	7	48	1
TAP	7	96	7
TAP	7	120	6
TAP	7	144	5
HLD	7	192	7	48
HLD	7	240	5	48
HLD	7	288	3	48
TAP	7	336	1
TAP	8	48	1
TAP	8	96	0
TAP	8	144	1
STR	8	192	6
SI_	8	192	6	96	48	3
HLD	8	240	7	48
TAP	8	288	6
TAP	9	0	5
TAP	9	48	6
TAP	9	48	7
TAP	9	96	0
TAP	9	120	1
TAP	9	144	2
TAP	9	192	5
TAP	9	216	6
STR	9	240	7
SI_	9	240	7	96	48	3
TAP	9	264	0
TAP	9	288	1
TAP	9	312	2
TAP	9	336	3
TAP	10	48	6
TAP	10	96	7
TAP	10	144	6
STR	10	192	1
SI_	10	192	1	96	48	4
HLD	10	240	0	48
TAP	10	288	1
TAP	11	0	2
TAP	11	48	0
TAP	11	48	1
TAP	11	96	7
TAP	11	120	6
TAP	11	144	5
HLD	11	192	0	48
HLD	11	240	2	48
HLD	11	288	4	48
TAP	11	336	6
STR	12	48	0
SI_	12	48	0	96	48	5
TAP	12	96	7
TAP	12	144	0
STR	12	192	6
SI_	12	192	6	96	48	3
TAP	12	240	2
TAP	12	288	6
HLD	12	336	0	288
TAP	13	240	7
TAP	13	256	1
TAP	13	256	6
TAP	13	272	2
TAP	13	272	5
TAP	13	288	3
TAP	13	288	4
STR	14	0	1
SCR	14	0	1	96	48	4
TAP	14	48	0
TAP	14	96	1
TAP	14	240	3
TAP	14	240	4
HLD	14	288	0	96
HLD	14	288	1	96
STR	15	48	6
SCL	15	48	6	96	48	3
TAP	15	96	7
TAP	15	144	6
TAP	15	240	1
TAP	15	288	4
STR	15	336	2
SI_	15	336	2	96	48	7
STR	15	336	3
SI_	15	336	3	96	48	6
TAP	16	48	2
TAP	16	48	3
STR	16	144	0
SI_	16	144	0	96	48	4
STR	16	192	5
SI_	16	192	5	96	48	1
TAP	16	240	0
TAP	16	288	5
TAP	17	0	1
TAP	17	24	0
TAP	17	48	1
TAP	17	72	0
TAP	17	96	1
HLD	17	144	6	96
TAP	17	144	7
TAP	17	240	1
TAP	17	264	2
TAP	17	288	3
TAP	17	312	0
TAP	17	336	1
TAP	17	360	2
STR	18	0	7
SCR	18	0	7	96	48	2
TAP	18	48	6
TAP	18	96	7
TAP	18	240	3
TAP	18	240	4
HLD	18	288	6	96
HLD	18	288	7	96
STR	19	48	0
SCR	19	48	0	96	48	3
TAP	19	96	7
TAP	19	144	0
TAP	19	240	6
TAP	19	288	3
STR	19	336	4
SI_	19	336	4	96	48	1
STR	19	336	5
SI_	19	336	5	96	48	0
TAP	20	48	4
TAP	20	48	5
STR	20	144	0
SI_	20	144	0	96	48	3
STR	20	144	1
SI_	20	144	1	96	48	6
TAP	20	240	0
TAP	20	240	1
TAP	21	0	2
TAP	21	0	4
TAP	21	48	3
TAP	21	72	2
TAP	21	72	4
TAP	21	96	1
TAP	21	96	5
BRK	21	144	7
TAP	21	240	6
TAP	21	264	5
TAP	21	288	4
TAP	21	312	7
TAP	21	336	6
TAP	21	360	5
STR	22	0	0
SCL	22	0	0	96	48	5
TAP	22	48	1
TAP	22	96	0
TAP	22	240	3
TAP	22	240	4
HLD	22	288	0	96
HLD	22	288	1	96
STR	23	48	6
SCL	23	48	6	96	48	3
TAP	23	96	0
TAP	23	144	6
TAP	23	240	0
TAP	23	288	1
STR	23	336	2
SI_	23	336	2	96	48	7
STR	23	336	3
SI_	23	336	3	96	48	6
TAP	24	48	2
TAP	24	48	3
STR	24	144	0
SI_	24	144	0	96	48	4
STR	24	192	5
SI_	24	192	5	96	48	1
TAP	24	240	0
TAP	24	288	5
TAP	25	0	6
TAP	25	24	7
TAP	25	48	6
TAP	25	72	7
TAP	25	96	6
HLD	25	144	0	96
TAP	25	144	1
TAP	25	240	1
TAP	25	264	2
TAP	25	288	3
TAP	25	312	0
TAP	25	336	1
TAP	25	360	2
STR	26	0	7
SCR	26	0	7	96	48	2
TAP	26	48	6
TAP	26	96	7
TAP	26	240	3
TAP	26	240	4
HLD	26	288	6	96
HLD	26	288	7	96
STR	27	48	1
SCR	27	48	1	96	48	4
TAP	27	96	7
TAP	27	144	1
STR	27	240	7
SI_	27	240	7	96	48	3
STR	27	288	0
SI_	27	288	0	96	48	4
TAP	27	336	7
TAP	28	0	0
TAP	28	96	3
TAP	28	144	5
TAP	28	192	2
TAP	28	240	6
TAP	28	288	1
TAP	28	336	7
STR	29	0	0
SF_	29	0	0	96	48	4
TAP	29	12	1
TAP	29	24	2
TAP	29	36	3
TAP	29	48	4
TAP	29	60	5
TAP	29	72	6
TAP	29	84	7
TAP	29	96	0
TAP	29	240	0
TAP	29	336	2
TAP	29	336	7
STR	30	0	1
SI_	30	0	1	96	48	4
TAP	30	48	0
TAP	30	96	1
STR	30	144	6
SI_	30	144	6	96	48	3
TAP	30	192	7
TAP	30	240	6
STR	30	288	1
SI_	30	288	1	96	48	4
TAP	30	336	0
TAP	31	0	1
TAP	31	48	6
TAP	31	96	1
STR	31	144	2
SI_	31	144	2	96	48	0
STR	31	144	7
SI_	31	144	7	96	48	3
TAP	31	192	2
TAP	31	192	7
STR	32	0	6
SI_	32	0	6	96	48	3
TAP	32	48	0
TAP	32	96	6
STR	32	144	1
SI_	32	144	1	96	48	4
TAP	32	192	7
TAP	32	240	1
STR	32	288	6
SI_	32	288	6	96	48	3
TAP	32	336	0
TAP	33	0	6
TAP	33	48	1
TAP	33	96	6
STR	33	144	0
SI_	33	144	0	96	48	4
STR	33	144	5
SI_	33	144	5	96	48	7
TAP	33	192	0
TAP	33	192	5
STR	34	0	0
SI_	34	0	0	96	48	4
TAP	34	48	6
TAP	34	96	0
STR	34	144	7
SI_	34	144	7	96	48	3
TAP	34	192	1
TAP	34	240	7
STR	34	288	0
SI_	34	288	0	96	48	4
TAP	34	336	6
TAP	35	0	0
TAP	35	48	7
TAP	35	96	0
STR	35	144	1
SI_	35	144	1	96	48	5
STR	35	144	6
SI_	35	144	6	96	48	0
TAP	35	192	1
TAP	35	192	6
STR	36	0	7
SI_	36	0	7	96	48	3
TAP	36	48	2
TAP	36	96	7
STR	36	144	0
SI_	36	144	0	96	48	4
TAP	36	192	5
TAP	36	240	0
STR	36	288	7
SI_	36	288	7	96	48	3
TAP	36	336	2
TAP	37	0	7
TAP	37	48	1
TAP	37	96	5
TAP	37	144	1
HLD	37	192	2	48
HLD	37	240	3	48
HLD	37	288	4	48
HLD	37	336	5	48
STR	38	0	2
SI_	38	0	2	96	48	7
TAP	38	48	4
TAP	38	96	2
STR	38	144	5
SI_	38	144	5	96	48	0
TAP	38	192	3
TAP	38	240	5
STR	38	288	2
SI_	38	288	2	96	48	7
TAP	38	336	4
TAP	39	0	2
TAP	39	48	5
TAP	39	96	1
TAP	39	144	6
BST	39	192	3
SF_	39	192	3	96	48	7
TAP	39	192	4
STR	40	0	5
SI_	40	0	5	96	48	0
TAP	40	48	1
TAP	40	96	5
STR	40	144	2
SI_	40	144	2	96	48	7
TAP	40	192	6
TAP	40	240	2
STR	40	288	5
SI_	40	288	5	96	48	0
TAP	40	336	1
TAP	41	0	5
TAP	41	48	2
TAP	41	96	7
STR	41	144	0
SI_	41	144	0	96	48	5
STR	41	144	4
SI_	41	144	4	96	48	1
TAP	41	192	0
TAP	41	192	4
STR	42	0	3
SI_	42	0	3	96	48	7
TAP	42	48	5
TAP	42	96	3
STR	42	144	4
SI_	42	144	4	96	48	0
TAP	42	192	2
TAP	42	240	4
STR	42	288	3
SI_	42	288	3	96	48	7
TAP	42	336	5
TAP	43	0	3
TAP	43	48	6
TAP	43	96	2
TAP	43	144	6
HLD	43	192	5	48
HLD	43	240	4	48
HLD	43	288	3	48
HLD	43	336	2	48
TAP	44	0	5
TAP	44	48	5
TAP	44	96	5
TAP	44	144	2
TAP	44	192	2
TAP	44	240	2
TAP	44	288	3
TAP	44	288	5
TAP	44	336	3
TAP	44	336	5
TAP	45	0	3
TAP	45	0	5
TAP	45	48	2
TAP	45	48	4
TAP	45	96	2
TAP	45	96	4
TAP	45	144	2
TAP	45	144	4
TAP	45	192	1
TAP	45	192	6
STR	45	240	0
SI_	45	240	0	96	48	3
STR	45	240	7
SI_	45	240	7	96	48	4
TAP	45	288	0
TAP	45	288	7
TAP	45	336	0
TAP	45	336	7
TAP	46	48	1
TAP	46	48	6
TAP	46	96	0
TAP	46	96	1
TAP	46	144	0
TAP	46	144	1
TAP	46	192	7
TAP	46	216	6
TAP	46	240	5
TAP	46	288	1
TAP	46	336	1
TAP	47	0	5
TAP	47	24	4
TAP	47	48	5
HLD	47	96	3	48
TAP	47	120	5
HLD	47	168	2	48
TAP	47	192	4
HLD	47	240	1	48
TAP	47	264	3
TAP	47	336	6
TAP	47	360	7
TAP	48	0	6
TAP	48	48	1
TAP	48	48	5
TAP	48	96	6
TAP	48	96	7
TAP	48	144	6
TAP	48	144	7
TAP	48	192	0
TAP	48	240	6
TAP	48	288	4
HLD	48	336	4	96
TAP	49	48	6
TAP	49	96	3
TAP	49	96	5
TAP	49	144	3
TAP	49	144	5
TAP	49	192	2
TAP	49	216	1
STR	49	240	0
SI_	49	240	0	96	48	4
TAP	49	264	7
TAP	49	288	6
TAP	49	312	5
TAP	49	336	4
TAP	50	48	2
TAP	50	48	7
TAP	50	96	0
TAP	50	96	1
TAP	50	144	0
TAP	50	144	1
TAP	50	192	7
TAP	50	240	1
TAP	50	288	6
TAP	50	336	6
TAP	51	0	2
TAP	51	24	3
TAP	51	48	2
HLD	51	96	4	48
TAP	51	120	2
HLD	51	168	5	48
TAP	51	192	3
HLD	51	240	6	48
TAP	51	264	4
TAP	51	336	1
TAP	51	360	0
TAP	52	0	1
TAP	52	48	0
TAP	52	48	5
TAP	52	96	6
TAP	52	96	7
TAP	52	144	6
TAP	52	144	7
TAP	52	192	0
TAP	52	240	6
TAP	52	288	1
TAP	52	336	7
TAP	53	48	3
TAP	53	48	4
TAP	53	128	1
TAP	53	128	4
TAP	53	192	3
TAP	53	192	6
TAP	53	240	2
TAP	53	240	5
STR	53	288	3
SI_	53	288	3	96	48	0
STR	53	288	4
SI_	53	288	4	96	48	7
TAP	53	320	3
TAP	53	320	4
TAP	53	352	3
TAP	53	352	4
TAP	54	0	3
TAP	54	0	4
TAP	54	144	0
TAP	54	144	7
TAP	54	192	1
TAP	54	216	0
TAP	54	240	1
TAP	54	288	6
TAP	54	336	6
TAP	55	0	2
TAP	55	24	3
TAP	55	48	2
HLD	55	96	4	48
TAP	55	120	2
HLD	55	168	5	48
TAP	55	192	3
HLD	55	240	6	48
TAP	55	264	4
TAP	55	336	1
TAP	55	360	0
TAP	56	0	1
TAP	56	48	2
TAP	56	48	6
TAP	56	96	0
TAP	56	96	1
TAP	56	144	0
TAP	56	144	1
TAP	56	192	7
TAP	56	240	1
TAP	56	288	3
HLD	56	336	3	96
TAP	57	48	1
TAP	57	96	2
TAP	57	96	4
TAP	57	144	2
TAP	57	144	4
TAP	57	192	5
TAP	57	216	6
STR	57	240	7
SI_	57	240	7	96	48	3
TAP	57	264	0
TAP	57	288	1
TAP	57	312	2
TAP	57	336	3
TAP	58	48	0
TAP	58	48	5
TAP	58	96	6
TAP	58	96	7
TAP	58	144	6
TAP	58	144	7
TAP	58	192	0
TAP	58	240	6
TAP	58	288	1
TAP	58	336	1
TAP	59	0	5
TAP	59	24	4
TAP	59	48	5
HLD	59	96	3	48
TAP	59	120	5
HLD	59	168	2	48
TAP	59	192	4
HLD	59	240	1	48
TAP	59	264	3
TAP	59	336	6
TAP	59	360	7
TAP	60	0	6
TAP	60	48	2
TAP	60	48	7
TAP	60	96	0
TAP	60	96	1
TAP	60	144	0
TAP	60	144	1
TAP	60	192	2
TAP	60	240	6
TAP	60	288	0
TAP	60	336	7
STR	61	0	1
SI_	61	0	1	96	48	4
STR	61	48	6
SI_	61	48	6	96	48	3
TAP	61	96	1
TAP	61	144	6
TAP	61	192	2
BRK	61	288	0
BRK	61	288	7
TAP	62	0	1
TAP	62	0	4
TAP	62	48	2
TAP	62	72	3
TAP	62	96	2
TAP	62	144	6
TAP	62	168	7
TAP	62	192	6
TAP	62	216	7
TAP	62	240	6
TAP	62	288	1
TAP	62	312	0
TAP	62	336	1
TAP	63	0	2
TAP	63	0	7
TAP	63	48	5
TAP	63	72	4
TAP	63	96	5
TAP	63	144	1
TAP	63	168	0
TAP	63	192	1
TAP	63	216	0
TAP	63	240	1
TAP	63	288	6
TAP	63	312	7
TAP	63	336	6
TAP	64	0	0
TAP	64	0	5
TAP	64	48	2
TAP	64	72	3
TAP	64	96	2
TAP	64	144	5
TAP	64	168	4
TAP	64	192	5
TAP	64	216	4
TAP	64	240	5
TAP	64	288	1
TAP	64	312	0
TAP	64	336	1
TAP	65	0	2
TAP	65	0	7
TAP	65	48	5
TAP	65	72	2
TAP	65	96	5
TAP	65	144	3
TAP	65	144	4
TAP	65	192	4
TAP	65	208	5
TAP	65	224	6
TAP	65	240	7
TAP	65	256	0
TAP	65	272	1
TAP	65	288	2
TAP	65	336	0
TAP	65	336	1
TAP	66	48	6
TAP	66	72	7
TAP	66	96	6
TAP	66	144	2
TAP	66	168	3
TAP	66	192	2
TAP	66	216	3
TAP	66	240	2
TAP	66	288	5
TAP	66	312	4
TAP	66	336	5
TAP	67	0	3
TAP	67	0	6
TAP	67	48	1
TAP	67	72	0
TAP	67	96	1
TAP	67	144	6
TAP	67	168	7
TAP	67	192	6
TAP	67	216	7
TAP	67	240	6
TAP	67	288	2
TAP	67	312	3
TAP	67	336	2
TAP	68	0	1
TAP	68	0	4
TAP	68	48	5
TAP	68	72	4
TAP	68	96	5
TAP	68	144	1
TAP	68	168	0
TAP	68	192	1
TAP	68	216	0
TAP	68	240	1
TAP	68	288	6
TAP	68	312	7
TAP	68	336	6
TAP	69	0	0
TAP	69	0	5
TAP	69	48	2
TAP	69	72	3
TAP	69	96	2
TAP	69	144	1
TAP	69	144	4
TAP	69	192	5
TAP	69	192	7
STR	69	240	5
SI_	69	240	5	96	48	2
STR	69	240	7
SI_	69	240	7	96	48	4
BRK	69	336	5
BRK	69	336	7
BRK	71	336	3
BRK	71	336	7
TAP	71	348	6
TAP	71	360	5
TAP	71	372	4
TAP	72	0	3
TAP	72	12	2
TAP	72	24	1
TAP	72	36	0
TAP	72	48	7
TAP	72	144	2
TAP	72	168	3
TAP	72	192	2
TAP	72	216	1
TAP	72	240	2
TAP	72	288	6
TAP	72	312	7
TAP	72	336	6
TAP	73	0	0
TAP	73	0	5
TAP	73	48	1
TAP	73	72	0
TAP	73	96	1
TAP	73	144	3
TAP	73	144	4
TAP	73	192	3
TAP	73	208	2
TAP	73	224	1
TAP	73	240	0
TAP	73	256	7
TAP	73	272	6
TAP	73	288	5
TAP	73	336	6
TAP	73	336	7
TAP	74	48	1
TAP	74	72	0
TAP	74	96	1
TAP	74	144	5
TAP	74	168	4
TAP	74	192	5
TAP	74	216	6
TAP	74	240	5
TAP	74	288	2
TAP	74	312	3
TAP	74	336	2
TAP	75	0	1
TAP	75	0	4
TAP	75	48	5
TAP	75	72	4
TAP	75	96	5
TAP	75	144	1
TAP	75	168	0
TAP	75	192	1
TAP	75	216	2
TAP	75	240	1
TAP	75	288	6
TAP	75	312	7
TAP	75	336	6
TAP	76	0	0
TAP	76	24	7
TAP	76	48	1
TAP	76	72	6
TAP	76	96	0
TAP	76	120	7
TAP	76	144	1
TAP	76	168	6
TAP	76	192	0
TAP	76	216	7
TAP	76	240	1
TAP	76	264	6
TAP	76	288	0
TAP	76	288	7
TAP	76	336	0
TAP	76	348	1
TAP	76	360	2
TAP	76	372	3
TAP	77	0	4
TAP	77	12	5
TAP	77	24	6
TAP	77	36	7
TAP	77	48	0
TAP	77	60	1
TAP	77	72	2
TAP	77	84	3
TAP	77	96	4
TAP	77	108	5
TAP	77	120	6
TAP	77	132	7
TAP	77	144	0
TAP	77	156	1
TAP	77	168	2
TAP	77	180	3
TAP	77	192	4
TAP	77	204	5
TAP	77	216	6
TAP	77	228	7
TAP	77	240	0
TAP	77	252	1
TAP	77	264	2
TAP	77	276	3
TAP	77	288	4
TAP	77	300	5
TAP	77	312	6
TAP	77	324	7
STR	77	336	0
SI_	77	336	0	96	48	3
STR	77	336	4
SI_	77	336	4	96	48	7
TAP	78	48	0
TAP	78	48	4
STR	78	144	3
SI_	78	144	3	96	48	7
STR	78	192	6
SI_	78	192	6	96	48	2
TAP	78	240	3
TAP	78	288	6
STR	79	0	6
SCL	79	0	6	96	48	3
STR	79	48	3
SCL	79	48	3	96	48	0
STR	79	96	0
SCL	79	96	0	96	48	5
TAP	79	288	7
STR	79	336	7
SF_	79	336	7	96	48	3
TAP	80	48	7
STR	80	144	1
SI_	80	144	1	96	48	5
STR	80	192	4
SI_	80	192	4	96	48	0
TAP	80	240	1
TAP	80	288	4
STR	81	0	1
SCR	81	0	1	96	48	4
STR	81	48	4
SCR	81	48	4	96	48	7
STR	81	96	7
SCR	81	96	7	96	48	2
TAP	81	288	0
STR	81	336	0
SF_	81	336	0	96	48	4
TAP	82	48	0
STR	82	144	3
SI_	82	144	3	96	48	7
STR	82	192	6
SI_	82	192	6	96	48	2
TAP	82	240	3
TAP	82	288	6
STR	83	0	6
SCL	83	0	6	96	48	3
STR	83	48	3
SCL	83	48	3	96	48	0
STR	83	96	0
SCL	83	96	0	96	48	5
TAP	83	288	7
STR	83	336	7
SCL	83	336	7	96	48	4
TAP	84	48	3
TAP	84	48	7
TAP	84	64	2
TAP	84	80	1
TAP	84	96	0
TAP	84	144	1
TAP	84	144	6
TAP	84	192	0
TAP	84	192	7
TAP	84	240	1
TAP	84	240	6
TAP	84	288	2
TAP	84	288	5
TAP	84	336	3
TAP	84	336	4
TAP	85	48	2
TAP	85	48	3
TAP	85	128	1
TAP	85	128	3
TAP	85	192	4
TAP	85	192	5
TAP	85	240	4
TAP	85	240	6
TAP	85	288	0
TAP	85	288	7
TAP	85	320	0
TAP	85	320	7
TAP	85	352	0
TAP	85	352	7
STR	86	0	1
SI_	86	0	1	96	48	4
STR	86	0	6
SI_	86	0	6	96	48	3
TAP	86	96	1
TAP	86	96	6
TAP	86	192	1
TAP	86	192	6
TAP	86	240	7
TAP	86	264	0
STR	86	288	7
SCL	86	288	7	96	48	4
TAP	87	0	3
TAP	87	16	2
TAP	87	32	1
TAP	87	48	0
HLD	87	96	6	48
HLD	87	144	0	48
STR	87	192	2
SCR	87	192	2	96	48	5
TAP	87	288	6
TAP	87	304	7
TAP	87	320	0
STR	87	336	1
SI_	87	336	1	96	48	4
TAP	88	48	1
TAP	88	144	5
TAP	88	168	4
TAP	88	192	5
TAP	88	240	3
TAP	88	264	4
STR	88	288	3
SCL	88	288	3	96	48	0
TAP	89	0	4
TAP	89	16	5
TAP	89	32	6
TAP	89	48	7
TAP	89	96	1
TAP	89	112	2
TAP	89	128	3
TAP	89	144	4
TAP	89	160	0
TAP	89	176	1
TAP	89	192	2
TAP	89	208	3
TAP	89	224	6
TAP	89	240	5
TAP	89	256	4
TAP	89	272	3
TAP	89	288	7
TAP	89	304	6
TAP	89	320	5
STR	89	336	4
SF_	89	336	4	96	48	0
TAP	90	48	4
TAP	90	144	3
TAP	90	144	4
TAP	90	192	3
TAP	90	192	4
TAP	90	240	2
TAP	90	264	0
STR	90	288	2
SCR	90	288	2	96	48	5
TAP	91	0	6
TAP	91	16	7
TAP	91	32	0
TAP	91	48	1
HLD	91	96	3	48
HLD	91	144	1	48
HLD	91	192	7	48
HLD	91	240	5	48
HLD	91	288	3	48
HLD	91	336	7	48
TAP	92	0	0
TAP	92	48	2
TAP	92	48	5
TAP	92	96	0
TAP	92	120	7
TAP	92	144	1
TAP	92	168	6
TAP	92	192	0
TAP	92	216	7
TAP	92	240	1
TAP	92	264	6
TAP	92	288	0
TAP	92	288	7
HLD	92	336	1	720
HLD	92	336	6	720
TAP	95	0	0
TAP	95	48	7
TAP	95	96	0
TAP	95	112	1
TAP	95	128	2
TAP	95	144	3
TAP	95	192	7
TAP	95	208	6
TAP	95	224	5
TAP	95	240	4
TAP	95	256	3
TAP	95	272	2
TAP	95	288	1
TAP	95	304	0
TAP	95	320	7
STR	95	336	2
SI_	95	336	2	96	48	5
STR	95	336	6
SI_	95	336	6	96	48	1

T_REC_TAP	723
T_REC_BRK	7
T_REC_XTP	0
T_REC_HLD	52
T_REC_XHO	0
T_REC_STR	99
T_REC_BST	1
T_REC_XST	0
T_REC_TTP	0
T_REC_THO	0
T_REC_SLD	101
T_REC_ALL	983
T_NUM_TAP	822
T_NUM_BRK	8
T_NUM_HLD	52
T_NUM_SLD	101
T_NUM_ALL	983
T_JUDGE_TAP	830
T_JUDGE_HLD	97
T_JUDGE_SLD	101
T_JUDGE_ALL	1028
TTM_EACHPAIRS	129
TTM_SCR_TAP	411000
TTM_SCR_BRK	20800
TTM_SCR_HLD	52000
TTM_SCR_SLD	151500
TTM_SCR_ALL	635300
TTM_SCR_S	615500
TTM_SCR_SS	634500
TTM_RAT_ACV	10012

