VERSION	0.00.00	1.03.00
FES_MODE	0
BPM_DEF	191.000	191.000	191.000	191.000
MET_DEF	4	4
RESOLUTION	384
CLK_DEF	384
COMPATIBLE_CODE	MA2

BPM	0	0	191.000

TAP	1	240	2
TAP	1	288	3
TAP	1	336	4
TAP	2	0	5
TAP	2	96	3
TAP	2	144	3
TAP	2	240	4
TAP	2	336	5
TAP	3	192	3
STR	3	336	2
SCL	3	336	2	96	240	5
TAP	5	0	4
TAP	5	48	3
TAP	5	96	2
TAP	5	96	5
TAP	5	192	6
TAP	5	240	7
TAP	5	288	0
BRK	5	336	1
BRK	5	336	6
TAP	6	48	3
TAP	6	48	4
TAP	6	96	3
TAP	6	96	4
TAP	6	192	2
TAP	6	240	3
TAP	6	288	2
TAP	6	336	1
TAP	6	336	4
TAP	7	48	3
TAP	7	48	6
TAP	7	96	3
TAP	7	96	6
TAP	7	192	1
TAP	7	240	0
TAP	7	288	7
TAP	7	336	1
TAP	7	336	6
TAP	8	48	3
TAP	8	48	4
TAP	8	96	3
TAP	8	96	4
TAP	8	192	5
TAP	8	240	4
TAP	8	288	5
TAP	8	336	3
TAP	8	336	6
TAP	9	48	1
TAP	9	48	4
STR	9	96	1
SUR	9	96	1	96	96	6
TAP	9	96	4
TAP	9	336	1
TAP	9	336	6
TAP	10	48	3
TAP	10	48	4
TAP	10	96	3
TAP	10	96	4
TAP	10	192	5
TAP	10	240	4
TAP	10	288	5
TAP	10	336	3
TAP	10	336	6
TAP	11	48	1
TAP	11	48	4
TAP	11	96	1
TAP	11	96	4
TAP	11	192	6
TAP	11	240	7
TAP	11	288	0
TAP	11	336	1
TAP	11	336	6
TAP	12	48	3
TAP	12	48	4
TAP	12	96	3
TAP	12	96	4
TAP	12	192	2
TAP	12	240	3
TAP	12	288	2
TAP	12	336	1
STR	12	336	4
SUL	12	336	4	96	192	3
TAP	13	288	1
TAP	13	288	6
BST	14	0	0
SI_	14	0	0	96	48	4
TAP	14	96	7
STR	14	144	7
SI_	14	144	7	96	48	5
TAP	14	240	1
STR	14	288	1
SI_	14	288	1	96	48	3
TAP	15	0	0
STR	15	48	0
SF_	15	48	0	96	48	4
TAP	15	288	6
TAP	15	288	7
TAP	15	336	6
TAP	15	336	7
TAP	16	48	0
TAP	16	48	1
TAP	16	144	2
TAP	16	144	3
TAP	16	192	4
TAP	16	240	5
TAP	16	288	3
TAP	16	288	6
TAP	17	0	5
TAP	17	48	4
TAP	17	96	3
STR	17	144	2
SCR	17	144	2	96	48	5
STR	18	0	6
SI_	18	0	6	96	48	2
TAP	18	96	1
STR	18	144	1
SI_	18	144	1	96	48	7
TAP	18	240	5
STR	18	288	5
SI_	18	288	5	96	48	3
TAP	19	0	2
STR	19	48	2
SI_	19	48	2	96	48	6
TAP	19	240	7
TAP	19	288	6
TAP	19	336	5
TAP	20	0	4
STR	20	48	3
SCL	20	48	3	96	96	0
STR	20	144	0
SCL	20	144	0	96	96	5
TAP	20	240	5
TAP	21	0	4
TAP	21	48	3
TAP	21	96	4
TAP	21	144	3
TAP	21	288	1
TAP	21	288	6
STR	22	0	7
SI_	22	0	7	96	48	3
TAP	22	96	0
STR	22	144	0
SI_	22	144	0	96	48	2
TAP	22	240	6
STR	22	288	6
SI_	22	288	6	96	48	4
TAP	23	0	7
STR	23	48	7
SF_	23	48	7	96	48	3
TAP	23	288	0
TAP	23	288	1
TAP	23	336	0
TAP	23	336	1
TAP	24	48	6
TAP	24	48	7
TAP	24	144	4
TAP	24	144	5
TAP	24	192	3
TAP	24	240	2
TAP	24	288	1
TAP	24	288	4
TAP	25	0	2
TAP	25	48	3
TAP	25	96	4
STR	25	144	5
SCL	25	144	5	96	48	2
STR	26	0	1
SI_	26	0	1	96	48	5
TAP	26	96	6
STR	26	144	6
SI_	26	144	6	96	48	0
TAP	26	240	2
STR	26	288	2
SI_	26	288	2	96	48	4
TAP	27	0	5
STR	27	48	5
SI_	27	48	5	96	48	1
TAP	27	240	0
TAP	27	288	1
TAP	27	336	2
HLD	28	0	3	96
HLD	28	0	7	96
HLD	28	144	0	96
HLD	28	144	4	96
TAP	28	288	3
TAP	28	288	7
TAP	29	0	2
TAP	29	0	6
TAP	29	48	1
TAP	29	48	5
TAP	29	96	0
TAP	29	96	4
STR	29	144	3
SCR	29	144	3	96	48	6
STR	29	144	7
SCR	29	144	7	96	48	2
TAP	30	0	3
HLD	30	0	7	144
HLD	30	144	1	144
HLD	30	288	3	144
HLD	31	48	5	144
TAP	31	192	7
TAP	31	288	1
TAP	31	288	3
HLD	32	0	0	144
HLD	32	144	6	144
HLD	32	288	4	144
HLD	33	48	2	144
TAP	33	192	0
TAP	33	288	4
TAP	33	288	6
HLD	34	0	7	144
HLD	34	144	5	144
HLD	34	288	3	144
HLD	35	48	1	144
TAP	35	192	0
TAP	35	288	3
TAP	35	288	6
HLD	36	0	0	144
HLD	36	144	2	144
HLD	36	288	4	144
HLD	37	48	6	144
TAP	37	192	7
TAP	37	240	6
TAP	37	288	5
TAP	37	336	4
HLD	38	0	3	144
HLD	38	144	1	144
HLD	38	288	7	144
HLD	39	48	5	144
STR	39	192	4
SI_	39	192	4	96	48	0
BRK	39	288	7
HLD	40	0	4	144
HLD	40	144	6	144
HLD	40	288	0	144
HLD	41	48	2	144
TAP	41	192	3
TAP	41	288	5
TAP	41	288	6
HLD	42	0	0	144
TAP	42	0	1
HLD	42	144	4	144
HLD	42	288	3	144
HLD	43	48	7	144
TAP	43	192	6
TAP	43	240	7
TAP	43	288	0
TAP	43	336	1
HLD	44	0	2	144
HLD	44	144	3	144
HLD	44	288	4	144
HLD	45	48	5	144
TAP	45	192	6
TAP	45	240	7
TAP	45	288	0
BRK	45	336	1
BRK	45	336	6
TAP	46	48	0
TAP	46	48	7
TAP	46	96	0
TAP	46	96	7
TAP	46	192	1
TAP	46	240	4
TAP	46	288	3
HLD	46	336	6	96
TAP	47	48	7
TAP	47	96	0
HLD	47	96	5	72
HLD	47	168	4	72
HLD	47	240	3	72
TAP	47	312	2
TAP	47	360	2
TAP	47	360	3
TAP	48	48	1
TAP	48	96	4
TAP	48	144	3
HLD	48	192	6	96
TAP	48	288	7
TAP	48	336	0
TAP	48	336	5
TAP	49	48	2
TAP	49	96	3
STR	49	144	1
SV_	49	144	1	96	48	4
TAP	49	144	4
STR	49	240	3
SV_	49	240	3	96	48	6
TAP	50	48	0
TAP	50	48	7
TAP	50	96	0
TAP	50	96	7
TAP	50	192	6
TAP	50	240	3
TAP	50	288	4
HLD	50	336	1	96
TAP	51	48	0
HLD	51	96	2	72
TAP	51	96	7
HLD	51	168	3	72
HLD	51	240	4	72
TAP	51	312	5
TAP	51	360	4
TAP	51	360	5
TAP	52	48	6
TAP	52	96	3
TAP	52	144	4
HLD	52	192	1	96
TAP	52	288	0
TAP	52	336	2
TAP	52	336	7
TAP	53	48	0
TAP	53	48	5
TAP	53	120	2
TAP	53	120	6
TAP	53	192	1
TAP	53	192	4
TAP	53	240	3
TAP	53	240	5
TAP	53	288	4
TAP	53	320	3
TAP	53	352	4
BST	54	0	1
SI_	54	0	1	96	48	5
TAP	54	96	1
TAP	54	192	6
TAP	54	240	3
TAP	54	288	4
HLD	54	336	1	96
TAP	55	48	0
HLD	55	96	2	72
TAP	55	96	7
HLD	55	168	3	72
HLD	55	240	4	72
TAP	55	312	5
TAP	55	360	4
TAP	55	360	5
TAP	56	48	6
TAP	56	96	3
TAP	56	144	4
HLD	56	192	1	96
TAP	56	288	0
TAP	56	336	2
TAP	56	336	7
TAP	57	48	5
TAP	57	96	4
TAP	57	144	3
STR	57	144	6
SV_	57	144	6	96	48	3
STR	57	240	4
SV_	57	240	4	96	48	1
TAP	58	48	0
TAP	58	48	7
TAP	58	96	0
TAP	58	96	7
TAP	58	192	1
TAP	58	240	4
TAP	58	288	3
HLD	58	336	6	96
TAP	59	48	7
TAP	59	96	0
HLD	59	96	5	72
HLD	59	168	4	72
HLD	59	240	3	72
TAP	59	312	2
TAP	59	360	2
TAP	59	360	3
TAP	60	48	1
TAP	60	96	4
TAP	60	144	3
HLD	60	192	6	96
TAP	60	288	7
STR	60	336	0
SCL	60	336	0	96	48	5
TAP	60	336	5
STR	61	48	0
SCR	61	48	0	96	48	3
BRK	62	0	1
BRK	62	0	6
STR	62	48	1
SI_	62	48	1	96	48	3
TAP	62	48	6
STR	62	144	0
SI_	62	144	0	96	48	4
STR	62	240	7
SI_	62	240	7	96	48	3
STR	62	336	6
SI_	62	336	6	96	48	4
STR	63	48	1
SI_	63	48	1	96	48	5
STR	63	144	6
SI_	63	144	6	96	48	2
TAP	63	240	3
STR	63	288	3
SCL	63	288	3	96	144	4
HLD	64	144	7	96
TAP	64	240	5
TAP	64	288	7
HLD	64	336	0	96
TAP	65	48	2
TAP	65	96	0
HLD	65	144	7	96
TAP	65	240	0
TAP	65	288	7
TAP	65	336	1
STR	65	336	6
SI_	65	336	6	96	48	2
TAP	66	48	7
TAP	66	96	7
TAP	66	192	1
TAP	66	240	3
TAP	66	288	2
STR	66	336	1
SI_	66	336	1	96	48	5
TAP	66	336	4
TAP	67	48	0
TAP	67	96	0
TAP	67	192	6
TAP	67	240	4
TAP	67	288	5
TAP	67	336	3
STR	67	336	6
SI_	67	336	6	96	48	1
STR	68	48	2
SI_	68	48	2	96	48	5
TAP	68	96	2
TAP	68	192	6
TAP	68	240	7
TAP	68	288	0
TAP	68	336	1
TAP	68	336	6
TAP	69	48	0
TAP	69	48	7
TAP	69	96	0
TAP	69	96	7
TAP	69	192	3
TAP	69	192	4
STR	69	240	3
SCL	69	240	3	96	624	4
STR	69	240	4
SCR	69	240	4	96	624	3
STR	71	240	0
SSL	71	240	0	96	96	4
STR	71	240	7
SSR	71	240	7	96	96	3
HLD	72	144	0	96
TAP	72	240	2
TAP	72	288	0
HLD	72	336	7	96
TAP	73	48	5
TAP	73	96	7
HLD	73	144	0	96
TAP	73	240	7
TAP	73	288	0
TAP	73	336	1
STR	73	336	6
SI_	73	336	6	96	48	3
STR	74	48	2
SI_	74	48	2	96	48	7
TAP	74	96	2
TAP	74	192	6
TAP	74	240	5
TAP	74	288	4
STR	74	336	1
SI_	74	336	1	96	48	4
TAP	74	336	3
STR	75	48	5
SI_	75	48	5	96	48	0
TAP	75	96	5
TAP	75	192	1
TAP	75	240	2
TAP	75	288	3
STR	75	336	4
SI_	75	336	4	96	48	0
TAP	75	336	6
STR	76	48	7
SI_	76	48	7	96	48	3
TAP	76	96	7
TAP	76	192	2
TAP	76	240	3
TAP	76	288	4
STR	76	336	2
SXR	76	336	2	96	240	4
STR	76	336	5
SXL	76	336	5	96	240	3
BRK	77	336	1
BRK	77	336	6
TAP	78	48	3
TAP	78	48	4
TAP	78	96	3
TAP	78	96	4
TAP	78	192	1
TAP	78	240	0
TAP	78	288	1
STR	78	336	2
SCL	78	336	2	96	48	7
STR	78	336	7
SCL	78	336	7	96	48	4
TAP	79	192	6
TAP	79	240	7
TAP	79	288	6
STR	79	336	0
SCR	79	336	0	96	48	3
STR	79	336	5
SCR	79	336	5	96	48	0
TAP	80	192	0
TAP	80	240	7
TAP	80	288	0
STR	80	336	1
SI_	80	336	1	96	48	5
STR	80	336	6
SI_	80	336	6	96	48	2
TAP	81	192	6
TAP	81	240	7
TAP	81	288	6
STR	81	336	0
SI_	81	336	0	96	48	4
STR	81	336	5
SI_	81	336	5	96	48	1
TAP	82	192	1
TAP	82	240	0
TAP	82	288	1
STR	82	336	2
SI_	82	336	2	96	48	6
STR	82	336	7
SI_	82	336	7	96	48	3
TAP	83	192	7
TAP	83	240	0
TAP	83	288	7
STR	83	336	1
SLR	83	336	1	96	96	0
STR	83	336	6
SLL	83	336	6	96	96	7
TAP	84	192	6
TAP	84	240	7
TAP	84	288	0
TAP	84	336	1
TAP	84	336	6
TAP	85	48	2
TAP	85	48	7
TAP	85	120	1
TAP	85	120	5
TAP	85	192	3
TAP	85	192	6
TAP	85	240	2
TAP	85	240	4
TAP	85	288	3
TAP	85	320	4
TAP	85	352	3
BST	86	0	6
SI_	86	0	6	96	48	2
TAP	86	96	6
TAP	86	192	1
TAP	86	192	3
TAP	86	240	1
TAP	86	240	3
TAP	86	336	4
TAP	86	336	6
TAP	87	48	0
TAP	87	48	7
TAP	87	96	0
TAP	87	96	7
TAP	87	192	2
TAP	87	240	3
TAP	87	288	2
TAP	87	336	1
TAP	87	336	4
TAP	88	48	4
TAP	88	48	5
TAP	88	96	3
TAP	88	96	6
TAP	88	192	0
TAP	88	192	4
TAP	88	240	1
TAP	88	240	5
TAP	88	288	2
TAP	88	288	6
STR	88	336	3
SXR	88	336	3	96	240	0
STR	88	336	7
SXR	88	336	7	96	240	4
TAP	89	336	1
TAP	89	336	6
TAP	90	48	0
TAP	90	48	1
TAP	90	96	2
TAP	90	96	7
TAP	90	192	6
TAP	90	192	7
TAP	90	240	0
TAP	90	240	5
TAP	90	336	3
TAP	90	336	4
TAP	91	48	0
TAP	91	48	7
TAP	91	96	1
TAP	91	96	6
TAP	91	192	2
TAP	91	240	3
TAP	91	288	4
TAP	91	336	2
TAP	91	336	5
TAP	92	48	7
TAP	92	96	5
TAP	92	144	3
TAP	92	192	1
TAP	92	240	6
TAP	92	288	0
TAP	92	288	4
STR	92	336	0
SXL	92	336	0	96	624	3
STR	92	336	4
SXL	92	336	4	96	624	7
TAP	95	0	3
TAP	95	0	7
TAP	95	48	2
TAP	95	48	6
TAP	95	96	1
TAP	95	96	5
TAP	95	144	0
TAP	95	144	4
TAP	95	192	7
TAP	95	216	6
TAP	95	240	5
TAP	95	264	4
TAP	95	288	3
TAP	95	312	2
STR	95	336	1
SSR	95	336	1	96	96	5

T_REC_TAP	410
T_REC_BRK	9
T_REC_XTP	0
T_REC_HLD	62
T_REC_XHO	0
T_REC_STR	71
T_REC_BST	3
T_REC_XST	0
T_REC_TTP	0
T_REC_THO	0
T_REC_SLD	74
T_REC_ALL	629
T_NUM_TAP	481
T_NUM_BRK	12
T_NUM_HLD	62
T_NUM_SLD	74
T_NUM_ALL	629
T_JUDGE_TAP	493
T_JUDGE_HLD	156
T_JUDGE_SLD	74
T_JUDGE_ALL	723
TTM_EACHPAIRS	129
TTM_SCR_TAP	240500
TTM_SCR_BRK	31200
TTM_SCR_HLD	62000
TTM_SCR_SLD	111000
TTM_SCR_ALL	444700
TTM_SCR_S	430200
TTM_SCR_SS	443500
TTM_RAT_ACV	10027

