VERSION	0.00.00	1.03.00
FES_MODE	0
BPM_DEF	191.000	191.000	191.000	191.000
MET_DEF	4	4
RESOLUTION	384
CLK_DEF	384
COMPATIBLE_CODE	MA2

BPM	0	0	191.000

TAP	5	0	3
TAP	5	96	4
TAP	5	192	2
TAP	5	192	5
TAP	5	288	1
TAP	5	288	6
TAP	6	0	7
TAP	6	96	0
TAP	6	192	1
TAP	6	288	2
TAP	6	288	7
TAP	7	0	6
TAP	7	96	7
TAP	7	192	0
TAP	7	192	5
TAP	8	0	4
TAP	8	96	3
TAP	8	192	2
TAP	8	288	1
TAP	8	288	4
TAP	9	0	5
TAP	9	96	4
TAP	9	192	3
TAP	9	192	6
TAP	10	0	0
TAP	10	96	7
TAP	10	192	6
TAP	10	288	0
TAP	10	288	5
TAP	11	0	1
TAP	11	96	0
TAP	11	192	2
TAP	11	192	7
TAP	12	0	4
TAP	12	96	3
STR	12	192	2
SLL	12	192	2	96	288	3
STR	12	192	5
SLR	12	192	5	96	288	4
TAP	13	288	2
TAP	13	288	5
TAP	14	0	1
TAP	14	96	0
TAP	14	96	2
TAP	14	192	3
TAP	14	288	2
TAP	14	288	4
TAP	15	0	5
TAP	15	96	4
TAP	15	96	6
TAP	15	192	7
TAP	15	288	0
TAP	15	288	6
TAP	16	0	5
TAP	16	96	4
TAP	16	96	6
TAP	16	192	3
TAP	16	288	2
TAP	16	288	4
TAP	17	0	1
STR	17	96	0
SI_	17	96	0	96	96	5
STR	17	96	2
SI_	17	96	2	96	96	5
TAP	18	0	6
TAP	18	96	5
TAP	18	96	7
TAP	18	192	4
TAP	18	288	3
TAP	18	288	5
TAP	19	0	2
TAP	19	96	1
TAP	19	96	3
TAP	19	192	0
TAP	19	288	1
TAP	19	288	7
TAP	20	0	2
TAP	20	96	1
TAP	20	96	3
TAP	20	192	4
TAP	20	288	3
TAP	20	288	5
TAP	21	0	6
STR	21	96	5
SI_	21	96	5	96	96	2
STR	21	96	7
SI_	21	96	7	96	96	2
TAP	22	0	1
TAP	22	96	0
TAP	22	96	2
TAP	22	192	7
TAP	22	288	0
TAP	22	288	6
TAP	23	0	5
TAP	23	96	4
TAP	23	96	6
TAP	23	192	3
TAP	23	288	2
TAP	23	288	4
TAP	24	0	1
TAP	24	96	0
TAP	24	96	2
TAP	24	192	7
TAP	24	288	0
TAP	24	288	6
TAP	25	0	5
STR	25	96	4
SI_	25	96	4	96	96	1
STR	25	96	6
SI_	25	96	6	96	96	3
TAP	26	0	6
TAP	26	96	5
TAP	26	96	7
TAP	26	192	0
TAP	26	288	1
TAP	26	288	7
TAP	27	0	2
TAP	27	96	1
TAP	27	96	3
TAP	27	192	4
TAP	27	288	3
TAP	27	288	5
TAP	28	0	6
TAP	28	96	5
TAP	28	96	7
TAP	28	192	0
TAP	28	288	1
TAP	28	288	7
TAP	29	0	2
STR	29	96	1
SI_	29	96	1	96	96	4
STR	29	96	3
SI_	29	96	3	96	96	6
HLD	30	0	7	144
HLD	30	144	0	144
HLD	30	288	1	144
HLD	31	48	2	144
TAP	31	192	3
TAP	31	288	4
TAP	31	288	5
HLD	32	0	6	144
HLD	32	144	5	144
HLD	32	288	4	144
HLD	33	48	3	144
TAP	33	192	2
TAP	33	288	1
TAP	33	288	4
HLD	34	0	0	144
HLD	34	144	7	144
HLD	34	288	6	144
HLD	35	48	5	144
TAP	35	192	4
TAP	35	288	2
TAP	35	288	3
HLD	36	0	1	144
HLD	36	144	2	144
HLD	36	288	3	144
HLD	37	48	4	144
TAP	37	192	5
TAP	37	288	3
TAP	37	288	6
HLD	38	0	1	144
HLD	38	144	3	144
HLD	38	288	4	144
HLD	39	48	6	144
TAP	39	192	7
TAP	39	288	0
TAP	39	288	5
HLD	40	0	6	144
HLD	40	144	4	144
HLD	40	288	3	144
HLD	41	48	1	144
TAP	41	192	0
TAP	41	288	2
TAP	41	288	3
HLD	42	0	5	144
HLD	42	144	7	144
HLD	42	288	0	144
HLD	43	48	2	144
TAP	43	192	3
TAP	43	288	1
TAP	43	288	4
HLD	44	0	2	144
HLD	44	144	3	144
HLD	44	288	4	144
HLD	45	48	5	336
TAP	46	0	1
TAP	46	96	2
TAP	46	192	3
TAP	46	288	4
TAP	47	0	5
TAP	47	96	4
TAP	47	192	3
TAP	47	192	6
TAP	48	0	6
TAP	48	96	5
TAP	48	192	4
TAP	48	288	3
TAP	49	0	2
TAP	49	96	3
TAP	49	192	1
TAP	49	192	4
TAP	50	0	5
TAP	50	96	6
TAP	50	192	7
TAP	50	288	0
TAP	51	0	1
TAP	51	96	0
TAP	51	192	2
TAP	51	192	7
TAP	52	0	3
TAP	52	0	4
TAP	52	96	2
TAP	52	96	5
TAP	52	192	1
TAP	52	192	6
STR	52	288	0
SXL	52	288	0	96	288	1
STR	52	288	7
SXR	52	288	7	96	288	6
BRK	54	0	0
BRK	54	0	7
TAP	54	96	1
TAP	54	192	2
TAP	54	288	3
TAP	55	0	4
TAP	55	96	5
TAP	55	192	5
TAP	55	192	6
TAP	56	0	7
TAP	56	96	6
TAP	56	192	5
TAP	56	288	4
TAP	57	0	3
TAP	57	96	2
TAP	57	192	1
TAP	57	192	2
TAP	58	0	0
TAP	58	96	1
TAP	58	192	2
TAP	58	288	1
TAP	58	288	3
TAP	59	0	4
TAP	59	96	5
TAP	59	192	4
TAP	59	192	6
TAP	60	0	7
TAP	60	96	6
TAP	60	192	5
TAP	60	288	4
TAP	60	288	6
TAP	61	0	1
TAP	61	0	3
STR	61	96	0
SCR	61	96	0	96	96	3
STR	61	96	7
SCL	61	96	7	96	96	4
BRK	62	0	1
BRK	62	0	6
TAP	62	96	3
TAP	62	96	4
TAP	62	192	5
TAP	62	240	5
TAP	62	288	4
TAP	63	0	6
TAP	63	0	7
TAP	63	96	4
TAP	63	96	5
TAP	63	192	2
TAP	63	240	2
TAP	63	288	3
TAP	64	0	0
TAP	64	0	1
TAP	64	96	6
TAP	64	96	7
TAP	64	192	1
TAP	64	240	1
TAP	64	288	0
TAP	65	0	2
TAP	65	0	7
STR	65	96	0
SI_	65	96	0	96	96	5
STR	65	96	1
SI_	65	96	1	96	96	4
TAP	66	0	6
TAP	66	0	7
TAP	66	96	4
TAP	66	96	5
TAP	66	192	2
TAP	66	240	2
TAP	66	288	3
TAP	67	0	0
TAP	67	0	1
TAP	67	96	2
TAP	67	96	3
TAP	67	192	5
TAP	67	240	5
TAP	67	288	4
TAP	68	0	6
TAP	68	0	7
TAP	68	96	0
TAP	68	96	1
TAP	68	192	6
TAP	68	240	6
TAP	68	288	7
TAP	69	0	0
TAP	69	0	5
STR	69	96	6
SI_	69	96	6	96	96	3
STR	69	96	7
SI_	69	96	7	96	96	2
STR	70	0	0
SCR	70	0	0	96	576	7
BRK	72	0	0
BRK	72	0	7
TAP	72	192	0
TAP	72	192	7
TAP	72	288	1
TAP	72	288	6
TAP	73	0	2
TAP	73	0	5
STR	73	96	3
SI_	73	96	3	96	96	0
STR	73	96	4
SI_	73	96	4	96	96	7
TAP	74	0	1
TAP	74	0	6
TAP	74	96	3
TAP	74	96	4
TAP	74	192	6
TAP	74	240	6
TAP	74	288	7
TAP	75	0	4
TAP	75	0	5
TAP	75	96	2
TAP	75	96	3
TAP	75	192	1
TAP	75	240	1
TAP	75	288	0
TAP	76	0	2
TAP	76	0	3
TAP	76	96	4
TAP	76	96	5
TAP	76	192	6
TAP	76	240	6
STR	76	288	7
SSR	76	288	7	96	288	3
TAP	78	0	0
TAP	78	0	1
TAP	78	96	2
TAP	78	96	3
TAP	78	192	5
TAP	78	240	5
TAP	78	288	4
TAP	79	0	6
TAP	79	0	7
TAP	79	96	4
TAP	79	96	5
TAP	79	192	2
TAP	79	240	2
TAP	79	288	3
TAP	80	0	0
TAP	80	0	1
TAP	80	96	6
TAP	80	96	7
TAP	80	192	1
TAP	80	240	1
TAP	80	288	0
TAP	81	0	2
TAP	81	0	7
STR	81	96	0
SI_	81	96	0	96	96	5
STR	81	96	1
SI_	81	96	1	96	96	4
TAP	82	0	6
TAP	82	0	7
TAP	82	96	4
TAP	82	96	5
TAP	82	192	2
TAP	82	240	2
TAP	82	288	3
TAP	83	0	0
TAP	83	0	1
TAP	83	96	2
TAP	83	96	3
TAP	83	192	5
TAP	83	240	5
TAP	83	288	4
TAP	84	0	6
TAP	84	0	7
TAP	84	96	0
TAP	84	96	1
TAP	84	192	6
TAP	84	240	6
STR	84	288	7
SXR	84	288	7	96	288	2
BRK	86	0	0
TAP	86	96	3
TAP	86	96	4
TAP	86	192	2
TAP	86	240	2
TAP	86	288	3
TAP	87	0	5
TAP	87	48	5
STR	87	96	4
SI_	87	96	4	96	96	1
TAP	88	0	0
TAP	88	0	7
TAP	88	96	4
TAP	88	96	5
TAP	88	192	2
TAP	88	240	2
STR	88	288	3
SUR	88	288	3	96	288	6
TAP	90	0	0
TAP	90	0	7
TAP	90	96	2
TAP	90	96	3
TAP	90	192	5
TAP	90	240	5
TAP	90	288	4
TAP	91	0	2
TAP	91	48	2
STR	91	96	3
SI_	91	96	3	96	96	7
TAP	92	0	0
TAP	92	48	0
TAP	92	96	7
TAP	92	144	7
TAP	92	192	2
TAP	92	240	2
TAP	92	288	5
STR	92	336	5
SCR	92	336	5	96	528	2
TAP	95	0	3
TAP	95	48	3
TAP	95	96	4
TAP	95	144	4
TAP	95	192	1
TAP	95	240	0
TAP	95	288	7
BST	95	336	6
SI_	95	336	6	96	96	2

T_REC_TAP	344
T_REC_BRK	7
T_REC_XTP	0
T_REC_HLD	32
T_REC_XHO	0
T_REC_STR	29
T_REC_BST	1
T_REC_XST	0
T_REC_TTP	0
T_REC_THO	0
T_REC_SLD	30
T_REC_ALL	443
T_NUM_TAP	373
T_NUM_BRK	8
T_NUM_HLD	32
T_NUM_SLD	30
T_NUM_ALL	443
T_JUDGE_TAP	381
T_JUDGE_HLD	100
T_JUDGE_SLD	30
T_JUDGE_ALL	511
TTM_EACHPAIRS	106
TTM_SCR_TAP	186500
TTM_SCR_BRK	20800
TTM_SCR_HLD	32000
TTM_SCR_SLD	45000
TTM_SCR_ALL	284300
TTM_SCR_S	275000
TTM_SCR_SS	283500
TTM_RAT_ACV	10028

