VERSION	0.00.00	1.03.00
FES_MODE	0
BPM_DEF	191.000	191.000	191.000	191.000
MET_DEF	4	4
RESOLUTION	384
CLK_DEF	384
COMPATIBLE_CODE	MA2

BPM	0	0	191.000

TAP	6	0	0
TAP	6	192	0
TAP	7	0	0
TAP	8	0	1
TAP	8	192	1
TAP	9	0	1
TAP	10	0	2
TAP	10	192	2
TAP	11	0	2
TAP	12	0	3
TAP	12	192	3
HLD	13	0	3	288
TAP	14	0	3
TAP	14	192	3
TAP	15	0	3
TAP	15	192	3
TAP	16	0	4
TAP	16	192	4
TAP	17	0	4
TAP	17	192	4
TAP	18	0	5
TAP	18	192	5
TAP	19	0	5
TAP	19	192	5
TAP	20	0	6
TAP	20	192	6
TAP	21	0	6
TAP	21	192	6
TAP	21	192	7
TAP	22	0	0
TAP	22	192	0
TAP	23	0	1
TAP	23	192	1
TAP	24	0	2
TAP	24	192	2
TAP	25	0	3
TAP	25	192	3
TAP	25	192	4
TAP	26	0	4
TAP	26	192	4
TAP	27	0	5
TAP	27	192	5
TAP	28	0	6
TAP	28	192	6
TAP	29	0	7
BRK	29	192	0
BRK	29	192	7
STR	30	0	0
SI_	30	0	0	96	288	3
STR	32	0	7
SI_	32	0	7	96	288	4
STR	34	0	1
SI_	34	0	1	96	288	4
STR	36	0	6
SI_	36	0	6	96	288	3
HLD	38	0	0	384
HLD	40	0	6	384
HLD	42	0	2	384
BRK	44	0	3
BRK	44	0	4
TAP	46	0	4
TAP	46	96	4
TAP	46	192	4
TAP	47	0	5
TAP	47	96	5
TAP	47	192	5
TAP	48	0	6
TAP	48	96	6
TAP	48	192	6
TAP	49	0	7
TAP	49	96	7
TAP	49	192	0
TAP	49	288	0
TAP	50	0	7
TAP	50	96	7
TAP	50	192	7
TAP	51	0	0
TAP	51	96	0
TAP	51	192	0
TAP	52	0	1
TAP	52	96	1
TAP	52	192	1
TAP	53	0	2
TAP	53	96	2
TAP	53	192	3
TAP	53	288	3
BRK	54	0	4
TAP	54	192	3
TAP	54	192	4
TAP	55	0	4
TAP	55	96	4
TAP	55	192	4
TAP	56	0	5
TAP	56	96	5
TAP	56	192	5
TAP	57	0	6
TAP	57	96	6
TAP	57	192	7
TAP	57	288	7
TAP	58	0	0
TAP	58	96	0
TAP	58	192	0
TAP	59	0	7
TAP	59	96	7
TAP	59	192	7
TAP	60	0	6
TAP	60	96	6
TAP	60	192	6
TAP	61	0	5
TAP	61	96	5
BRK	61	192	5
TAP	62	0	4
TAP	62	96	4
TAP	62	192	3
TAP	62	288	3
TAP	63	0	2
TAP	63	96	2
TAP	63	192	1
TAP	63	288	1
TAP	64	0	0
TAP	64	96	0
TAP	64	192	7
TAP	64	288	7
TAP	65	0	6
TAP	65	96	6
TAP	65	192	6
TAP	65	192	7
TAP	66	0	0
TAP	66	96	0
TAP	66	192	1
TAP	66	288	1
TAP	67	0	2
TAP	67	96	2
TAP	67	192	3
TAP	67	288	3
TAP	68	0	4
TAP	68	96	4
TAP	68	192	5
TAP	68	288	5
TAP	69	0	6
TAP	69	96	6
TAP	69	192	0
TAP	69	192	7
HLD	70	0	1	192
HLD	70	0	7	192
HLD	71	0	0	192
HLD	71	0	6	192
TAP	72	0	5
TAP	72	96	5
TAP	72	192	4
TAP	72	288	4
TAP	73	0	3
TAP	73	96	3
TAP	73	192	3
TAP	73	192	4
STR	74	0	3
SI_	74	0	3	96	288	0
STR	76	0	4
SI_	76	0	4	96	288	7
TAP	78	0	0
TAP	78	96	0
TAP	78	192	0
TAP	78	288	0
TAP	79	0	1
TAP	79	96	1
TAP	79	192	1
TAP	80	0	2
TAP	80	96	2
TAP	80	192	2
TAP	80	288	2
TAP	81	0	3
TAP	81	96	3
TAP	81	192	3
TAP	81	192	4
TAP	82	0	4
TAP	82	96	4
TAP	82	192	4
TAP	82	288	4
TAP	83	0	5
TAP	83	96	5
TAP	83	192	5
TAP	84	0	6
TAP	84	96	6
TAP	84	192	6
TAP	84	288	6
HLD	85	0	7	192
BRK	86	0	7
TAP	86	192	7
TAP	87	0	6
TAP	87	96	6
TAP	87	192	6
TAP	88	0	5
TAP	88	96	5
TAP	88	192	5
TAP	88	288	5
TAP	89	0	4
TAP	89	96	4
TAP	89	192	3
TAP	89	192	4
TAP	90	0	3
TAP	90	96	3
TAP	90	192	3
TAP	90	288	3
TAP	91	0	2
TAP	91	96	2
TAP	91	192	2
TAP	92	0	1
TAP	92	96	1
TAP	92	192	1
TAP	92	288	1
HLD	93	0	0	576
HLD	93	0	7	576
TAP	95	0	0
TAP	95	96	0
TAP	95	192	7
TAP	95	288	7
TAP	96	0	1
TAP	96	0	6

T_REC_TAP	188
T_REC_BRK	7
T_REC_XTP	0
T_REC_HLD	11
T_REC_XHO	0
T_REC_STR	6
T_REC_BST	0
T_REC_XST	0
T_REC_TTP	0
T_REC_THO	0
T_REC_SLD	6
T_REC_ALL	218
T_NUM_TAP	194
T_NUM_BRK	7
T_NUM_HLD	11
T_NUM_SLD	6
T_NUM_ALL	218
T_JUDGE_TAP	201
T_JUDGE_HLD	74
T_JUDGE_SLD	6
T_JUDGE_ALL	281
TTM_EACHPAIRS	14
TTM_SCR_TAP	97000
TTM_SCR_BRK	18200
TTM_SCR_HLD	11000
TTM_SCR_SLD	9000
TTM_SCR_ALL	135200
TTM_SCR_S	130500
TTM_SCR_SS	134500
TTM_RAT_ACV	10052

